osu file format v14

[General]
AudioFilename: audio.mp3
AudioLeadIn: 0
PreviewTime: 55612
Countdown: 0
SampleSet: Soft
StackLeniency: 0.7
Mode: 0
LetterboxInBreaks: 0
WidescreenStoryboard: 0

[Editor]
DistanceSpacing: 1
BeatDivisor: 4
GridSize: 32
TimelineZoom: 3.099999

[Metadata]
Title:MELODY
TitleUnicode:MELODY
Artist:Yuki Setsuna (CV: Kusunoki Tomori)
ArtistUnicode:優木せつ菜 (CV: 楠木ともり)
Creator:Adinda
Version:EXPERT
Source:ラブライブ!虹ヶ咲学園スクールアイドル同好会
Tags:Fuiba Fuyu love live! nijigasaki high school idol club gakuen doukoukai doukou kai nijigaku ニジガク nakagawa nana 中川菜々 llas sifas スクスタ festival all stars スクールアイドルフェスティバル perfect dream project pdp love u my friends anime video game japanese rock pop tycani pikaqours JRock J-Rock JPop J-Pop 鈴木エレカ Ereca Suzuki Hiroki Sagawa 鈴木まなか Suzuki Manaka サイトウ リョースケ Saito Ryosuke
BeatmapID:2918753
BeatmapSetID:1416320

[Difficulty]
HPDrainRate:6
CircleSize:4
OverallDifficulty:8.8
ApproachRate:9.4
SliderMultiplier:1.79999990463257
SliderTickRate:1

[Events]
//Background and Video events
0,0,"a.jpg",0,0
//Break Periods
//Storyboard Layer 0 (Background)
//Storyboard Layer 1 (Fail)
//Storyboard Layer 2 (Pass)
//Storyboard Layer 3 (Foreground)
//Storyboard Layer 4 (Overlay)
//Storyboard Sound Samples

[TimingPoints]
4026,260.869565217391,4,2,1,75,1,0
4026,-133.333333333333,4,2,1,75,0,0
12373,-90.9090909090909,4,2,1,85,0,0
20460,-90.9090909090909,4,2,1,75,0,0
20721,-181.818181818181,4,2,1,55,0,0
28025,-133.333333333333,4,2,1,75,0,0
28286,-90.9090909090909,4,2,1,80,0,0
29069,-117.647058823529,4,2,1,75,0,0
37417,-153.846153846153,4,2,1,65,0,0
44982,-153.846153846153,4,2,1,70,0,0
45243,-153.846153846153,4,2,1,75,0,0
45765,-117.647058823529,4,2,1,80,0,0
49417,-117.647058823529,4,2,1,85,0,0
49808,-105.263157894737,4,2,1,80,0,0
55156,-105.263157894737,4,2,1,30,0,0
55678,-105.263157894737,4,2,1,60,0,0
56199,-90.9090909090909,4,2,1,90,0,1
62656,-90.9090909090909,4,2,1,5,0,1
62721,-90.9090909090909,4,2,1,90,0,1
62917,-90.9090909090909,4,2,1,5,0,1
62982,-90.9090909090909,4,2,1,90,0,1
79352,-90.9090909090909,4,2,1,5,0,1
79417,-90.9090909090909,4,2,1,90,0,1
79612,-90.9090909090909,4,2,1,5,0,1
79677,-90.9090909090909,4,2,1,90,0,1
86460,-125,4,2,1,80,0,0
88286,-90.9090909090909,4,2,1,85,0,0
106352,-90.9090909090909,4,2,1,85,0,0
106808,-90.9090909090909,4,2,1,80,0,0
107330,-90.9090909090909,4,2,1,75,0,0
107852,-90.9090909090909,4,2,1,63,0,0
108373,-90.9090909090909,4,2,1,50,0,0
108895,-90.9090909090909,4,2,1,38,0,0
109417,-90.9090909090909,4,2,1,25,0,0
109939,-90.9090909090909,4,2,1,13,0,0
110199,-90.9090909090909,4,2,1,5,0,0

[Colours]
Combo1 : 130,165,255
Combo2 : 225,35,65
Combo3 : 70,110,240
Combo4 : 0,255,0

[HitObjects]
0,157,4026,6,0,P|-2:206|1:240,1,67.5000025749208,14|0,0:1|0:0,0:0:0:0:
90,268,4286,2,0,P|149:266|247:269,1,135.000005149842,8|8,0:0|0:1,0:0:0:0:
104,250,4678,2,8,P|163:248|261:251,1,135.000005149842
405,341,5069,5,8,0:1:0:0:
405,341,5199,2,0,P|406:273|404:206,1,135.000005149842,4|0,0:3|0:0,0:0:0:0:
504,82,5591,5,8,0:0:0:0:
499,218,5721,1,8,0:0:0:0:
409,68,5852,1,4,0:3:0:0:
409,68,6112,6,0,P|370:70|331:69,1,67.5000025749208,14|0,0:1|0:0,0:0:0:0:
245,155,6373,2,0,P|246:87|244:20,1,135.000005149842,8|8,0:0|0:1,0:0:0:0:
218,139,6765,2,8,P|219:71|217:4,1,135.000005149842
70,158,7156,5,8,0:1:0:0:
70,158,7286,2,0,P|68:90|70:23,1,135.000005149842,4|0,0:3|0:0,0:0:0:0:
139,300,7678,5,10,0:3:0:0:
161,215,7808,1,8,0:3:0:0:
54,253,7939,1,4,0:3:0:0:
54,253,8199,6,0,P|33:270|28:320,1,67.5000025749208,14|0,3:1|0:0,0:0:0:0:
29,327,8460,2,0,P|50:310|55:260,1,67.5000025749208,4|0,3:0|0:0,0:0:0:0:
139,300,8721,6,0,P|160:317|165:367,1,67.5000025749208,4|0,3:0|0:0,0:0:0:0:
164,374,8982,2,0,P|143:357|138:307,1,67.5000025749208,4|0,3:0|0:0,0:0:0:0:
288,238,9243,6,0,P|327:238|364:237,1,67.5000025749208,14|0,3:1|0:0,0:0:0:0:
418,303,9504,2,0,P|457:303|494:302,1,67.5000025749208,4|0,3:0|0:0,0:0:0:0:
312,145,9765,2,0,P|351:145|388:144,1,67.5000025749208,4|0,3:0|0:0,0:0:0:0:
442,210,10026,2,0,P|481:210|518:209,1,67.5000025749208,4|0,3:0|0:0,0:0:0:0:
312,145,10286,5,6,3:0:0:0:
312,145,10417,1,4,3:0:0:0:
348,56,10547,1,4,3:0:0:0:
348,56,10678,1,4,3:0:0:0:
281,129,10808,5,6,3:0:0:0:
281,129,10939,1,4,3:0:0:0:
317,40,11069,1,4,3:0:0:0:
317,40,11200,1,4,3:0:0:0:
442,88,11330,5,10,0:0:0:0:
161,87,11460,1,10,0:0:0:0:
161,87,11852,5,10,0:0:0:0:
126,114,11938,1,10,0:0:0:0:
121,157,12025,1,10,0:0:0:0:
147,192,12113,1,10,0:0:0:0:
181,219,12199,1,10,0:0:0:0:
186,262,12286,1,10,0:0:0:0:
160,297,12373,2,0,P|223:296|371:297,1,198.000006042481,14|10,0:1|0:0,0:0:0:0:
79,360,12765,6,0,P|46:325|37:266,1,99.0000030212403,2|0,0:0|0:0,0:0:0:0:
28,43,13025,1,10,0:1:0:0:
0,140,13156,2,0,P|33:104|43:56,1,99.0000030212403,10|0,0:0|0:0,0:0:0:0:
289,0,13417,6,8,P|288:83|293:217,1,198.000006042481,10|10,0:1|0:0,0:0:0:0:
291,197,13808,1,8,0:1:0:0:
503,150,13939,2,0,P|441:150|400:151,1,99.0000030212403,2|8,0:0|0:1,0:0:0:0:
400,277,14199,2,0,P|449:275|498:276,1,99.0000030212403,10|0,0:0|0:0,0:0:0:0:
344,381,14460,6,8,P|297:338|164:296,1,198.000006042481,10|8,0:1|0:0,0:0:0:0:
3,276,14852,2,0,P|50:233|183:191,1,198.000006042481,2|8,0:0|0:1,0:0:0:0:
77,36,15243,6,0,P|45:79|79:102,1,99.0000030212403,10|0,0:0|0:0,0:0:0:0:
24,287,15504,2,8,P|71:244|204:202,1,198.000006042481,10|8,0:1|0:0,0:0:0:0:
196,202,15895,1,8,0:1:0:0:
323,53,16025,5,2,0:0:0:0:
198,95,16156,1,8,0:1:0:0:
333,160,16286,2,0,P|391:159|448:160,1,99.0000030212403,8|0,0:0|0:0,0:0:0:0:
494,242,16547,6,8,P|506:316|401:309,1,198.000006042481,10|8,0:1|0:0,0:0:0:0:
313,375,16939,2,0,P|313:320|311:271,1,99.0000030212403,2|0,0:0|0:0,0:0:0:0:
24,287,17199,1,10,0:1:0:0:
24,287,17330,2,0,P|24:232|26:183,1,99.0000030212403,10|0,0:0|0:0,0:0:0:0:
126,162,17591,6,8,P|127:211|125:367,1,198.000006042481,10|8,0:1|0:0,0:0:0:0:
126,359,17982,1,8,0:1:0:0:
310,151,18112,6,0,P|361:149|410:149,1,99.0000030212403,2|8,0:0|0:1,0:0:0:0:
302,338,18373,2,0,P|277:295|254:251,1,99.0000030212403,8|0,0:0|0:0,0:0:0:0:
462,253,18634,2,0,P|437:295|410:337,1,99.0000030212403,10|0,0:1|0:0,0:0:0:0:
464,48,18895,5,8,0:0:0:0:
487,142,19025,1,8,0:0:0:0:
310,151,19156,1,8,0:0:0:0:
287,57,19286,1,8,0:3:0:0:
103,68,19417,1,4,0:3:0:0:
126,162,19547,1,4,0:3:0:0:
37,4,19678,5,14,0:1:0:0:
256,192,19743,12,2,20460,0:0:0:0:
465,353,20721,6,0,P|404:355|259:355,1,198.000006042481,14|8,0:1|0:1,0:0:0:0:
374,228,21504,5,2,0:0:0:0:
374,228,21765,2,8,P|329:186|226:83,1,198.000006042481,10|8,0:1|0:1,0:1:0:0:
37,4,22547,5,2,0:0:0:0:
37,4,22808,2,0,P|33:44|33:110,1,99.0000030212403,10|0,0:1|0:0,0:0:0:0:
228,188,23330,2,0,P|232:138|232:89,1,99.0000030212403,10|2,0:1|0:0,0:0:0:0:
232,89,23721,5,2,0:0:0:0:
232,89,23852,2,8,P|330:89|429:86,1,198.000006042481,8|10,0:1|0:1,0:1:0:0:
216,70,24634,5,2,0:0:0:0:
216,70,24895,2,8,P|314:70|416:70,1,198.000006042481,10|8,0:1|0:1,0:1:0:0:
374,240,25678,5,2,0:0:0:0:
374,240,25939,2,0,P|400:268|397:330,1,99.0000030212403,10|0,0:1|0:0,0:0:0:0:
397,252,26460,2,0,P|423:280|420:342,1,99.0000030212403,10|2,0:1|0:0,0:0:0:0:
422,338,26852,5,2,0:0:0:0:
422,338,26982,2,8,P|323:338|224:337,1,198.000006042481,8|8,0:1|0:1,0:1:0:0:
224,337,27765,1,2,0:0:0:0:
124,274,28025,6,0,P|123:317|122:351,1,67.5000025749208,14|0,0:1|0:0,0:0:0:0:
14,340,28286,2,0,P|15:284|21:21,1,297.000009063721,14|8,0:1|0:1,0:0:0:0:
150,25,28808,2,0,P|141:76|167:63,1,99.0000030212403,6|0,0:3|0:0,0:0:0:0:
368,147,29069,6,0,P|306:147|200:147,1,153.000002918243,14|8,0:1|0:0,0:0:0:0:
448,209,29460,2,0,P|478:155|502:123,1,76.5000014591217,2|0,0:0|0:0,0:0:0:0:
487,143,29721,1,8,0:1:0:0:
354,248,29852,2,0,P|385:301|401:337,1,76.5000014591217,10|0,0:0|0:0,0:0:0:0:
238,314,30112,6,8,P|329:314|391:314,1,153.000002918243,10|8,0:1|0:0,0:0:0:0:
131,358,30504,2,0,P|145:321|119:278,1,76.5000014591217,8|0,0:1|0:0,0:0:0:0:
131,288,30765,1,8,0:1:0:0:
38,249,30895,2,0,P|52:212|26:169,1,76.5000014591217,10|0,0:0|0:0,0:0:0:0:
55,35,31156,6,8,P|63:86|159:105,1,153.000002918243,10|10,0:1|0:0,0:0:0:0:
150,110,31547,1,0,0:0:0:0:
254,22,31678,2,0,P|214:22|164:22,1,76.5000014591217,2|8,0:0|0:1,0:0:0:0:
374,94,31939,5,10,0:0:0:0:
358,13,32069,1,2,0:0:0:0:
285,122,32199,6,8,P|283:171|286:284,1,153.000002918243,10|8,0:1|0:0,0:0:0:0:
285,274,32591,1,8,0:1:0:0:
374,246,32721,2,0,P|371:169|373:93,1,153.000002918243,2|8,0:0|0:0,0:0:0:0:
373,93,33112,1,0,0:0:0:0:
456,70,33243,2,0,P|454:119|457:232,2,153.000002918243,10|8|2,0:1|0:0|0:0,0:0:0:0:
456,70,33895,1,8,0:1:0:0:
227,6,34025,6,0,P|187:6|137:6,1,76.5000014591217,10|0,0:0|0:0,0:0:0:0:
150,110,34286,2,8,P|121:138|37:225,1,153.000002918243,10|8,0:1|0:0,0:0:0:0:
42,219,34678,1,8,0:1:0:0:
125,282,34808,6,0,P|124:328|124:371,1,76.5000014591217,2|8,0:0|0:1,0:0:0:0:
229,361,35069,2,0,P|230:315|229:271,1,76.5000014591217,10|0,0:0|0:0,0:0:0:0:
381,358,35330,6,8,P|322:358|226:361,1,153.000002918243,10|8,0:1|0:0,0:0:0:0:
420,273,35721,2,0,P|450:249|443:209,1,76.5000014591217,2|0,0:0|0:0,0:0:0:0:
481,346,35982,1,10,0:1:0:0:
427,223,36112,2,0,P|397:247|404:287,1,76.5000014591217,14|0,0:0|0:0,0:0:0:0:
286,77,36373,5,12,0:1:0:0:
181,108,36504,1,8,0:0:0:0:
270,179,36634,1,8,0:0:0:0:
194,13,36765,1,8,0:1:0:0:
29,184,36895,5,10,0:0:0:0:
86,45,37025,1,8,0:3:0:0:
109,229,37156,1,6,0:3:0:0:
0,15,37286,1,4,0:3:0:0:
127,208,37417,6,8,P|123:289|124:386,1,175.499991966248,14|8,0:1|0:1,0:1:0:0:
123,383,37939,1,2,0:0:0:0:
429,116,38460,6,8,P|430:70|425:-17,1,116.999994644165,10|10,0:1|0:1,0:1:0:0:
446,138,38982,1,10,0:0:0:0:
446,138,39112,2,0,P|447:92|442:4,1,116.999994644165,10|2,0:1|0:0,0:0:0:0:
325,247,39504,6,0,P|364:270|442:310,1,116.999994644165,8|0,0:1|0:0,0:0:0:0:
427,303,39895,1,8,0:1:0:0:
277,118,40025,6,0,P|236:139|106:220,1,175.499991966248,2|0,0:0|0:0,0:0:0:0:
50,155,40547,6,8,P|50:96|48:38,2,116.999994644165,8|10|6,0:1|0:1|0:3,0:1:0:0:
1,228,41199,2,0,P|0:263|3:293,1,58.4999973220826,4|2,0:3|0:0,0:0:0:0:
2,286,41460,1,8,0:1:0:0:
198,366,41591,6,8,P|250:364|383:369,2,175.499991966248,10|8|2,0:1|0:1|0:1,0:1:0:0:
483,173,42634,6,8,P|483:114|481:49,2,116.999994644165,10|8|10,0:1|0:1|0:0,0:1:0:0:
392,173,43286,2,8,P|392:115|394:57,1,116.999994644165,10|10,0:1|0:1,0:1:0:0:
290,4,43678,6,8,P|303:63|213:59,1,175.499991966248,8|8,0:1|0:1,0:1:0:0:
134,6,44199,2,0,P|133:73|133:201,1,175.499991966248,2|0,0:0|0:0,0:0:0:0:
58,92,44721,6,0,P|19:92|-19:94,1,58.4999973220826,10|0,0:1|0:0,0:0:0:0:
132,181,44982,2,0,P|161:180|190:180,1,58.4999973220826,12|0,0:0|0:0,0:0:0:0:
375,208,45243,5,10,0:1:0:0:
190,180,45373,1,8,0:0:0:0:
281,104,45504,1,10,0:0:0:0:
276,286,45634,1,8,0:0:0:0:
346,361,45765,6,0,P|293:334|185:311,2,153.000002918243,14|8|0,0:1|0:0|0:0,0:0:0:0:
346,361,46417,1,8,0:1:0:0:
503,210,46547,6,0,P|503:166|501:117,1,76.5000014591217,10|0,0:0|0:0,0:0:0:0:
376,131,46808,2,0,P|374:169|374:207,1,76.5000014591217,10|0,0:1|0:0,0:0:0:0:
170,65,47069,6,0,P|159:28|127:7,1,76.5000014591217,10|8,0:0|0:1,0:0:0:0:
53,117,47330,2,0,P|26:145|24:183,1,76.5000014591217,2|8,0:0|0:1,0:0:0:0:
153,195,47591,2,0,P|190:203|224:186,1,76.5000014591217,10|0,0:0|0:0,0:0:0:0:
70,285,47852,5,10,0:1:0:0:
265,276,47982,1,2,0:0:0:0:
223,188,48112,1,10,0:0:0:0:
114,372,48243,1,2,0:0:0:0:
171,290,48373,1,2,0:0:0:0:
361,369,48504,6,0,P|313:367|278:367,1,76.5000014591217,10|8,0:1|0:0,0:0:0:0:
436,288,48765,2,0,P|435:240|437:124,1,153.000002918243,2|0,0:0|0:0,0:0:0:0:
138,152,49156,5,12,0:0:0:0:
310,141,49286,1,8,0:1:0:0:
280,4,49417,5,10,0:0:0:0:
171,290,49547,1,14,0:1:0:0:
171,290,49808,6,8,P|104:288|-5:289,1,170.999995433807,14|8,0:1|0:1,0:1:0:0:
0,47,50199,2,8,P|85:45|170:48,1,170.999995433807,8|0,0:0|0:0,0:0:0:0:
280,4,50591,1,8,0:1:0:0:
280,4,50721,2,0,P|365:2|450:5,1,170.999995433807,8|8,0:0|0:1,0:0:0:0:
450,5,51112,1,0,0:0:0:0:
444,173,51243,6,0,P|436:130|399:102,1,85.4999977169037,10|8,0:0|0:1,0:0:0:0:
344,221,51504,1,2,0:0:0:0:
426,287,51634,2,8,P|467:301|509:283,1,85.4999977169037,10|8,0:1|0:0,0:0:0:0:
504,287,51895,1,2,0:0:0:0:
344,221,52025,2,0,P|310:249|305:295,1,85.4999977169037,8|0,0:1|0:0,0:0:0:0:
189,372,52286,6,0,P|189:321|186:175,1,170.999995433807,8|0,0:0|0:0,0:0:0:0:
186,201,52678,1,8,0:1:0:0:
82,312,52808,2,8,P|82:261|85:115,1,170.999995433807,8|12,0:0|0:1,0:0:0:0:
304,24,53199,5,8,0:0:0:0:
304,24,53265,1,8,0:0:0:0:
304,24,53330,1,8,0:0:0:0:
186,201,53460,1,8,0:1:0:0:
193,13,53591,1,8,0:0:0:0:
296,212,53721,5,8,0:0:0:0:
472,158,53852,1,8,0:0:0:0:
285,244,53982,1,8,0:0:0:0:
461,190,54113,1,12,0:1:0:0:
21,372,55156,6,0,P|4:371|-13:372,10,28.4999984839758,2|2|2|2|2|2|2|2|2|2|2,0:0|0:0|0:0|0:0|0:0|0:0|0:0|0:0|0:0|0:0|0:0,0:0:0:0:
83,316,55678,6,0,P|84:287|84:257,2,56.9999969679516,2|0|0,3:0|3:0|3:0,3:0:0:0:
187,262,55939,2,0,P|187:290|188:318,2,56.9999969679516,2|0|0,3:0|3:0|3:0,3:0:0:0:
102,4,56199,6,0,P|43:6|-11:4,1,99.0000030212403,14|0,0:1|0:0,0:0:0:0:
1,113,56460,2,0,P|50:110|99:111,1,99.0000030212403,10|0,0:0|0:0,0:0:0:0:
328,18,56721,2,0,P|326:93|331:228,1,198.000006042481,2|8,0:1|0:0,0:0:0:0:
463,243,57112,5,2,0:0:0:0:
463,243,57243,2,0,P|432:180|431:135,1,99.0000030212403,10|0,0:1|0:0,0:0:0:0:
351,384,57504,2,0,P|382:321|383:276,1,99.0000030212403,10|8,0:0|0:1,0:0:0:0:
242,363,57765,6,0,P|165:363|23:365,1,198.000006042481,2|8,0:0|0:0,0:0:0:0:
44,364,58156,1,0,0:0:0:0:
142,253,58286,2,0,P|87:198|-14:99,1,198.000006042481,10|8,0:1|0:0,0:0:0:0:
166,12,58678,6,0,P|165:75|167:137,1,99.0000030212403,2|0,0:0|0:0,0:0:0:0:
403,92,58939,5,10,0:1:0:0:
310,50,59069,1,10,0:0:0:0:
328,186,59199,1,2,0:0:0:0:
494,124,59330,6,0,P|495:61|493:-1,1,99.0000030212403,10|0,0:1|0:0,0:0:0:0:
512,206,59591,2,0,P|513:143|511:81,1,99.0000030212403,10|8,0:0|0:1,0:0:0:0:
288,368,59852,2,0,P|348:332|499:309,1,198.000006042481,2|8,0:0|0:0,0:0:0:0:
472,307,60243,1,0,0:0:0:0:
185,113,60373,6,0,P|143:86|90:68,1,99.0000030212403,10|0,0:1|0:0,0:0:0:0:
89,221,60634,2,0,P|47:194|-6:176,1,99.0000030212403,10|0,0:0|0:0,0:0:0:0:
90,371,60895,6,0,P|168:368|307:368,1,198.000006042481,2|8,0:0|0:0,0:0:0:0:
287,367,61286,1,0,0:0:0:0:
383,194,61417,6,0,P|346:263|277:383,1,198.000006042481,10|10,0:1|0:0,0:0:0:0:
472,307,61808,6,0,P|494:260|454:266,1,99.0000030212403,10|0,0:1|0:0,0:0:0:0:
495,85,62069,2,0,P|473:132|513:126,1,99.0000030212403,10|8,0:1|0:0,0:0:0:0:
383,9,62330,5,2,0:0:0:0:
316,86,62460,2,0,P|252:86|144:84,1,148.50000453186,8|0,0:1|0:0,0:0:0:0:
331,111,62721,2,0,P|267:111|159:109,1,148.50000453186,12|0,0:0|0:0,0:0:0:0:
103,170,62982,5,10,0:1:0:0:
173,328,63112,1,8,0:1:0:0:
306,197,63243,2,0,P|246:195|197:197,1,99.0000030212403,12|0,0:0|0:0,0:0:0:0:
104,269,63504,6,0,P|102:219|104:170,1,99.0000030212403,10|0,0:1|0:0,0:0:0:0:
359,356,63765,2,0,P|360:306|358:257,1,99.0000030212403,14|8,0:0|0:1,0:0:0:0:
11,373,64025,2,0,P|9:323|11:274,1,99.0000030212403,2|8,0:0|0:1,0:0:0:0:
2,117,64286,5,10,0:0:0:0:
103,169,64417,1,8,0:0:0:0:
10,7,64547,2,0,P|26:87|139:184,1,198.000006042481,14|10,0:1|0:0,0:0:0:0:
197,7,64939,2,0,P|119:-19|-20:30,1,198.000006042481,2|8,0:0|0:1,0:0:0:0:
255,100,65330,6,0,P|319:97|362:98,1,99.0000030212403,10|0,0:0|0:0,0:0:0:0:
466,8,65591,2,8,P|465:73|471:225,1,198.000006042481,10|8,0:1|0:0,0:0:0:0:
469,205,65982,1,8,0:1:0:0:
430,367,66112,6,0,P|457:312|416:296,1,99.0000030212403,2|8,0:1|0:1,0:0:0:0:
174,279,66373,2,0,P|148:317|181:349,1,99.0000030212403,10|0,0:0|0:0,0:0:0:0:
94,102,66634,5,14,0:1:0:0:
182,350,66765,1,2,0:0:0:0:
267,213,66895,1,10,0:0:0:0:
8,235,67025,2,0,P|7:141|10:33,1,198.000006042481,2|8,0:0|0:1,0:0:0:0:
367,9,67417,6,0,P|372:80|406:117,1,99.0000030212403,10|0,0:0|0:0,0:0:0:0:
466,147,67678,2,8,P|347:48|357:-1,1,198.000006042481,10|8,0:1|0:0,0:0:0:0:
348,24,68069,1,8,0:1:0:0:
357,262,68199,6,0,P|421:259|479:261,1,99.0000030212403,2|8,0:0|0:1,0:0:0:0:
394,369,68460,2,0,P|458:366|516:368,1,99.0000030212403,10|0,0:0|0:0,0:0:0:0:
273,247,68721,6,8,P|417:238|475:240,1,198.000006042481,10|10,0:1|0:0,0:0:0:0:
199,180,69112,2,0,P|137:310|107:360,1,198.000006042481,2|8,0:0|0:1,0:0:0:0:
294,149,69504,2,0,P|255:96|222:42,1,99.0000030212403,10|0,0:0|0:0,0:0:0:0:
40,9,69765,6,8,P|36:112|40:231,1,198.000006042481,10|8,0:1|0:0,0:0:0:0:
69,6,70156,2,8,P|65:109|69:228,1,198.000006042481,10|8,0:1|0:1,0:1:0:0:
98,3,70547,2,0,P|95:61|96:114,1,99.0000030212403,10|0,0:0|0:0,0:0:0:0:
273,319,70808,5,10,0:1:0:0:
438,175,70939,1,2,0:0:0:0:
404,304,71069,1,14,0:0:0:0:
306,191,71199,2,0,P|263:153|275:108,1,99.0000030212403,2|0,0:0|0:0,0:0:0:0:
512,51,71460,5,8,0:1:0:0:
389,87,71591,1,10,0:0:0:0:
438,175,71721,2,0,P|395:137|407:92,1,99.0000030212403,2|8,0:0|0:1,0:0:0:0:
404,304,71982,5,8,0:0:0:0:
404,304,72047,1,8,0:0:0:0:
404,304,72112,1,8,0:0:0:0:
438,175,72243,1,8,0:0:0:0:
378,293,72373,2,0,P|379:340|340:367,1,99.0000030212403,10|8,0:0|0:1,0:0:0:0:
99,105,72634,5,10,0:3:0:0:
306,191,72765,1,6,0:3:0:0:
111,121,72895,6,0,P|51:124|2:122,1,99.0000030212403,14|0,0:1|0:0,0:0:0:0:
166,252,73156,2,0,P|106:255|57:253,1,99.0000030212403,10|0,0:0|0:0,0:0:0:0:
340,367,73417,2,0,P|280:370|138:366,1,198.000006042481,2|8,0:0|0:0,0:0:0:0:
142,366,73808,1,0,0:0:0:0:
306,191,73939,6,0,P|272:140|289:96,1,99.0000030212403,10|0,0:1|0:0,0:0:0:0:
415,20,74199,2,0,P|420:67|389:104,1,99.0000030212403,10|8,0:0|0:1,0:0:0:0:
508,383,74460,6,0,P|503:313|504:171,1,198.000006042481,2|8,0:0|0:0,0:0:0:0:
503,185,74852,1,0,0:0:0:0:
306,191,74982,2,8,P|404:184|503:186,1,198.000006042481,10|10,0:1|0:0,0:0:0:0:
413,92,75373,2,0,P|444:55|438:7,1,99.0000030212403,2|0,0:0|0:0,0:0:0:0:
26,13,75634,5,10,0:1:0:0:
138,119,75765,1,10,0:0:0:0:
127,0,75895,1,2,0:0:0:0:
42,148,76025,2,0,P|39:204|41:260,1,99.0000030212403,10|0,0:1|0:0,0:0:0:0:
304,289,76286,2,0,P|307:233|305:177,1,99.0000030212403,10|8,0:0|0:1,0:0:0:0:
42,371,76547,2,0,P|77:329|227:292,1,198.000006042481,2|8,0:0|0:0,0:0:0:0:
421,260,76939,5,2,0:0:0:0:
421,260,77069,2,0,P|420:309|421:358,1,99.0000030212403,10|0,0:1|0:0,0:0:0:0:
512,162,77330,2,0,P|513:211|512:260,1,99.0000030212403,10|0,0:0|0:0,0:0:0:0:
401,74,77591,6,0,P|337:78|177:79,1,198.000006042481,2|8,0:0|0:0,0:0:0:0:
203,79,77982,1,0,0:0:0:0:
305,190,78112,6,8,P|301:133|298:-26,1,198.000006042481,10|10,0:1|0:0,0:0:0:0:
186,188,78504,6,0,P|139:159|75:154,1,99.0000030212403,10|0,0:1|0:0,0:0:0:0:
90,246,78765,2,0,P|36:258|-12:300,1,99.0000030212403,10|8,0:1|0:0,0:0:0:0:
186,188,79025,5,2,0:0:0:0:
192,288,79156,2,0,P|201:339|297:360,1,148.50000453186,8|0,0:1|0:0,0:0:0:0:
213,280,79417,2,0,P|222:331|318:352,1,148.50000453186,12|0,0:0|0:0,0:0:0:0:
392,371,79678,5,10,0:1:0:0:
323,273,79808,1,8,0:1:0:0:
456,141,79939,2,0,P|460:201|455:263,1,99.0000030212403,12|0,0:0|0:0,0:0:0:0:
392,371,80199,6,0,P|452:367|514:372,1,99.0000030212403,10|0,0:1|0:0,0:0:0:0:
213,279,80460,2,0,P|191:324|165:366,1,99.0000030212403,14|8,0:0|0:1,0:0:0:0:
348,177,80721,2,0,P|319:136|296:92,1,99.0000030212403,2|8,0:0|0:1,0:0:0:0:
362,6,80982,5,10,0:0:0:0:
305,358,81112,1,8,0:0:0:0:
98,95,81243,6,0,P|182:94|305:92,2,198.000006042481,14|8|0,0:1|0:0|0:0,0:0:0:0:
98,95,81895,1,8,0:1:0:0:
6,150,82025,2,0,P|4:90|4:46,1,99.0000030212403,10|0,0:0|0:0,0:0:0:0:
27,246,82286,6,0,P|25:186|25:142,1,99.0000030212403,10|0,0:1|0:0,0:0:0:0:
108,331,82547,1,8,0:0:0:0:
108,331,82678,2,0,P|57:362|18:384,1,99.0000030212403,8|2,0:1|0:0,0:0:0:0:
137,214,82939,1,8,0:1:0:0:
137,214,83069,2,0,P|189:242|228:264,1,99.0000030212403,8|0,0:0|0:0,0:0:0:0:
363,375,83330,6,0,P|362:313|363:156,1,198.000006042481,14|10,0:1|0:1,0:0:0:0:
363,178,83721,1,0,0:0:0:0:
470,324,83852,6,8,P|471:262|470:105,1,198.000006042481,14|8,0:0|0:1,0:0:0:0:
471,127,84243,1,2,0:0:0:0:
223,261,84373,6,0,P|224:199|223:42,1,198.000006042481,14|0,0:1|0:0,0:0:0:0:
246,240,84765,6,0,P|247:178|246:21,1,198.000006042481,14|8,0:1|0:1,0:0:0:0:
352,18,85156,5,10,0:0:0:0:
352,18,85286,1,8,0:0:0:0:
111,183,85417,6,0,P|103:270|5:231,2,198.000006042481,14|8|10,0:1|0:0|0:0,0:0:0:0:
31,108,86069,5,10,0:1:0:0:
183,345,86199,1,8,0:3:0:0:
131,69,86330,1,6,0:3:0:0:
95,384,86460,1,12,0:1:0:0:
95,384,86721,6,0,P|65:383|40:383,2,48,0|0|0,3:0|3:0|3:0,3:0:0:0:
230,346,86982,2,0,P|200:345|175:345,2,48,2|0|0,3:0|3:0|3:0,3:0:0:0:
322,309,87243,5,2,3:0:0:0:
318,262,87329,1,2,3:0:0:0:
349,227,87416,1,2,3:0:0:0:
396,226,87503,1,2,3:0:0:0:
396,226,87765,5,14,0:0:0:0:
349,227,87852,1,8,0:0:0:0:
318,190,87939,1,8,0:0:0:0:
322,143,88026,1,8,0:0:0:0:
326,96,88112,1,8,0:0:0:0:
295,61,88199,1,8,0:0:0:0:
248,60,88286,2,12,P|325:58|468:55,1,198.000006042481,14|8,0:1|0:0,0:1:0:0:
445,55,88678,5,8,0:1:0:0:
139,134,88808,2,0,P|138:77|138:31,1,99.0000030212403,10|8,0:1|0:0,0:0:0:0:
37,48,89004,1,8,0:0:0:0:
52,66,89069,2,0,P|53:123|53:169,1,99.0000030212403,10|8,0:0|0:1,0:0:0:0:
0,252,89330,1,10,0:0:0:0:
0,252,89460,1,8,0:0:0:0:
268,370,89591,6,0,P|191:368|46:368,1,198.000006042481,14|8,0:1|0:0,0:0:0:0:
187,260,89982,2,8,P|264:258|409:258,1,198.000006042481,10|8,0:1|0:1,0:1:0:0:
488,319,90373,2,0,P|488:269|489:220,1,99.0000030212403,10|0,0:0|0:0,0:0:0:0:
447,30,90634,6,8,P|448:95|332:91,1,198.000006042481,10|8,0:1|0:0,0:0:0:0:
338,102,91025,1,8,0:1:0:0:
136,54,91156,2,0,P|135:119|251:115,1,198.000006042481,2|8,0:0|0:0,0:0:0:0:
244,126,91547,1,0,0:0:0:0:
223,309,91678,6,0,P|169:309|112:312,1,99.0000030212403,14|0,0:1|0:0,0:0:0:0:
246,225,91939,1,10,0:0:0:0:
246,225,92069,2,0,P|246:171|243:114,1,99.0000030212403,2|0,0:0|0:0,0:0:0:0:
338,206,92330,1,10,0:1:0:0:
338,206,92460,2,0,P|392:206|449:203,1,99.0000030212403,10|0,0:0|0:0,0:0:0:0:
317,286,92721,2,0,P|317:340|320:397,1,99.0000030212403,10|0,0:1|0:0,0:0:0:0:
505,79,92982,6,0,P|503:35|460:-1,1,99.0000030212403,10|8,0:0|0:1,0:0:0:0:
330,18,93243,2,0,P|368:48|372:97,1,99.0000030212403,2|8,0:0|0:1,0:0:0:0:
243,126,93504,2,0,P|241:82|198:46,1,99.0000030212403,10|0,0:0|0:0,0:0:0:0:
29,2,93765,6,0,P|29:62|30:222,2,198.000006042481,10|8|0,0:1|0:0|0:0,0:0:0:0:
29,2,94417,1,8,0:1:0:0:
243,126,94547,6,0,P|186:126|135:128,1,99.0000030212403,10|0,0:0|0:0,0:0:0:0:
269,258,94808,2,0,P|326:258|377:256,1,99.0000030212403,10|0,0:1|0:0,0:0:0:0:
437,327,95069,5,8,0:0:0:0:
352,138,95199,1,8,0:1:0:0:
291,231,95330,2,0,P|348:231|399:229,1,99.0000030212403,2|8,0:0|0:1,0:0:0:0:
104,249,95591,6,0,P|105:301|65:321,1,99.0000030212403,8|2,0:0|0:0,0:0:0:0:
9,241,95786,1,2,0:0:0:0:
21,219,95852,2,8,P|20:120|20:21,1,198.000006042481,14|8,0:1|0:0,0:0:0:0:
183,38,96243,6,0,P|184:90|144:110,1,99.0000030212403,2|0,0:0|0:0,0:0:0:0:
371,129,96504,1,10,0:1:0:0:
316,66,96634,2,0,P|315:118|355:138,1,99.0000030212403,10|0,0:0|0:0,0:0:0:0:
465,289,96895,6,8,P|464:190|464:91,1,198.000006042481,10|10,0:1|0:0,0:0:0:0:
464,91,97286,1,8,0:1:0:0:
249,259,97417,6,0,P|306:258|354:257,1,99.0000030212403,2|8,0:0|0:1,0:0:0:0:
303,361,97678,2,0,P|360:360|408:359,1,99.0000030212403,10|0,0:0|0:0,0:0:0:0:
189,356,97939,6,8,P|137:325|-17:268,1,198.000006042481,10|8,0:1|0:0,0:0:0:0:
136,147,98330,2,0,P|188:116|342:59,1,198.000006042481,2|8,0:0|0:1,0:0:0:0:
87,63,98721,6,0,P|88:36|32:48,1,99.0000030212403,10|0,0:0|0:0,0:0:0:0:
130,177,98982,2,8,P|182:146|336:89,1,198.000006042481,10|8,0:1|0:0,0:0:0:0:
309,95,99373,1,8,0:1:0:0:
486,134,99504,5,2,0:0:0:0:
419,50,99634,1,8,0:1:0:0:
375,182,99765,2,8,P|374:234|376:296,1,99.0000030212403,8|0,0:0|0:0,0:0:0:0:
488,331,100025,6,8,P|486:281|486:101,1,198.000006042481,10|8,0:1|0:0,0:0:0:0:
167,22,100417,2,0,P|109:20|54:21,1,99.0000030212403,2|0,0:0|0:0,0:0:0:0:
169,151,100678,1,10,0:1:0:0:
169,151,100808,2,0,P|111:153|56:152,1,99.0000030212403,10|0,0:0|0:0,0:0:0:0:
16,264,101069,6,8,P|3:322|120:348,1,198.000006042481,10|8,0:1|0:0,0:0:0:0:
111,356,101460,1,8,0:1:0:0:
169,249,101591,6,0,P|167:199|168:150,1,99.0000030212403,2|8,0:0|0:1,0:0:0:0:
348,238,101852,2,0,P|306:264|263:288,1,99.0000030212403,8|0,0:0|0:0,0:0:0:0:
250,88,102112,2,0,P|293:111|335:137,1,99.0000030212403,10|0,0:1|0:0,0:0:0:0:
466,340,102373,6,0,P|464:290|464:110,1,198.000006042481,12|0,0:0|0:0,0:0:0:0:
464,142,102765,1,8,0:1:0:0:
252,0,102895,6,0,P|301:0|350:1,1,99.0000030212403,12|0,0:0|0:0,0:0:0:0:
348,89,103156,2,0,P|298:89|249:87,1,99.0000030212403,10|8,0:1|0:0,0:0:0:0:
228,97,103352,1,8,0:0:0:0:
228,97,103416,5,8,0:0:0:0:
24,157,103547,1,8,0:0:0:0:
150,3,103678,1,8,0:0:0:0:
90,258,103809,1,8,0:0:0:0:
204,107,103939,5,8,0:0:0:0:
0,167,104070,1,8,0:0:0:0:
155,186,104199,6,0,P|184:257|104:351,1,198.000006042481,14|0,0:1|0:0,0:0:0:0:
308,189,104591,2,0,P|337:260|257:354,1,198.000006042481,6|0,0:3|0:0,0:0:0:0:
467,187,104982,2,0,P|496:258|416:352,1,198.000006042481,6|0,0:3|0:0,0:0:0:0:
271,350,105373,5,8,0:1:0:0:
308,189,105504,5,8,0:0:0:0:
308,189,105591,5,8,0:0:0:0:
308,189,105678,5,8,0:0:0:0:
308,189,105765,5,8,0:0:0:0:
467,187,105895,1,8,0:0:0:0:
430,26,106026,1,8,0:3:0:0:
302,186,106156,1,4,0:3:0:0:
369,106,106286,5,14,0:1:0:0:
256,192,106352,12,0,110199,0:0:0:0:
