osu file format v14

[General]
AudioFilename: audio.mp3
AudioLeadIn: 0
PreviewTime: 69017
Countdown: 0
SampleSet: Normal
StackLeniency: 0.7
Mode: 1
LetterboxInBreaks: 0
WidescreenStoryboard: 0

[Editor]
DistanceSpacing: 1
BeatDivisor: 4
GridSize: 32
TimelineZoom: 2

[Metadata]
Title:DIVE! (TV Size)
TitleUnicode:DIVE!(TV Size)
Artist:Yuki Setsuna (CV: Kusunoki Tomori)
ArtistUnicode:優木せつ菜 (CV: 楠木ともり)
Creator:K a y o k o
Version:SCARLET!
Source:ラブライブ!虹ヶ咲学園スクールアイドル同好会
Tags:love live! nijigasaki high school idol club gakuen doukoukai doukou kai nijigaku ニジガク nakagawa nana 中川菜々 llas sifas スクスタ festival all stars スクールアイドルフェスティバル perfect dream project pdp Ayaka Miyake MOMIKEN SPYAIR tasuku insert anime insert song video game japanese rock j-rock jrock pop j-pop jpop -maruko- _gt Sammu K_a_y_o_k_o Kayoko
BeatmapID:4441303
BeatmapSetID:2115009

[Difficulty]
HPDrainRate:5
CircleSize:2
OverallDifficulty:6
ApproachRate:10
SliderMultiplier:1.4
SliderTickRate:1

[Events]
//Background and Video events
0,0,"sechuuna.jpg",0,40
Video,800,"setsuta scarlet storm.mp4"
//Break Periods
//Storyboard Layer 0 (Background)
//Storyboard Layer 1 (Fail)
//Storyboard Layer 2 (Pass)
//Storyboard Layer 3 (Foreground)
//Storyboard Layer 4 (Overlay)
//Storyboard Sound Samples

[TimingPoints]
-3566,333.333333333333,4,1,0,60,1,0
433,-111.111111111111,4,1,0,60,0,0
14600,-111.111111111111,4,1,0,70,0,0
14767,-107.135204628241,4,1,0,73,0,0
14850,-105.263157894737,4,1,0,75,0,0
14933,-103.455410717981,4,1,0,77,0,0
15017,-101.688021151108,4,1,0,78,0,0
15100,-100,4,1,0,80,0,0
25267,-90.9090909090909,4,1,0,80,0,0
25433,-92.5925925925926,4,1,0,80,0,0
25767,-100,4,1,0,80,0,0
25850,-111.111111111111,4,1,0,70,0,0
33767,-100,4,1,0,70,0,0
33850,-111.111111111111,4,1,0,70,0,0
34933,-100,4,1,0,70,0,0
35017,-111.111111111111,4,1,0,70,0,0
35933,-109.89010989011,4,1,0,70,0,0
36017,-109.075043630017,4,1,0,70,0,0
36100,-107.135204628241,4,1,0,70,0,0
36183,-105.263157894737,4,1,0,70,0,0
36267,-103.434009102193,4,1,0,70,0,0
36350,-101.688021151108,4,1,0,70,0,0
36433,-100,4,1,0,70,0,0
36517,-111.111111111111,4,1,0,70,0,0
41267,-111.111111111111,4,1,0,70,0,0
41433,-108.695652173913,4,1,0,70,0,0
41517,-106.382978723404,4,1,0,70,0,0
41600,-104.166666666667,4,1,0,70,0,0
41683,-102.040816326531,4,1,0,70,0,0
41767,-100,4,1,0,70,0,0
41850,-111.111111111111,4,1,0,70,0,0
42933,-100,4,1,0,70,0,0
43017,-111.111111111111,4,1,0,70,0,0
43933,-111.111111111111,4,1,0,70,0,0
44100,-107.135204628241,4,1,0,70,0,0
44267,-103.434009102193,4,1,0,70,0,0
44350,-101.688021151108,4,1,0,70,0,0
44433,-100,4,1,0,70,0,0
44517,-111.111111111111,4,1,0,70,0,0
45600,-100,4,1,0,70,0,0
45683,-111.111111111111,4,1,0,70,0,0
46267,-111.111111111111,4,1,0,70,0,0
46350,-108.704162860498,4,1,0,70,0,0
46433,-106.399284710691,4,1,0,70,0,0
46517,-104.164061523071,4,1,0,70,0,0
46600,-102.045816489036,4,1,0,70,0,0
46683,-100.012006243246,4,1,0,70,0,0
46767,-98.034600447217,4,1,0,70,0,0
46850,-96.156066027935,4,1,0,70,0,0
46933,-94.34817080077,4,1,0,70,0,0
47017,-92.586417694787,4,1,0,70,0,0
47100,-90.909090909091,4,1,0,70,0,0
47433,-111.111111111111,4,1,0,70,0,0
49267,-111.111111111111,4,1,0,70,0,0
49433,-107.158165452207,4,1,0,70,0,0
49517,-105.263157894737,4,1,0,70,0,0
49600,-103.455410717981,4,1,0,70,0,0
49683,-101.708706265256,4,1,0,70,0,0
49767,-100,4,1,0,70,0,0
49850,-111.111111111111,4,1,0,70,0,0
51933,-108.116883116883,4,1,0,72,0,0
52100,-105.263157894737,4,1,0,75,0,0
52183,-103.90015600624,4,1,0,76,0,0
52267,-102.556205728365,4,1,0,78,0,0
52350,-101.261973544169,4,1,0,79,0,0
52433,-100,4,1,0,80,0,1
55100,-100,4,1,0,80,0,1
55183,-99.22797879267,4,1,0,80,0,1
55267,-98.458698661744,4,1,0,80,0,1
55350,-97.710203333944,4,1,0,80,0,1
55433,-96.973002454322,4,1,0,80,0,1
55517,-96.238159675237,4,1,0,80,0,1
55600,-95.522922636103,4,1,0,80,0,1
55683,-94.818238378811,4,1,0,80,0,1
55767,-94.115571239524,4,1,0,80,0,1
55850,-93.431424067262,4,1,0,80,0,1
55933,-92.757151552039,4,1,0,80,0,1
56017,-92.084592145015,4,1,0,80,0,1
56100,-91.429550908468,4,1,0,80,0,1
56183,-90.783763083993,4,1,0,80,0,1
56267,-90.139416983523,4,1,0,80,0,1
56350,-89.51166303071,4,1,0,80,0,1
56433,-88.892592283976,4,1,0,80,0,1
56517,-88.274720728175,4,1,0,80,0,1
56600,-87.67258382643,4,1,0,80,0,1
56683,-87.078605828096,4,1,0,80,0,1
56767,-86.485610052696,4,1,0,80,0,1
56850,-85.907553551297,4,1,0,80,0,1
56933,-85.337173026158,4,1,0,80,0,1
57017,-84.76758045292,4,1,0,80,0,1
57100,-84.212188190717,4,1,0,80,0,1
57183,-83.664026350874,4,1,0,80,0,1
57267,-83.116478379431,4,1,0,80,0,1
57350,-82.582443102647,4,1,0,80,0,1
57433,-82.055226521037,4,1,0,80,0,1
57517,-81.52846771112,4,1,0,80,0,1
57600,-81.014580801944,4,1,0,80,0,1
57683,-80.507131537242,4,1,0,80,0,1
57767,-80,4,1,0,80,0,0
57850,-111.111111111111,4,1,0,70,0,0
59933,-111.111111111111,4,1,0,70,0,0
60100,-107.135204628241,4,1,0,70,0,0
60183,-105.263157894737,4,1,0,70,0,0
60267,-103.434009102193,4,1,0,70,0,0
60350,-101.688021151108,4,1,0,70,0,0
60433,-100,4,1,0,70,0,0
60517,-111.111111111111,4,1,0,70,0,0
62517,-109.57778873008,4,1,0,70,0,0
62600,-108.103727714749,4,1,0,70,0,0
62683,-106.668798976491,4,1,0,70,0,0
62767,-105.254852453843,4,1,0,70,0,0
62850,-103.894080996885,4,1,0,70,0,0
62933,-102.568045517453,4,1,0,70,0,0
63017,-101.260057689388,4,1,0,70,0,0
63100,-100,4,1,0,70,0,0
66933,-97.560975609756,4,1,0,70,0,0
67267,-95.238095238095,4,1,0,70,0,0
67600,-93.023255813953,4,1,0,70,0,0
67933,-90.909090909091,4,1,0,70,0,0
68267,-88.888888888889,4,1,0,70,0,0
68600,-86.95652173913,4,1,0,70,0,0
68767,-86.206896551724,4,1,0,70,0,0
69767,-83.333333333333,4,1,0,90,0,1
69850,-90.909090909091,4,1,0,90,0,1
74267,-90.909090909091,4,1,0,90,0,1
74350,-90.093013194895,4,1,0,90,0,1
74433,-89.291456747776,4,1,0,90,0,1
74517,-88.494635079146,4,1,0,90,0,1
74600,-87.721145745577,4,1,0,90,0,1
74767,-86.20511228397,4,1,0,90,0,1
74933,-84.74921151694,4,1,0,90,0,1
75017,-84.031070311712,4,1,0,90,0,1
75100,-83.333333333333,4,1,0,90,0,1
75183,-90.9090909090909,4,1,0,90,0,1
77933,-89.891428956774,4,1,0,90,0,1
78100,-88.890370765537,4,1,0,90,0,1
78267,-87.911363186704,4,1,0,90,0,1
78433,-86.959358079457,4,1,0,90,0,1
78600,-86.022199277233,4,1,0,90,0,1
78767,-85.105024580221,4,1,0,90,0,1
78933,-84.212521321625,4,1,0,90,0,1
79100,-83.333333333333,4,1,0,90,0,1
79267,-82.472313308173,4,1,0,90,0,1
79433,-81.633902872191,4,1,0,90,0,1
79600,-80.807468477207,4,1,0,90,0,1
79767,-79.997599471884,4,1,0,90,0,1
79933,-79.20850912116,4,1,0,90,0,1
80100,-78.430218875029,4,1,0,90,0,1
80183,-78.049066104573,4,1,0,90,0,1
80267,-77.667074520771,4,1,0,90,0,1
80350,-77.293285399513,4,1,0,90,0,1
80433,-76.923076923077,4,1,0,90,0,1
80517,-90.909090909091,4,1,0,90,0,1
84933,-90.909090909091,4,1,0,90,0,1
85017,-90.084251458198,4,1,0,90,0,1
85100,-89.283802590729,4,1,0,90,0,1
85267,-87.715607909129,4,1,0,90,0,1
85433,-86.210461029564,4,1,0,90,0,1
85517,-85.468333674933,4,1,0,90,0,1
85600,-84.747485011686,4,1,0,90,0,1
85683,-84.03869407497,4,1,0,90,0,1
85767,-83.333333333333,4,1,0,90,0,1
85850,-90.9090909090909,4,1,0,90,0,1
86933,-83.3333333333333,4,1,0,90,0,1
87017,-90.9090909090909,4,1,0,90,0,1
90017,-90.220137134608,4,1,0,90,0,1
90100,-89.549565684606,4,1,0,90,0,1
90183,-88.888888888889,4,1,0,90,0,1
90267,-88.230104111523,4,1,0,90,0,1
90350,-87.588683542086,4,1,0,90,0,1
90433,-86.95652173913,4,1,0,90,0,1
90517,-86.325966850829,4,1,0,90,0,1
90600,-85.711836804663,4,1,0,90,0,1
90683,-85.106382978723,4,1,0,90,0,1
90767,-84.502281561602,4,1,0,90,0,1
90850,-83.913736678694,4,1,0,90,0,1
90933,-83.333333333333,4,1,0,90,0,1
91017,-82.754054948692,4,1,0,90,0,1
91100,-82.189529053999,4,1,0,90,0,1
91267,-81.076698556835,4,1,0,90,0,1
91433,-80,4,1,0,90,0,1
91600,-78.945290913397,4,1,0,90,0,1
91767,-77.918030232196,4,1,0,90,0,1
91933,-76.923076923077,4,1,0,90,0,1
92100,-75.947444368497,4,1,0,90,0,1
92267,-74.996250187491,4,1,0,90,0,1
92433,-74.074074074074,4,1,0,90,0,1
93267,-90.9090909090909,4,1,0,90,0,1
93433,-88.245675961878,4,1,0,90,0,1
93517,-86.95652173913,4,1,0,90,0,1
93600,-85.719183953369,4,1,0,90,0,1
93683,-84.516565246788,4,1,0,90,0,1
93767,-83.333333333333,4,1,0,90,0,0
93850,-100,4,1,0,80,0,0
104433,-90.9090909090909,4,1,0,80,0,0
107100,-71.4285714285714,4,1,0,70,0,0
108433,-76.9230769230769,4,1,0,60,0,0
109767,-83.3333333333333,4,1,0,50,0,0
111100,-90.9090909090909,4,1,0,40,0,0
111600,-100,4,1,0,70,0,0

[HitObjects]
256,192,1767,5,0,0:0:0:0:
256,192,2100,1,0,0:0:0:0:
256,192,2267,1,0,0:0:0:0:
256,192,2433,1,8,0:0:0:0:
256,192,2600,1,8,0:0:0:0:
256,192,2767,1,0,0:0:0:0:
256,192,2933,1,8,0:0:0:0:
256,192,3267,1,0,0:0:0:0:
256,192,3433,1,8,0:0:0:0:
256,192,3600,1,0,0:0:0:0:
256,192,3767,1,8,0:0:0:0:
256,192,3933,1,8,0:0:0:0:
256,192,4100,1,0,0:0:0:0:
256,192,4267,1,0,0:0:0:0:
256,192,4433,1,8,0:0:0:0:
256,192,4767,1,0,0:0:0:0:
256,192,4933,1,0,0:0:0:0:
256,192,5100,1,8,0:0:0:0:
256,192,5267,1,0,0:0:0:0:
256,192,5433,1,8,0:0:0:0:
256,192,5600,1,8,0:0:0:0:
256,192,5933,1,0,0:0:0:0:
256,192,6100,1,8,0:0:0:0:
256,192,6267,1,0,0:0:0:0:
256,192,6433,1,8,0:0:0:0:
256,192,6600,1,0,0:0:0:0:
256,192,6767,1,8,0:0:0:0:
256,192,6933,1,8,0:0:0:0:
256,192,7100,1,0,0:0:0:0:
256,192,7433,1,8,0:0:0:0:
256,192,7600,1,0,0:0:0:0:
256,192,7767,1,8,0:0:0:0:
256,192,7933,1,0,0:0:0:0:
256,192,8100,1,8,0:0:0:0:
256,192,8267,1,8,0:0:0:0:
256,192,8600,1,0,0:0:0:0:
256,192,8767,1,8,0:0:0:0:
256,192,8933,1,0,0:0:0:0:
256,192,9100,1,8,0:0:0:0:
256,192,9267,1,0,0:0:0:0:
256,192,9433,1,8,0:0:0:0:
256,192,9600,1,8,0:0:0:0:
256,192,9767,1,0,0:0:0:0:
256,192,10100,1,0,0:0:0:0:
256,192,10267,1,0,0:0:0:0:
256,192,10433,1,8,0:0:0:0:
256,192,10600,1,0,0:0:0:0:
256,192,10767,1,0,0:0:0:0:
256,192,10933,1,8,0:0:0:0:
256,192,11267,1,8,0:0:0:0:
256,192,11433,1,0,0:0:0:0:
256,192,11600,1,8,0:0:0:0:
256,192,11767,1,8,0:0:0:0:
256,192,11933,1,0,0:0:0:0:
256,192,12100,1,0,0:0:0:0:
256,192,12267,1,0,0:0:0:0:
256,192,12433,1,8,0:0:0:0:
256,192,12767,1,0,0:0:0:0:
256,192,12933,1,0,0:0:0:0:
256,192,13100,1,8,0:0:0:0:
256,192,13267,1,0,0:0:0:0:
256,192,13433,1,0,0:0:0:0:
256,192,13600,1,8,0:0:0:0:
256,192,14267,1,8,0:0:0:0:
256,192,14600,1,0,0:0:0:0:
256,192,14767,1,8,0:0:0:0:
256,192,14850,1,8,0:0:0:0:
256,192,14933,1,0,0:0:0:0:
256,192,15017,1,0,0:0:0:0:
256,192,15100,5,12,0:0:0:0:
256,192,15267,1,0,0:0:0:0:
256,192,15433,1,8,0:0:0:0:
256,192,15600,1,0,0:0:0:0:
256,192,15683,1,8,0:0:0:0:
256,192,15767,1,8,0:0:0:0:
256,192,15933,1,0,0:0:0:0:
256,192,16100,1,0,0:0:0:0:
256,192,16267,1,8,0:0:0:0:
256,192,16600,1,0,0:0:0:0:
256,192,16767,1,8,0:0:0:0:
256,192,16933,1,0,0:0:0:0:
256,192,17017,1,0,0:0:0:0:
256,192,17100,1,8,0:0:0:0:
256,192,17267,1,0,0:0:0:0:
256,192,17433,1,8,0:0:0:0:
256,192,17600,1,0,0:0:0:0:
256,192,17683,1,8,0:0:0:0:
256,192,17767,1,0,0:0:0:0:
256,192,17933,1,0,0:0:0:0:
256,192,18100,1,8,0:0:0:0:
256,192,18267,1,0,0:0:0:0:
256,192,18350,1,8,0:0:0:0:
256,192,18433,1,8,0:0:0:0:
256,192,18600,1,0,0:0:0:0:
256,192,18767,1,8,0:0:0:0:
256,192,18933,1,0,0:0:0:0:
256,192,19100,1,8,0:0:0:0:
256,192,19183,1,8,0:0:0:0:
256,192,19267,1,0,0:0:0:0:
256,192,19350,1,0,0:0:0:0:
256,192,19433,1,8,0:0:0:0:
256,192,19600,1,0,0:0:0:0:
256,192,19767,1,8,0:0:0:0:
256,192,19850,1,8,0:0:0:0:
256,192,19933,1,0,0:0:0:0:
256,192,20100,1,8,0:0:0:0:
256,192,20433,1,0,0:0:0:0:
256,192,20600,1,0,0:0:0:0:
256,192,20767,1,8,0:0:0:0:
256,192,20933,1,0,0:0:0:0:
256,192,21017,1,8,0:0:0:0:
256,192,21100,1,8,0:0:0:0:
256,192,21267,1,0,0:0:0:0:
256,192,21433,1,8,0:0:0:0:
256,192,21600,1,0,0:0:0:0:
256,192,21933,1,0,0:0:0:0:
256,192,22100,1,8,0:0:0:0:
256,192,22267,1,0,0:0:0:0:
256,192,22350,1,0,0:0:0:0:
256,192,22433,1,8,0:0:0:0:
256,192,22600,1,0,0:0:0:0:
256,192,22767,1,8,0:0:0:0:
256,192,22933,1,0,0:0:0:0:
256,192,23017,1,8,0:0:0:0:
256,192,23100,1,0,0:0:0:0:
256,192,23267,1,0,0:0:0:0:
256,192,23433,1,8,0:0:0:0:
256,192,23600,1,0,0:0:0:0:
256,192,23683,1,8,0:0:0:0:
256,192,23767,1,8,0:0:0:0:
256,192,23933,1,0,0:0:0:0:
256,192,24100,1,8,0:0:0:0:
256,192,24267,1,0,0:0:0:0:
256,192,24433,1,8,0:0:0:0:
256,192,24517,1,8,0:0:0:0:
256,192,24600,1,8,0:0:0:0:
256,192,24683,1,8,0:0:0:0:
256,192,24767,1,0,0:0:0:0:
256,192,24850,1,0,0:0:0:0:
256,192,24933,1,0,0:0:0:0:
256,192,25017,1,0,0:0:0:0:
256,192,25267,1,12,0:0:0:0:
256,192,25433,1,12,0:0:0:0:
256,192,25767,5,4,0:0:0:0:
256,192,26100,1,8,0:0:0:0:
256,192,26267,1,0,0:0:0:0:
256,192,26433,1,8,0:0:0:0:
256,192,26600,1,8,0:0:0:0:
256,192,26767,1,0,0:0:0:0:
256,192,26933,1,8,0:0:0:0:
256,192,27267,1,0,0:0:0:0:
256,192,27433,1,0,0:0:0:0:
256,192,27600,1,8,0:0:0:0:
256,192,27683,1,8,0:0:0:0:
256,192,27767,1,0,0:0:0:0:
256,192,27933,1,0,0:0:0:0:
256,192,28100,1,8,0:0:0:0:
256,192,28267,1,0,0:0:0:0:
256,192,28350,1,8,0:0:0:0:
256,192,28433,1,0,0:0:0:0:
256,192,28767,1,8,0:0:0:0:
256,192,28933,1,8,0:0:0:0:
256,192,29100,1,0,0:0:0:0:
256,192,29266,1,0,0:0:0:0:
256,192,29433,1,8,0:0:0:0:
256,192,29600,1,0,0:0:0:0:
256,192,29933,1,0,0:0:0:0:
256,192,30100,1,8,0:0:0:0:
256,192,30267,1,8,0:0:0:0:
256,192,30350,1,0,0:0:0:0:
256,192,30433,1,8,0:0:0:0:
256,192,30600,1,0,0:0:0:0:
256,192,30767,1,8,0:0:0:0:
256,192,30850,1,0,0:0:0:0:
256,192,30933,1,0,0:0:0:0:
256,192,31017,1,0,0:0:0:0:
256,192,31100,1,8,0:0:0:0:
256,192,31433,1,8,0:0:0:0:
256,192,31600,1,0,0:0:0:0:
256,192,31767,1,8,0:0:0:0:
256,192,31933,1,8,0:0:0:0:
256,192,32100,1,8,0:0:0:0:
256,192,32267,1,0,0:0:0:0:
256,192,32600,1,0,0:0:0:0:
256,192,32767,1,8,0:0:0:0:
256,192,32933,1,0,0:0:0:0:
256,192,33017,1,8,0:0:0:0:
256,192,33100,1,0,0:0:0:0:
256,192,33267,1,0,0:0:0:0:
256,192,33433,1,8,0:0:0:0:
256,192,33517,1,0,0:0:0:0:
256,192,33600,1,0,0:0:0:0:
256,192,33767,1,12,0:0:0:0:
256,192,34100,1,0,0:0:0:0:
256,192,34267,1,0,0:0:0:0:
256,192,34433,1,8,0:0:0:0:
256,192,34600,1,0,0:0:0:0:
256,192,34683,1,8,0:0:0:0:
256,192,34767,1,8,0:0:0:0:
256,192,34933,1,4,0:0:0:0:
256,192,35267,1,0,0:0:0:0:
256,192,35433,1,8,0:0:0:0:
256,192,35600,1,0,0:0:0:0:
256,192,35767,1,8,0:0:0:0:
256,192,35933,1,8,0:0:0:0:
256,192,36017,1,0,0:0:0:0:
256,192,36100,1,8,0:0:0:0:
256,192,36183,1,8,0:0:0:0:
256,192,36267,1,0,0:0:0:0:
256,192,36350,1,0,0:0:0:0:
256,192,36433,1,12,0:0:0:0:
256,192,36767,5,8,0:0:0:0:
256,192,36933,1,0,0:0:0:0:
256,192,37100,1,8,0:0:0:0:
256,192,37267,1,8,0:0:0:0:
256,192,37433,1,0,0:0:0:0:
256,192,37600,1,8,0:0:0:0:
256,192,37933,1,0,0:0:0:0:
256,192,38100,1,8,0:0:0:0:
256,192,38267,1,0,0:0:0:0:
256,192,38350,1,8,0:0:0:0:
256,192,38433,1,0,0:0:0:0:
256,192,38600,1,0,0:0:0:0:
256,192,38767,1,8,0:0:0:0:
256,192,38933,1,8,0:0:0:0:
256,192,39017,1,8,0:0:0:0:
256,192,39100,1,0,0:0:0:0:
256,192,39433,1,8,0:0:0:0:
256,192,39600,1,8,0:0:0:0:
256,192,39767,1,8,0:0:0:0:
256,192,39933,1,0,0:0:0:0:
256,192,40100,1,0,0:0:0:0:
256,192,40267,1,8,0:0:0:0:
256,192,40600,1,0,0:0:0:0:
256,192,40767,1,8,0:0:0:0:
256,192,40933,1,0,0:0:0:0:
256,192,41017,1,0,0:0:0:0:
256,192,41100,1,8,0:0:0:0:
256,192,41267,1,0,0:0:0:0:
256,192,41433,1,8,0:0:0:0:
256,192,41517,1,8,0:0:0:0:
256,192,41600,1,0,0:0:0:0:
256,192,41683,1,0,0:0:0:0:
256,192,41767,1,12,0:0:0:0:
256,192,42100,1,8,0:0:0:0:
256,192,42267,1,8,0:0:0:0:
256,192,42433,1,0,0:0:0:0:
256,192,42600,1,0,0:0:0:0:
256,192,42767,1,8,0:0:0:0:
256,192,42933,1,4,0:0:0:0:
256,192,43267,1,0,0:0:0:0:
256,192,43433,1,8,0:0:0:0:
256,192,43600,1,0,0:0:0:0:
256,192,43683,1,8,0:0:0:0:
256,192,43767,1,8,0:0:0:0:
256,192,43933,1,0,0:0:0:0:
256,192,44100,1,8,0:0:0:0:
256,192,44267,1,0,0:0:0:0:
256,192,44350,1,0,0:0:0:0:
256,192,44433,1,12,0:0:0:0:
256,192,44767,1,8,0:0:0:0:
256,192,44933,1,0,0:0:0:0:
256,192,45100,1,0,0:0:0:0:
256,192,45267,1,8,0:0:0:0:
256,192,45433,1,8,0:0:0:0:
256,192,45600,1,4,0:0:0:0:
256,192,45933,1,8,0:0:0:0:
256,192,46100,1,0,0:0:0:0:
256,192,46267,1,8,0:0:0:0:
256,192,46350,1,8,0:0:0:0:
256,192,46433,1,8,0:0:0:0:
256,192,46517,1,8,0:0:0:0:
256,192,46600,1,0,0:0:0:0:
256,192,46683,1,0,0:0:0:0:
256,192,46767,1,8,0:0:0:0:
256,192,46850,1,0,0:0:0:0:
256,192,46933,1,0,0:0:0:0:
256,192,47017,1,0,0:0:0:0:
256,192,47100,1,12,0:0:0:0:
256,192,47433,5,8,0:0:0:0:
256,192,47683,1,0,0:0:0:0:
256,192,47767,1,0,0:0:0:0:
256,192,47933,1,0,0:0:0:0:
256,192,48100,1,8,0:0:0:0:
256,192,48267,1,0,0:0:0:0:
256,192,48350,1,8,0:0:0:0:
256,192,48433,1,0,0:0:0:0:
256,192,48600,1,0,0:0:0:0:
256,192,48767,1,8,0:0:0:0:
256,192,48933,1,0,0:0:0:0:
256,192,49017,1,8,0:0:0:0:
256,192,49100,1,8,0:0:0:0:
256,192,49267,1,0,0:0:0:0:
256,192,49433,1,8,0:0:0:0:
256,192,49517,1,0,0:0:0:0:
256,192,49600,1,0,0:0:0:0:
256,192,49683,1,0,0:0:0:0:
256,192,49767,1,12,0:0:0:0:
256,192,50100,1,8,0:0:0:0:
256,192,50350,1,0,0:0:0:0:
256,192,50433,1,0,0:0:0:0:
256,192,50600,1,0,0:0:0:0:
256,192,50767,1,8,0:0:0:0:
256,192,50933,1,0,0:0:0:0:
256,192,51017,1,8,0:0:0:0:
256,192,51100,1,0,0:0:0:0:
256,192,51267,1,0,0:0:0:0:
256,192,51433,1,8,0:0:0:0:
256,192,51600,1,0,0:0:0:0:
256,192,51767,1,8,0:0:0:0:
256,192,51933,1,0,0:0:0:0:
256,192,52100,1,8,0:0:0:0:
256,192,52183,1,8,0:0:0:0:
256,192,52267,1,0,0:0:0:0:
256,192,52350,1,0,0:0:0:0:
256,192,52433,1,12,0:0:0:0:
256,192,52767,1,8,0:0:0:0:
256,192,52933,1,0,0:0:0:0:
256,192,53100,1,0,0:0:0:0:
256,192,53267,1,0,0:0:0:0:
256,192,53433,1,8,0:0:0:0:
256,192,53600,1,0,0:0:0:0:
256,192,53933,1,0,0:0:0:0:
256,192,54100,1,8,0:0:0:0:
256,192,54267,1,0,0:0:0:0:
256,192,54350,1,0,0:0:0:0:
256,192,54433,1,8,0:0:0:0:
256,192,54600,1,0,0:0:0:0:
256,192,54767,1,8,0:0:0:0:
256,192,54933,1,0,0:0:0:0:
256,192,55100,1,0,0:0:0:0:
256,192,55183,1,0,0:0:0:0:
256,192,55267,1,8,0:0:0:0:
256,192,55350,1,8,0:0:0:0:
256,192,55433,1,8,0:0:0:0:
256,192,55517,1,8,0:0:0:0:
256,192,55600,1,0,0:0:0:0:
256,192,55683,1,0,0:0:0:0:
256,192,55767,1,8,0:0:0:0:
256,192,55850,1,8,0:0:0:0:
256,192,55933,1,8,0:0:0:0:
256,192,56017,1,8,0:0:0:0:
256,192,56100,1,0,0:0:0:0:
256,192,56183,1,8,0:0:0:0:
256,192,56267,1,8,0:0:0:0:
256,192,56350,1,8,0:0:0:0:
256,192,56433,1,0,0:0:0:0:
256,192,56517,1,8,0:0:0:0:
256,192,56600,1,0,0:0:0:0:
256,192,56683,1,0,0:0:0:0:
256,192,56767,1,8,0:0:0:0:
256,192,56850,1,8,0:0:0:0:
256,192,56933,1,0,0:0:0:0:
256,192,57017,1,8,0:0:0:0:
256,192,57100,1,0,0:0:0:0:
256,192,57183,1,0,0:0:0:0:
256,192,57267,1,8,0:0:0:0:
256,192,57350,1,8,0:0:0:0:
256,192,57433,1,0,0:0:0:0:
256,192,57517,1,0,0:0:0:0:
256,192,57600,1,0,0:0:0:0:
256,192,57683,1,0,0:0:0:0:
256,192,57767,5,12,0:0:0:0:
256,192,58100,1,8,0:0:0:0:
256,192,58350,1,0,0:0:0:0:
256,192,58433,1,0,0:0:0:0:
256,192,58600,1,0,0:0:0:0:
256,192,58767,1,8,0:0:0:0:
256,192,58933,1,0,0:0:0:0:
256,192,59017,1,8,0:0:0:0:
256,192,59100,1,0,0:0:0:0:
256,192,59267,1,0,0:0:0:0:
256,192,59433,1,8,0:0:0:0:
256,192,59600,1,0,0:0:0:0:
256,192,59683,1,8,0:0:0:0:
256,192,59767,1,8,0:0:0:0:
256,192,59933,1,0,0:0:0:0:
256,192,60100,1,8,0:0:0:0:
256,192,60183,1,0,0:0:0:0:
256,192,60267,1,0,0:0:0:0:
256,192,60350,1,0,0:0:0:0:
256,192,60433,1,12,0:0:0:0:
256,192,60767,1,0,0:0:0:0:
256,192,61017,1,8,0:0:0:0:
256,192,61100,1,0,0:0:0:0:
256,192,61267,1,0,0:0:0:0:
256,192,61433,1,8,0:0:0:0:
256,192,61600,1,0,0:0:0:0:
256,192,61683,1,8,0:0:0:0:
256,192,61767,1,0,0:0:0:0:
256,192,61933,1,0,0:0:0:0:
256,192,62100,1,8,0:0:0:0:
256,192,62267,1,0,0:0:0:0:
256,192,62433,1,8,0:0:0:0:
256,192,62517,1,8,0:0:0:0:
256,192,62600,1,8,0:0:0:0:
256,192,62683,1,8,0:0:0:0:
256,192,62767,1,0,0:0:0:0:
256,192,62850,1,0,0:0:0:0:
256,192,62933,1,0,0:0:0:0:
256,192,63017,1,0,0:0:0:0:
256,192,63100,1,12,0:0:0:0:
256,192,63267,1,0,0:0:0:0:
256,192,63350,1,0,0:0:0:0:
256,192,63433,1,8,0:0:0:0:
256,192,63517,1,8,0:0:0:0:
256,192,63600,1,0,0:0:0:0:
256,192,63767,1,8,0:0:0:0:
256,192,63933,1,0,0:0:0:0:
256,192,64100,1,8,0:0:0:0:
256,192,64183,1,0,0:0:0:0:
256,192,64267,1,8,0:0:0:0:
256,192,64433,1,0,0:0:0:0:
256,192,64600,1,8,0:0:0:0:
256,192,64683,1,8,0:0:0:0:
256,192,64767,1,0,0:0:0:0:
256,192,64933,1,12,0:0:0:0:
256,192,65100,1,0,0:0:0:0:
256,192,65267,1,0,0:0:0:0:
256,192,65433,1,8,0:0:0:0:
256,192,65517,1,0,0:0:0:0:
256,192,65600,1,8,0:0:0:0:
256,192,65683,1,8,0:0:0:0:
256,192,65767,1,0,0:0:0:0:
256,192,65933,1,8,0:0:0:0:
256,192,66017,1,0,0:0:0:0:
256,192,66100,1,0,0:0:0:0:
256,192,66183,1,0,0:0:0:0:
256,192,66267,1,12,0:0:0:0:
256,192,66433,1,8,0:0:0:0:
256,192,66600,1,0,0:0:0:0:
256,192,66683,1,0,0:0:0:0:
256,192,66767,1,8,0:0:0:0:
256,192,66933,1,4,0:0:0:0:
256,192,67267,1,12,0:0:0:0:
256,192,67600,1,4,0:0:0:0:
256,192,67933,1,12,0:0:0:0:
256,192,68267,1,4,0:0:0:0:
256,192,68600,1,12,0:0:0:0:
256,192,68767,1,12,0:0:0:0:
256,192,69767,5,12,0:0:0:0:
256,192,70100,1,8,0:0:0:0:
256,192,70267,1,0,0:0:0:0:
256,192,70350,1,0,0:0:0:0:
256,192,70433,1,0,0:0:0:0:
256,192,70600,1,0,0:0:0:0:
256,192,70767,1,8,0:0:0:0:
256,192,70933,1,0,0:0:0:0:
256,192,71017,1,8,0:0:0:0:
256,192,71100,1,0,0:0:0:0:
256,192,71267,1,0,0:0:0:0:
256,192,71433,1,8,0:0:0:0:
256,192,71600,1,0,0:0:0:0:
256,192,71683,1,8,0:0:0:0:
256,192,71767,1,0,0:0:0:0:
256,192,71850,1,0,0:0:0:0:
256,192,71933,1,8,0:0:0:0:
256,192,72100,1,8,0:0:0:0:
256,192,72267,1,0,0:0:0:0:
256,192,72350,1,8,0:0:0:0:
256,192,72433,1,0,0:0:0:0:
256,192,72600,1,0,0:0:0:0:
256,192,72767,1,8,0:0:0:0:
256,192,72933,1,0,0:0:0:0:
256,192,73017,1,0,0:0:0:0:
256,192,73100,1,0,0:0:0:0:
256,192,73267,1,0,0:0:0:0:
256,192,73433,1,8,0:0:0:0:
256,192,73600,1,8,0:0:0:0:
256,192,73683,1,0,0:0:0:0:
256,192,73767,1,0,0:0:0:0:
256,192,73933,1,0,0:0:0:0:
256,192,74100,1,8,0:0:0:0:
256,192,74267,1,0,0:0:0:0:
256,192,74350,1,8,0:0:0:0:
256,192,74433,1,0,0:0:0:0:
256,192,74517,1,0,0:0:0:0:
256,192,74600,1,0,0:0:0:0:
256,192,74767,1,8,0:0:0:0:
256,192,74933,1,8,0:0:0:0:
256,192,75017,1,8,0:0:0:0:
256,192,75100,1,4,0:0:0:0:
256,192,75433,1,8,0:0:0:0:
256,192,75600,1,0,0:0:0:0:
256,192,75683,1,8,0:0:0:0:
256,192,75767,1,8,0:0:0:0:
256,192,75933,1,0,0:0:0:0:
256,192,76100,1,8,0:0:0:0:
256,192,76267,1,0,0:0:0:0:
256,192,76350,1,0,0:0:0:0:
256,192,76433,1,8,0:0:0:0:
256,192,76600,1,0,0:0:0:0:
256,192,76767,1,8,0:0:0:0:
256,192,76933,1,0,0:0:0:0:
256,192,77017,1,8,0:0:0:0:
256,192,77100,1,0,0:0:0:0:
256,192,77183,1,0,0:0:0:0:
256,192,77267,1,0,0:0:0:0:
256,192,77433,1,8,0:0:0:0:
256,192,77600,1,0,0:0:0:0:
256,192,77767,1,12,0:0:0:0:
256,192,77933,1,0,0:0:0:0:
256,192,78100,1,0,0:0:0:0:
256,192,78267,1,12,0:0:0:0:
256,192,78433,1,0,0:0:0:0:
256,192,78600,1,0,0:0:0:0:
256,192,78767,1,12,0:0:0:0:
256,192,78933,1,0,0:0:0:0:
256,192,79100,1,0,0:0:0:0:
256,192,79267,1,12,0:0:0:0:
256,192,79433,1,0,0:0:0:0:
256,192,79600,1,0,0:0:0:0:
256,192,79767,1,12,0:0:0:0:
256,192,79933,1,0,0:0:0:0:
256,192,80100,1,8,0:0:0:0:
256,192,80183,1,8,0:0:0:0:
256,192,80267,1,8,0:0:0:0:
256,192,80350,1,8,0:0:0:0:
256,192,80433,1,4,0:0:0:0:
256,192,80767,5,8,0:0:0:0:
256,192,80933,1,0,0:0:0:0:
256,192,81017,1,0,0:0:0:0:
256,192,81100,1,0,0:0:0:0:
256,192,81267,1,0,0:0:0:0:
256,192,81433,1,8,0:0:0:0:
256,192,81600,1,0,0:0:0:0:
256,192,81683,1,8,0:0:0:0:
256,192,81767,1,0,0:0:0:0:
256,192,81933,1,0,0:0:0:0:
256,192,82100,1,8,0:0:0:0:
256,192,82267,1,0,0:0:0:0:
256,192,82350,1,8,0:0:0:0:
256,192,82433,1,8,0:0:0:0:
256,192,82517,1,8,0:0:0:0:
256,192,82600,1,0,0:0:0:0:
256,192,82767,1,8,0:0:0:0:
256,192,82933,1,0,0:0:0:0:
256,192,83017,1,0,0:0:0:0:
256,192,83100,1,8,0:0:0:0:
256,192,83267,1,0,0:0:0:0:
256,192,83433,1,8,0:0:0:0:
256,192,83600,1,0,0:0:0:0:
256,192,83683,1,0,0:0:0:0:
256,192,83767,1,0,0:0:0:0:
256,192,83933,1,0,0:0:0:0:
256,192,84100,1,8,0:0:0:0:
256,192,84267,1,0,0:0:0:0:
256,192,84350,1,8,0:0:0:0:
256,192,84433,1,8,0:0:0:0:
256,192,84600,1,0,0:0:0:0:
256,192,84767,1,8,0:0:0:0:
256,192,84933,1,0,0:0:0:0:
256,192,85017,1,8,0:0:0:0:
256,192,85100,1,0,0:0:0:0:
256,192,85267,1,0,0:0:0:0:
256,192,85433,1,8,0:0:0:0:
256,192,85517,1,8,0:0:0:0:
256,192,85600,1,0,0:0:0:0:
256,192,85683,1,0,0:0:0:0:
256,192,85767,1,12,0:0:0:0:
256,192,86100,1,8,0:0:0:0:
256,192,86267,1,0,0:0:0:0:
256,192,86350,1,8,0:0:0:0:
256,192,86433,1,8,0:0:0:0:
256,192,86600,1,0,0:0:0:0:
256,192,86767,1,0,0:0:0:0:
256,192,86933,1,12,0:0:0:0:
256,192,87267,1,0,0:0:0:0:
256,192,87433,1,8,0:0:0:0:
256,192,87600,1,8,0:0:0:0:
256,192,87683,1,8,0:0:0:0:
256,192,87767,1,0,0:0:0:0:
256,192,87933,1,0,0:0:0:0:
256,192,88100,1,8,0:0:0:0:
256,192,88267,1,0,0:0:0:0:
256,192,88350,1,0,0:0:0:0:
256,192,88433,1,8,0:0:0:0:
256,192,88600,1,0,0:0:0:0:
256,192,88767,1,0,0:0:0:0:
256,192,88933,1,8,0:0:0:0:
256,192,89100,1,8,0:0:0:0:
256,192,89267,1,0,0:0:0:0:
256,192,89350,1,0,0:0:0:0:
256,192,89433,1,8,0:0:0:0:
256,192,89517,1,8,0:0:0:0:
256,192,89600,1,4,0:0:0:0:
256,192,89767,1,0,0:0:0:0:
256,192,89933,1,8,0:0:0:0:
256,192,90017,1,8,0:0:0:0:
256,192,90100,1,0,0:0:0:0:
256,192,90183,1,8,0:0:0:0:
256,192,90267,1,0,0:0:0:0:
256,192,90350,1,0,0:0:0:0:
256,192,90433,1,0,0:0:0:0:
256,192,90517,1,0,0:0:0:0:
256,192,90600,1,8,0:0:0:0:
256,192,90683,1,8,0:0:0:0:
256,192,90767,1,0,0:0:0:0:
256,192,90850,1,0,0:0:0:0:
256,192,90933,1,8,0:0:0:0:
256,192,91017,1,0,0:0:0:0:
256,192,91100,1,12,0:0:0:0:
256,192,91267,1,0,0:0:0:0:
256,192,91433,1,8,0:0:0:0:
256,192,91600,1,0,0:0:0:0:
256,192,91767,1,8,0:0:0:0:
256,192,91933,1,0,0:0:0:0:
256,192,92100,1,8,0:0:0:0:
256,192,92267,1,0,0:0:0:0:
256,192,92433,12,0,93100,0:0:0:0:
256,192,93267,5,0,0:0:0:0:
256,192,93433,1,8,0:0:0:0:
256,192,93517,1,8,0:0:0:0:
256,192,93600,1,0,0:0:0:0:
256,192,93683,1,0,0:0:0:0:
256,192,93767,5,12,0:0:0:0:
256,192,94100,1,8,0:0:0:0:
256,192,94267,1,0,0:0:0:0:
256,192,94350,1,8,0:0:0:0:
256,192,94434,1,8,0:0:0:0:
256,192,94600,1,0,0:0:0:0:
256,192,94767,1,0,0:0:0:0:
256,192,94934,1,8,0:0:0:0:
256,192,95267,1,0,0:0:0:0:
256,192,95434,1,8,0:0:0:0:
256,192,95600,1,0,0:0:0:0:
256,192,95684,1,0,0:0:0:0:
256,192,95767,1,8,0:0:0:0:
256,192,95934,1,0,0:0:0:0:
256,192,96100,1,8,0:0:0:0:
256,192,96267,1,0,0:0:0:0:
256,192,96350,1,8,0:0:0:0:
256,192,96434,1,0,0:0:0:0:
256,192,96600,1,0,0:0:0:0:
256,192,96767,1,8,0:0:0:0:
256,192,96934,1,0,0:0:0:0:
256,192,97017,1,8,0:0:0:0:
256,192,97100,1,8,0:0:0:0:
256,192,97267,1,0,0:0:0:0:
256,192,97434,1,8,0:0:0:0:
256,192,97600,1,0,0:0:0:0:
256,192,97767,1,8,0:0:0:0:
256,192,97850,1,8,0:0:0:0:
256,192,97934,1,0,0:0:0:0:
256,192,98017,1,0,0:0:0:0:
256,192,98100,1,8,0:0:0:0:
256,192,98267,1,0,0:0:0:0:
256,192,98434,1,8,0:0:0:0:
256,192,98517,1,8,0:0:0:0:
256,192,98600,1,0,0:0:0:0:
256,192,98767,1,8,0:0:0:0:
256,192,99100,1,0,0:0:0:0:
256,192,99267,1,0,0:0:0:0:
256,192,99434,1,8,0:0:0:0:
256,192,99600,1,0,0:0:0:0:
256,192,99684,1,8,0:0:0:0:
256,192,99767,1,8,0:0:0:0:
256,192,99934,1,0,0:0:0:0:
256,192,100100,1,8,0:0:0:0:
256,192,100267,1,0,0:0:0:0:
256,192,100600,1,0,0:0:0:0:
256,192,100767,1,8,0:0:0:0:
256,192,100934,1,0,0:0:0:0:
256,192,101017,1,0,0:0:0:0:
256,192,101100,1,8,0:0:0:0:
256,192,101267,1,0,0:0:0:0:
256,192,101434,1,8,0:0:0:0:
256,192,101600,1,0,0:0:0:0:
256,192,101684,1,8,0:0:0:0:
256,192,101767,1,0,0:0:0:0:
256,192,101933,1,0,0:0:0:0:
256,192,102100,1,8,0:0:0:0:
256,192,102267,1,0,0:0:0:0:
256,192,102350,1,8,0:0:0:0:
256,192,102434,1,8,0:0:0:0:
256,192,102600,1,0,0:0:0:0:
256,192,102767,1,0,0:0:0:0:
256,192,102934,1,8,0:0:0:0:
256,192,103100,1,0,0:0:0:0:
256,192,103267,1,8,0:0:0:0:
256,192,103350,1,8,0:0:0:0:
256,192,103434,1,0,0:0:0:0:
256,192,103517,1,0,0:0:0:0:
256,192,103600,1,0,0:0:0:0:
256,192,103684,1,0,0:0:0:0:
256,192,103767,1,8,0:0:0:0:
256,192,103850,1,8,0:0:0:0:
256,192,103933,1,0,0:0:0:0:
256,192,104017,1,0,0:0:0:0:
256,192,104100,1,8,0:0:0:0:
256,192,104183,1,0,0:0:0:0:
256,192,104267,1,8,0:0:0:0:
256,192,104434,1,4,0:0:0:0:
256,192,104600,1,4,0:0:0:0:
256,192,105600,1,4,0:0:0:0:
256,192,105933,1,4,0:0:0:0:
256,192,106600,1,0,0:0:0:0:
256,192,106683,1,0,0:0:0:0:
256,192,106767,1,8,0:0:0:0:
256,192,106933,1,4,0:0:0:0:
256,192,107100,12,0,111433,0:0:0:0:
256,192,111600,5,0,0:0:0:0:
256,192,111683,1,0,0:0:0:0:
256,192,111767,1,8,0:0:0:0:
256,192,111933,1,0,0:0:0:0:
