osu file format v14

[General]
AudioFilename: audio.mp3
AudioLeadIn: 0
PreviewTime: 69017
Countdown: 0
SampleSet: Normal
StackLeniency: 0.7
Mode: 1
LetterboxInBreaks: 0
WidescreenStoryboard: 1

[Editor]
DistanceSpacing: 1
BeatDivisor: 4
GridSize: 32
TimelineZoom: 1.3

[Metadata]
Title:DIVE! (TV Size)
TitleUnicode:DIVE!(TV Size)
Artist:Yuki Setsuna (CV: Kusunoki Tomori)
ArtistUnicode:優木せつ菜 (CV: 楠木ともり)
Creator:K a y o k o
Version:MUZUKASHII!
Source:ラブライブ!虹ヶ咲学園スクールアイドル同好会
Tags:love live! nijigasaki high school idol club gakuen doukoukai doukou kai nijigaku ニジガク nakagawa nana 中川菜々 llas sifas スクスタ festival all stars スクールアイドルフェスティバル perfect dream project pdp Ayaka Miyake MOMIKEN SPYAIR tasuku insert anime insert song video game japanese rock j-rock jrock pop j-pop jpop -maruko- _gt Sammu K_a_y_o_k_o Kayoko
BeatmapID:4441302
BeatmapSetID:2115009

[Difficulty]
HPDrainRate:6
CircleSize:2
OverallDifficulty:5
ApproachRate:10
SliderMultiplier:1.4
SliderTickRate:1

[Events]
//Background and Video events
0,0,"sechuuna.jpg",0,40
Video,800,"setsuta scarlet storm.mp4"
//Break Periods
//Storyboard Layer 0 (Background)
//Storyboard Layer 1 (Fail)
//Storyboard Layer 2 (Pass)
//Storyboard Layer 3 (Foreground)
//Storyboard Layer 4 (Overlay)
//Storyboard Sound Samples

[TimingPoints]
-3566,333.333333333333,4,1,0,50,1,0
1100,-100,4,1,0,60,0,0
15100,-100,4,1,0,80,0,0
25850,-100,4,1,0,70,0,0
52433,-100,4,1,0,80,0,1
57767,-100,4,1,0,80,0,0
57850,-100,4,1,0,70,0,0
69767,-100,4,1,0,90,0,1
93767,-100,4,1,0,90,0,0
93850,-100,4,1,0,80,0,0
107100,-100,4,1,0,70,0,0
108433,-100,4,1,0,60,0,0
109767,-100,4,1,0,50,0,0
111100,-100,4,1,0,40,0,0
111600,-100,4,1,0,70,0,0

[HitObjects]
256,192,1767,5,8,0:0:0:0:
256,192,2433,1,0,0:0:0:0:
256,192,2767,1,8,0:0:0:0:
256,192,2933,1,8,0:0:0:0:
256,192,3433,1,0,0:0:0:0:
256,192,3767,1,8,0:0:0:0:
256,192,4100,1,0,0:0:0:0:
256,192,4433,1,8,0:0:0:0:
256,192,5100,1,0,0:0:0:0:
256,192,5433,1,8,0:0:0:0:
256,192,5600,1,8,0:0:0:0:
256,192,6100,1,0,0:0:0:0:
256,192,6433,1,0,0:0:0:0:
256,192,6767,1,0,0:0:0:0:
256,192,7100,1,8,0:0:0:0:
256,192,7433,1,0,0:0:0:0:
256,192,7600,1,0,0:0:0:0:
256,192,7933,1,8,0:0:0:0:
256,192,8267,1,8,0:0:0:0:
256,192,8600,1,0,0:0:0:0:
256,192,8767,1,0,0:0:0:0:
256,192,8933,1,8,0:0:0:0:
256,192,9600,1,0,0:0:0:0:
256,192,9767,1,8,0:0:0:0:
256,192,10100,1,0,0:0:0:0:
256,192,10267,1,8,0:0:0:0:
256,192,10600,1,8,0:0:0:0:
256,192,10767,1,0,0:0:0:0:
256,192,10933,1,8,0:0:0:0:
256,192,11267,1,8,0:0:0:0:
256,192,11600,1,0,0:0:0:0:
256,192,11933,1,8,0:0:0:0:
256,192,12267,1,0,0:0:0:0:
256,192,12433,1,0,0:0:0:0:
256,192,13600,1,8,0:0:0:0:
256,192,14600,1,0,0:0:0:0:
256,192,14767,1,8,0:0:0:0:
256,192,14850,1,8,0:0:0:0:
256,192,14933,1,8,0:0:0:0:
256,192,15100,1,4,0:0:0:0:
256,192,15433,1,8,0:0:0:0:
256,192,15767,1,0,0:0:0:0:
256,192,15933,1,0,0:0:0:0:
256,192,16100,1,8,0:0:0:0:
256,192,16267,1,0,0:0:0:0:
256,192,16601,1,0,0:0:0:0:
256,192,16767,1,8,0:0:0:0:
256,192,16933,1,0,0:0:0:0:
256,192,17100,1,0,0:0:0:0:
256,192,17183,1,0,0:0:0:0:
256,192,17267,1,0,0:0:0:0:
256,192,17433,1,8,0:0:0:0:
256,192,17767,1,0,0:0:0:0:
256,192,18100,1,8,0:0:0:0:
256,192,18433,1,0,0:0:0:0:
256,192,18600,1,8,0:0:0:0:
256,192,18767,1,8,0:0:0:0:
256,192,18933,1,0,0:0:0:0:
256,192,19100,1,8,0:0:0:0:
256,192,19267,1,8,0:0:0:0:
256,192,19433,1,0,0:0:0:0:
256,192,19767,1,8,0:0:0:0:
256,192,19933,1,0,0:0:0:0:
256,192,20100,1,8,0:0:0:0:
256,192,20267,1,8,0:0:0:0:
256,192,20433,1,4,0:0:0:0:
256,192,20767,1,8,0:0:0:0:
256,192,21100,1,0,0:0:0:0:
256,192,21267,1,0,0:0:0:0:
256,192,21433,1,8,0:0:0:0:
256,192,21600,1,0,0:0:0:0:
256,192,21933,1,0,0:0:0:0:
256,192,22100,1,8,0:0:0:0:
256,192,22267,1,8,0:0:0:0:
256,192,22433,1,0,0:0:0:0:
256,192,22517,1,0,0:0:0:0:
256,192,22600,1,0,0:0:0:0:
256,192,22767,1,8,0:0:0:0:
256,192,23100,1,0,0:0:0:0:
256,192,23433,1,8,0:0:0:0:
256,192,23767,1,0,0:0:0:0:
256,192,23933,1,0,0:0:0:0:
256,192,24100,1,8,0:0:0:0:
256,192,24267,1,0,0:0:0:0:
256,192,24433,1,8,0:0:0:0:
256,192,24600,1,0,0:0:0:0:
256,192,24683,1,0,0:0:0:0:
256,192,24767,1,0,0:0:0:0:
256,192,24933,1,0,0:0:0:0:
256,192,25267,1,12,0:0:0:0:
256,192,25433,1,12,0:0:0:0:
256,192,25767,1,4,0:0:0:0:
256,192,26100,1,8,0:0:0:0:
256,192,26433,1,0,0:0:0:0:
256,192,26600,1,8,0:0:0:0:
256,192,26933,1,8,0:0:0:0:
256,192,27267,1,0,0:0:0:0:
256,192,27600,1,0,0:0:0:0:
256,192,27933,1,0,0:0:0:0:
256,192,28100,1,8,0:0:0:0:
256,192,28267,1,8,0:0:0:0:
256,192,28433,1,0,0:0:0:0:
256,192,28767,1,8,0:0:0:0:
256,192,29101,1,0,0:0:0:0:
256,192,29267,1,0,0:0:0:0:
256,192,29433,1,0,0:0:0:0:
256,192,29600,1,8,0:0:0:0:
256,192,29933,1,0,0:0:0:0:
256,192,30100,1,8,0:0:0:0:
256,192,30267,1,0,0:0:0:0:
256,192,30600,1,0,0:0:0:0:
256,192,30767,1,8,0:0:0:0:
256,192,31100,1,8,0:0:0:0:
256,192,31433,1,0,0:0:0:0:
256,192,31767,1,8,0:0:0:0:
256,192,31933,1,8,0:0:0:0:
256,192,32100,1,0,0:0:0:0:
256,192,32267,1,8,0:0:0:0:
256,192,32600,1,0,0:0:0:0:
256,192,32933,1,8,0:0:0:0:
256,192,33267,1,0,0:0:0:0:
256,192,33433,1,8,0:0:0:0:
256,192,33600,1,0,0:0:0:0:
256,192,33767,1,12,0:0:0:0:
256,192,34100,1,0,0:0:0:0:
256,192,34433,1,0,0:0:0:0:
256,192,34600,1,0,0:0:0:0:
256,192,34767,1,8,0:0:0:0:
256,192,34933,1,4,0:0:0:0:
256,192,35267,1,0,0:0:0:0:
256,192,35433,1,8,0:0:0:0:
256,192,35600,1,0,0:0:0:0:
256,192,35767,1,8,0:0:0:0:
256,192,35933,1,0,0:0:0:0:
256,192,36017,1,0,0:0:0:0:
256,192,36100,1,0,0:0:0:0:
256,192,36267,1,0,0:0:0:0:
256,192,36433,1,12,0:0:0:0:
256,192,36767,1,0,0:0:0:0:
256,192,37100,1,8,0:0:0:0:
256,192,37267,1,0,0:0:0:0:
256,192,37433,1,8,0:0:0:0:
256,192,37600,1,8,0:0:0:0:
256,192,37933,1,0,0:0:0:0:
256,192,38267,1,0,0:0:0:0:
256,192,38600,1,0,0:0:0:0:
256,192,38767,1,8,0:0:0:0:
256,192,38933,1,8,0:0:0:0:
256,192,39100,1,0,0:0:0:0:
256,192,39433,1,8,0:0:0:0:
256,192,39600,1,0,0:0:0:0:
256,192,39767,1,8,0:0:0:0:
256,192,39933,1,8,0:0:0:0:
256,192,40100,1,0,0:0:0:0:
256,192,40267,1,8,0:0:0:0:
256,192,40600,1,0,0:0:0:0:
256,192,40767,1,8,0:0:0:0:
256,192,40933,1,8,0:0:0:0:
256,192,41267,1,0,0:0:0:0:
256,192,41433,1,8,0:0:0:0:
256,192,41767,1,4,0:0:0:0:
256,192,42100,1,8,0:0:0:0:
256,192,42433,1,0,0:0:0:0:
256,192,42600,1,0,0:0:0:0:
256,192,42767,1,8,0:0:0:0:
256,192,42934,1,4,0:0:0:0:
256,192,43267,1,0,0:0:0:0:
256,192,43433,1,8,0:0:0:0:
256,192,43600,1,0,0:0:0:0:
256,192,43933,1,0,0:0:0:0:
256,192,44100,1,8,0:0:0:0:
256,192,44433,1,4,0:0:0:0:
256,192,44600,1,0,0:0:0:0:
256,192,44767,1,8,0:0:0:0:
256,192,44933,1,0,0:0:0:0:
256,192,45017,1,0,0:0:0:0:
256,192,45100,1,0,0:0:0:0:
256,192,45267,1,0,0:0:0:0:
256,192,45433,1,8,0:0:0:0:
256,192,45600,1,4,0:0:0:0:
256,192,45933,1,8,0:0:0:0:
256,192,46100,1,0,0:0:0:0:
256,192,46267,1,8,0:0:0:0:
256,192,46350,1,8,0:0:0:0:
256,192,46433,1,8,0:0:0:0:
256,192,46600,1,0,0:0:0:0:
256,192,46767,1,8,0:0:0:0:
256,192,46933,1,8,0:0:0:0:
256,192,47100,1,4,0:0:0:0:
256,192,47433,1,8,0:0:0:0:
256,192,47767,1,0,0:0:0:0:
256,192,47933,1,0,0:0:0:0:
256,192,48100,1,8,0:0:0:0:
256,192,48433,1,0,0:0:0:0:
256,192,48600,1,8,0:0:0:0:
256,192,48767,1,8,0:0:0:0:
256,192,49100,1,0,0:0:0:0:
256,192,49267,1,0,0:0:0:0:
256,192,49433,1,8,0:0:0:0:
256,192,49600,1,0,0:0:0:0:
256,192,49683,1,0,0:0:0:0:
256,192,49767,1,0,0:0:0:0:
256,192,50100,1,8,0:0:0:0:
256,192,50433,1,0,0:0:0:0:
256,192,50600,1,8,0:0:0:0:
256,192,50767,1,8,0:0:0:0:
256,192,51100,1,0,0:0:0:0:
256,192,51267,1,0,0:0:0:0:
256,192,51433,1,8,0:0:0:0:
256,192,51600,1,0,0:0:0:0:
256,192,51767,1,8,0:0:0:0:
256,192,51933,1,0,0:0:0:0:
256,192,52100,1,8,0:0:0:0:
256,192,52183,1,8,0:0:0:0:
256,192,52267,1,8,0:0:0:0:
256,192,52433,1,4,0:0:0:0:
256,192,52767,1,8,0:0:0:0:
256,192,53100,1,0,0:0:0:0:
256,192,53433,1,8,0:0:0:0:
256,192,53600,1,8,0:0:0:0:
256,192,53933,1,0,0:0:0:0:
256,192,54100,1,8,0:0:0:0:
256,192,54267,1,0,0:0:0:0:
256,192,54433,1,0,0:0:0:0:
256,192,54600,1,0,0:0:0:0:
256,192,54767,1,8,0:0:0:0:
256,192,55100,1,0,0:0:0:0:
256,192,55267,1,8,0:0:0:0:
256,192,55350,1,8,0:0:0:0:
256,192,55433,1,8,0:0:0:0:
256,192,55600,1,0,0:0:0:0:
256,192,55767,1,8,0:0:0:0:
256,192,55933,1,8,0:0:0:0:
256,192,56100,1,0,0:0:0:0:
256,192,56433,1,8,0:0:0:0:
256,192,56600,1,0,0:0:0:0:
256,192,56683,1,0,0:0:0:0:
256,192,56767,1,0,0:0:0:0:
256,192,56933,1,8,0:0:0:0:
256,192,57100,1,0,0:0:0:0:
256,192,57267,1,8,0:0:0:0:
256,192,57433,1,0,0:0:0:0:
256,192,57600,1,0,0:0:0:0:
256,192,57767,1,12,0:0:0:0:
256,192,58100,1,0,0:0:0:0:
256,192,58434,1,8,0:0:0:0:
256,192,58767,1,8,0:0:0:0:
256,192,59100,1,0,0:0:0:0:
256,192,59267,1,0,0:0:0:0:
256,192,59434,1,8,0:0:0:0:
256,192,59767,1,0,0:0:0:0:
256,192,59933,1,0,0:0:0:0:
256,192,60100,1,8,0:0:0:0:
256,192,60267,1,0,0:0:0:0:
256,192,60350,1,0,0:0:0:0:
256,192,60434,1,0,0:0:0:0:
256,192,60767,1,8,0:0:0:0:
256,192,61100,1,8,0:0:0:0:
256,192,61267,1,0,0:0:0:0:
256,192,61434,1,8,0:0:0:0:
256,192,61767,1,0,0:0:0:0:
256,192,61934,1,0,0:0:0:0:
256,192,62100,1,8,0:0:0:0:
256,192,62267,1,0,0:0:0:0:
256,192,62434,1,8,0:0:0:0:
256,192,62517,1,8,0:0:0:0:
256,192,62600,1,8,0:0:0:0:
256,192,62767,1,0,0:0:0:0:
256,192,62934,1,0,0:0:0:0:
256,192,63100,1,12,0:0:0:0:
256,192,63267,1,0,0:0:0:0:
256,192,63433,1,0,0:0:0:0:
256,192,63600,1,8,0:0:0:0:
256,192,63933,1,0,0:0:0:0:
256,192,64100,1,8,0:0:0:0:
256,192,64267,1,0,0:0:0:0:
256,192,64600,1,0,0:0:0:0:
256,192,64767,1,0,0:0:0:0:
256,192,64933,1,12,0:0:0:0:
256,192,65267,1,8,0:0:0:0:
256,192,65433,1,0,0:0:0:0:
256,192,65517,1,0,0:0:0:0:
256,192,65600,1,0,0:0:0:0:
256,192,65767,1,8,0:0:0:0:
256,192,65933,1,0,0:0:0:0:
256,192,66100,1,0,0:0:0:0:
256,192,66267,1,12,0:0:0:0:
256,192,66600,1,8,0:0:0:0:
256,192,66767,1,0,0:0:0:0:
256,192,66933,1,12,0:0:0:0:
256,192,67267,1,4,0:0:0:0:
256,192,67600,1,12,0:0:0:0:
256,192,67933,1,4,0:0:0:0:
256,192,68267,1,12,0:0:0:0:
256,192,68601,1,4,0:0:0:0:
256,192,68767,1,4,0:0:0:0:
256,192,69767,1,4,0:0:0:0:
256,192,70100,1,8,0:0:0:0:
256,192,70433,1,0,0:0:0:0:
256,192,70600,1,0,0:0:0:0:
256,192,70767,1,8,0:0:0:0:
256,192,70933,1,0,0:0:0:0:
256,192,71267,1,0,0:0:0:0:
256,192,71433,1,8,0:0:0:0:
256,192,71600,1,8,0:0:0:0:
256,192,71683,1,8,0:0:0:0:
256,192,71766,1,8,0:0:0:0:
256,192,71933,1,0,0:0:0:0:
256,192,72100,1,8,0:0:0:0:
256,192,72433,1,0,0:0:0:0:
256,192,72767,1,8,0:0:0:0:
256,192,73100,1,0,0:0:0:0:
256,192,73267,1,8,0:0:0:0:
256,192,73433,1,8,0:0:0:0:
256,192,73600,1,0,0:0:0:0:
256,192,73933,1,0,0:0:0:0:
256,192,74100,1,8,0:0:0:0:
256,192,74267,1,8,0:0:0:0:
256,192,74350,1,8,0:0:0:0:
256,192,74433,1,8,0:0:0:0:
256,192,74600,1,0,0:0:0:0:
256,192,74767,1,8,0:0:0:0:
256,192,74933,1,8,0:0:0:0:
256,192,75100,1,4,0:0:0:0:
256,192,75433,1,8,0:0:0:0:
256,192,75600,1,8,0:0:0:0:
256,192,75767,1,0,0:0:0:0:
256,192,75933,1,0,0:0:0:0:
256,192,76100,1,8,0:0:0:0:
256,192,76267,1,0,0:0:0:0:
256,192,76600,1,0,0:0:0:0:
256,192,76767,1,8,0:0:0:0:
256,192,76933,1,8,0:0:0:0:
256,192,77017,1,8,0:0:0:0:
256,192,77100,1,8,0:0:0:0:
256,192,77267,1,0,0:0:0:0:
256,192,77433,1,8,0:0:0:0:
256,192,77767,1,12,0:0:0:0:
256,192,77933,1,0,0:0:0:0:
256,192,78100,1,0,0:0:0:0:
256,192,78267,1,8,0:0:0:0:
256,192,78600,1,0,0:0:0:0:
256,192,78767,1,8,0:0:0:0:
256,192,78933,1,0,0:0:0:0:
256,192,79100,1,0,0:0:0:0:
256,192,79267,1,8,0:0:0:0:
256,192,79600,1,0,0:0:0:0:
256,192,79767,1,8,0:0:0:0:
256,192,79933,1,0,0:0:0:0:
256,192,80100,1,8,0:0:0:0:
256,192,80183,1,8,0:0:0:0:
256,192,80267,1,8,0:0:0:0:
256,192,80433,1,4,0:0:0:0:
256,192,80767,1,8,0:0:0:0:
256,192,81100,1,0,0:0:0:0:
256,192,81267,1,0,0:0:0:0:
256,192,81434,1,8,0:0:0:0:
256,192,81600,1,0,0:0:0:0:
256,192,81933,1,0,0:0:0:0:
256,192,82100,1,8,0:0:0:0:
256,192,82267,1,8,0:0:0:0:
256,192,82350,1,8,0:0:0:0:
256,192,82433,1,8,0:0:0:0:
256,192,82600,1,0,0:0:0:0:
256,192,82767,1,8,0:0:0:0:
256,192,83100,1,0,0:0:0:0:
256,192,83434,1,8,0:0:0:0:
256,192,83767,1,0,0:0:0:0:
256,192,83934,1,8,0:0:0:0:
256,192,84100,1,8,0:0:0:0:
256,192,84267,1,0,0:0:0:0:
256,192,84600,1,0,0:0:0:0:
256,192,84767,1,8,0:0:0:0:
256,192,84934,1,8,0:0:0:0:
256,192,85017,1,8,0:0:0:0:
256,192,85100,1,8,0:0:0:0:
256,192,85267,1,0,0:0:0:0:
256,192,85434,1,8,0:0:0:0:
256,192,85600,1,8,0:0:0:0:
256,192,85767,1,4,0:0:0:0:
256,192,86100,1,8,0:0:0:0:
256,192,86267,1,8,0:0:0:0:
256,192,86434,1,0,0:0:0:0:
256,192,86600,1,0,0:0:0:0:
256,192,86767,1,8,0:0:0:0:
256,192,86934,1,4,0:0:0:0:
256,192,87267,1,0,0:0:0:0:
256,192,87434,1,8,0:0:0:0:
256,192,87600,1,8,0:0:0:0:
256,192,87684,1,8,0:0:0:0:
256,192,87767,1,8,0:0:0:0:
256,192,87934,1,0,0:0:0:0:
256,192,88100,1,8,0:0:0:0:
256,192,88434,1,4,0:0:0:0:
256,192,88767,1,8,0:0:0:0:
256,192,89100,1,0,0:0:0:0:
256,192,89267,1,0,0:0:0:0:
256,192,89433,1,8,0:0:0:0:
256,192,89600,1,4,0:0:0:0:
256,192,89934,1,8,0:0:0:0:
256,192,90017,1,8,0:0:0:0:
256,192,90100,1,8,0:0:0:0:
256,192,90267,1,0,0:0:0:0:
256,192,90433,1,0,0:0:0:0:
256,192,90600,1,8,0:0:0:0:
256,192,90767,1,0,0:0:0:0:
256,192,90850,1,0,0:0:0:0:
256,192,90933,1,0,0:0:0:0:
256,192,91100,1,12,0:0:0:0:
256,192,91433,1,8,0:0:0:0:
256,192,91767,1,8,0:0:0:0:
256,192,91933,1,0,0:0:0:0:
256,192,92100,1,0,0:0:0:0:
256,192,92267,1,8,0:0:0:0:
256,192,93267,1,0,0:0:0:0:
256,192,93433,1,8,0:0:0:0:
256,192,93517,1,8,0:0:0:0:
256,192,93600,1,8,0:0:0:0:
256,192,93767,1,4,0:0:0:0:
256,192,94100,1,8,0:0:0:0:
256,192,94434,1,0,0:0:0:0:
256,192,94600,1,0,0:0:0:0:
256,192,94767,1,8,0:0:0:0:
256,192,94934,1,0,0:0:0:0:
256,192,95268,1,0,0:0:0:0:
256,192,95434,1,8,0:0:0:0:
256,192,95600,1,0,0:0:0:0:
256,192,95767,1,0,0:0:0:0:
256,192,95850,1,0,0:0:0:0:
256,192,95934,1,0,0:0:0:0:
256,192,96100,1,8,0:0:0:0:
256,192,96434,1,0,0:0:0:0:
256,192,96767,1,8,0:0:0:0:
256,192,97100,1,0,0:0:0:0:
256,192,97267,1,8,0:0:0:0:
256,192,97434,1,8,0:0:0:0:
256,192,97600,1,0,0:0:0:0:
256,192,97767,1,8,0:0:0:0:
256,192,97934,1,8,0:0:0:0:
256,192,98100,1,0,0:0:0:0:
256,192,98434,1,8,0:0:0:0:
256,192,98600,1,0,0:0:0:0:
256,192,98767,1,8,0:0:0:0:
256,192,98934,1,8,0:0:0:0:
256,192,99100,1,4,0:0:0:0:
256,192,99434,1,8,0:0:0:0:
256,192,99767,1,0,0:0:0:0:
256,192,99934,1,0,0:0:0:0:
256,192,100100,1,8,0:0:0:0:
256,192,100267,1,0,0:0:0:0:
256,192,100600,1,0,0:0:0:0:
256,192,100767,1,8,0:0:0:0:
256,192,100933,1,8,0:0:0:0:
256,192,101100,1,0,0:0:0:0:
256,192,101183,1,0,0:0:0:0:
256,192,101267,1,0,0:0:0:0:
256,192,101434,1,8,0:0:0:0:
256,192,101767,1,0,0:0:0:0:
256,192,102100,1,8,0:0:0:0:
256,192,102434,1,0,0:0:0:0:
256,192,102600,1,0,0:0:0:0:
256,192,102767,1,8,0:0:0:0:
256,192,102934,1,0,0:0:0:0:
256,192,103100,1,8,0:0:0:0:
256,192,103267,1,8,0:0:0:0:
256,192,103350,1,8,0:0:0:0:
256,192,103434,1,8,0:0:0:0:
256,192,103600,1,0,0:0:0:0:
256,192,103767,1,0,0:0:0:0:
256,192,103850,1,0,0:0:0:0:
256,192,103934,1,0,0:0:0:0:
256,192,104100,1,8,0:0:0:0:
256,192,104433,1,4,0:0:0:0:
256,192,104600,1,4,0:0:0:0:
256,192,105600,1,4,0:0:0:0:
256,192,105933,1,4,0:0:0:0:
256,192,106600,1,0,0:0:0:0:
256,192,106683,1,0,0:0:0:0:
256,192,106767,1,0,0:0:0:0:
256,192,106933,1,12,0:0:0:0:
256,192,107100,12,0,111433,0:0:0:0:
256,192,111600,5,8,0:0:0:0:
256,192,111683,1,8,0:0:0:0:
256,192,111767,1,8,0:0:0:0:
256,192,111933,1,0,0:0:0:0:
