osu file format v14

[General]
AudioFilename: audio.mp3
AudioLeadIn: 0
PreviewTime: 69017
Countdown: 0
SampleSet: Normal
StackLeniency: 0.7
Mode: 1
LetterboxInBreaks: 0
WidescreenStoryboard: 1

[Editor]
Bookmarks: 36433,47100,80433
DistanceSpacing: 1
BeatDivisor: 4
GridSize: 32
TimelineZoom: 2

[Metadata]
Title:DIVE! (TV Size)
TitleUnicode:DIVE!(TV Size)
Artist:Yuki Setsuna (CV: Kusunoki Tomori)
ArtistUnicode:優木せつ菜 (CV: 楠木ともり)
Creator:K a y o k o
Version:MARUKO'S ONI!
Source:ラブライブ!虹ヶ咲学園スクールアイドル同好会
Tags:love live! nijigasaki high school idol club gakuen doukoukai doukou kai nijigaku ニジガク nakagawa nana 中川菜々 llas sifas スクスタ festival all stars スクールアイドルフェスティバル perfect dream project pdp Ayaka Miyake MOMIKEN SPYAIR tasuku insert anime insert song video game japanese rock j-rock jrock pop j-pop jpop -maruko- _gt Sammu K_a_y_o_k_o Kayoko
BeatmapID:4441301
BeatmapSetID:2115009

[Difficulty]
HPDrainRate:5.5
CircleSize:2
OverallDifficulty:5.5
ApproachRate:10
SliderMultiplier:1.4
SliderTickRate:1

[Events]
//Background and Video events
0,0,"sechuuna.jpg",0,40
Video,800,"setsuta scarlet storm.mp4"
//Break Periods
//Storyboard Layer 0 (Background)
//Storyboard Layer 1 (Fail)
//Storyboard Layer 2 (Pass)
//Storyboard Layer 3 (Foreground)
//Storyboard Layer 4 (Overlay)
//Storyboard Sound Samples

[TimingPoints]
-3566,333.333333333333,4,1,0,50,1,0
1100,-100,4,1,0,60,0,0
15100,-100,4,1,0,80,0,0
25850,-100,4,1,0,70,0,0
52433,-90.9090909090909,4,1,0,80,0,1
57767,-90.9090909090909,4,1,0,80,0,0
57850,-100,4,1,0,70,0,0
69767,-90.9090909090909,4,1,0,90,0,1
93262,-100,4,1,0,90,0,1
93767,-100,4,1,0,90,0,0
93850,-100,4,1,0,80,0,0
107100,-100,4,1,0,70,0,0
108433,-100,4,1,0,60,0,0
109767,-100,4,1,0,50,0,0
111100,-100,4,1,0,40,0,0
111600,-100,4,1,0,70,0,0

[HitObjects]
256,192,1767,5,8,0:0:0:0:
256,192,2767,1,0,0:0:0:0:
256,192,2933,1,8,0:0:0:0:
256,192,4100,1,0,0:0:0:0:
256,192,4433,1,8,0:0:0:0:
256,192,5433,1,8,0:0:0:0:
256,192,5600,1,0,0:0:0:0:
256,192,6767,1,0,0:0:0:0:
256,192,7100,1,8,0:0:0:0:
256,192,7433,1,0,0:0:0:0:
256,192,7600,1,8,0:0:0:0:
256,192,7933,1,8,0:0:0:0:
256,192,8267,1,0,0:0:0:0:
256,192,8600,1,0,0:0:0:0:
256,192,8767,1,8,0:0:0:0:
256,192,8933,1,0,0:0:0:0:
256,192,9600,1,0,0:0:0:0:
256,192,9767,1,8,0:0:0:0:
256,192,10100,1,8,0:0:0:0:
256,192,10267,1,8,0:0:0:0:
256,192,10600,1,0,0:0:0:0:
256,192,10767,1,0,0:0:0:0:
256,192,10933,1,8,0:0:0:0:
256,192,11267,1,0,0:0:0:0:
256,192,11600,1,8,0:0:0:0:
256,192,11933,1,0,0:0:0:0:
256,192,12267,1,0,0:0:0:0:
256,192,12433,1,8,0:0:0:0:
256,192,13600,1,8,0:0:0:0:
256,192,13767,12,0,14433,0:0:0:0:
256,192,14600,5,0,0:0:0:0:
256,192,14767,1,8,0:0:0:0:
256,192,14850,1,8,0:0:0:0:
256,192,14933,1,8,0:0:0:0:
352,96,15100,1,4,0:0:0:0:
256,192,15433,1,8,0:0:0:0:
256,192,15600,1,0,0:0:0:0:
256,192,15683,1,0,0:0:0:0:
256,192,15767,1,8,0:0:0:0:
256,192,15933,1,0,0:0:0:0:
256,192,16100,1,8,0:0:0:0:
256,192,16267,1,0,0:0:0:0:
256,192,16600,1,0,0:0:0:0:
256,192,16767,1,8,0:0:0:0:
256,192,16933,1,0,0:0:0:0:
256,192,17017,1,8,0:0:0:0:
256,192,17100,1,8,0:0:0:0:
256,192,17267,1,0,0:0:0:0:
256,192,17433,1,8,0:0:0:0:
256,192,17600,1,0,0:0:0:0:
256,192,17933,1,0,0:0:0:0:
256,192,18100,1,8,0:0:0:0:
256,192,18267,1,0,0:0:0:0:
256,192,18350,1,0,0:0:0:0:
256,192,18433,1,8,0:0:0:0:
256,192,18600,1,0,0:0:0:0:
256,192,18767,1,8,0:0:0:0:
256,192,19100,1,8,0:0:0:0:
256,192,19267,1,0,0:0:0:0:
256,192,19433,1,8,0:0:0:0:
256,192,19517,1,8,0:0:0:0:
256,192,19600,1,0,0:0:0:0:
256,192,19683,1,0,0:0:0:0:
256,192,19767,1,8,0:0:0:0:
256,192,19933,1,0,0:0:0:0:
256,192,20100,1,8,0:0:0:0:
352,96,20433,1,4,0:0:0:0:
256,192,20767,1,8,0:0:0:0:
256,192,20933,1,0,0:0:0:0:
256,192,21017,1,0,0:0:0:0:
256,192,21100,1,8,0:0:0:0:
256,192,21267,1,0,0:0:0:0:
256,192,21433,1,8,0:0:0:0:
256,192,21600,1,0,0:0:0:0:
256,192,21933,1,0,0:0:0:0:
256,192,22100,1,8,0:0:0:0:
256,192,22267,1,0,0:0:0:0:
256,192,22350,1,8,0:0:0:0:
256,192,22433,1,8,0:0:0:0:
256,192,22600,1,0,0:0:0:0:
256,192,22767,1,8,0:0:0:0:
256,192,22933,1,0,0:0:0:0:
256,192,23267,1,0,0:0:0:0:
256,192,23433,1,8,0:0:0:0:
256,192,23600,1,0,0:0:0:0:
256,192,23683,1,0,0:0:0:0:
256,192,23767,1,8,0:0:0:0:
256,192,23933,1,0,0:0:0:0:
256,192,24100,1,8,0:0:0:0:
256,192,24267,1,0,0:0:0:0:
256,192,24433,1,8,0:0:0:0:
256,192,24517,1,8,0:0:0:0:
256,192,24600,1,8,0:0:0:0:
256,192,24683,1,8,0:0:0:0:
256,192,24767,1,0,0:0:0:0:
256,192,24933,1,8,0:0:0:0:
256,192,25267,1,4,0:0:0:0:
256,192,25433,1,4,0:0:0:0:
352,96,25767,1,12,0:0:0:0:
256,192,26100,1,8,0:0:0:0:
256,192,26267,1,0,0:0:0:0:
256,192,26433,1,0,0:0:0:0:
256,192,26600,1,0,0:0:0:0:
256,192,26767,1,8,0:0:0:0:
256,192,26933,1,8,0:0:0:0:
256,192,27267,1,0,0:0:0:0:
256,192,27433,1,8,0:0:0:0:
256,192,27600,1,8,0:0:0:0:
256,192,27767,1,0,0:0:0:0:
256,192,27933,1,0,0:0:0:0:
256,192,28100,1,8,0:0:0:0:
256,192,28433,1,0,0:0:0:0:
256,192,28767,1,8,0:0:0:0:
256,192,28933,1,8,0:0:0:0:
256,192,29100,1,0,0:0:0:0:
256,192,29267,1,0,0:0:0:0:
256,192,29433,1,0,0:0:0:0:
256,192,29600,1,8,0:0:0:0:
256,192,29933,1,0,0:0:0:0:
256,192,30100,1,8,0:0:0:0:
256,192,30267,1,0,0:0:0:0:
256,192,30433,1,0,0:0:0:0:
256,192,30600,1,0,0:0:0:0:
256,192,30767,1,8,0:0:0:0:
256,192,31100,1,0,0:0:0:0:
256,192,31433,1,8,0:0:0:0:
256,192,31600,1,8,0:0:0:0:
256,192,31767,1,8,0:0:0:0:
256,192,31933,1,8,0:0:0:0:
256,192,32100,1,0,0:0:0:0:
256,192,32267,1,8,0:0:0:0:
256,192,32600,1,0,0:0:0:0:
256,192,32767,1,8,0:0:0:0:
256,192,32933,1,8,0:0:0:0:
256,192,33100,1,0,0:0:0:0:
256,192,33267,1,0,0:0:0:0:
256,192,33433,1,8,0:0:0:0:
352,96,33767,1,4,0:0:0:0:
256,192,34100,1,0,0:0:0:0:
256,192,34267,1,8,0:0:0:0:
256,192,34350,1,8,0:0:0:0:
256,192,34433,1,0,0:0:0:0:
256,192,34600,1,0,0:0:0:0:
256,192,34767,1,8,0:0:0:0:
384,96,34933,1,4,0:0:0:0:
256,192,35267,1,0,0:0:0:0:
256,192,35433,1,8,0:0:0:0:
256,192,35600,1,0,0:0:0:0:
256,192,35767,1,8,0:0:0:0:
256,192,35933,1,0,0:0:0:0:
256,192,36017,1,0,0:0:0:0:
256,192,36100,1,8,0:0:0:0:
256,192,36267,1,8,0:0:0:0:
352,96,36433,1,4,0:0:0:0:
256,192,36767,1,8,0:0:0:0:
256,192,36933,1,8,0:0:0:0:
256,192,37100,1,0,0:0:0:0:
256,192,37267,1,0,0:0:0:0:
256,192,37433,1,8,0:0:0:0:
256,192,37600,1,0,0:0:0:0:
256,192,37933,1,0,0:0:0:0:
256,192,38100,1,0,0:0:0:0:
256,192,38267,1,8,0:0:0:0:
256,192,38433,1,0,0:0:0:0:
256,192,38600,1,0,0:0:0:0:
256,192,38767,1,8,0:0:0:0:
256,192,38933,1,0,0:0:0:0:
256,192,39100,1,8,0:0:0:0:
256,192,39433,1,0,0:0:0:0:
256,192,39600,1,0,0:0:0:0:
256,192,39767,1,8,0:0:0:0:
256,192,39933,1,0,0:0:0:0:
256,192,40100,1,8,0:0:0:0:
256,192,40267,1,8,0:0:0:0:
256,192,40600,1,0,0:0:0:0:
256,192,40767,1,0,0:0:0:0:
256,192,40933,1,8,0:0:0:0:
256,192,41100,1,8,0:0:0:0:
256,192,41183,1,8,0:0:0:0:
256,192,41267,1,0,0:0:0:0:
256,192,41433,1,8,0:0:0:0:
352,96,41767,1,4,0:0:0:0:
256,192,42100,1,8,0:0:0:0:
256,192,42267,1,8,0:0:0:0:
256,192,42433,1,0,0:0:0:0:
256,192,42600,1,0,0:0:0:0:
256,192,42767,1,8,0:0:0:0:
352,96,42933,1,4,0:0:0:0:
256,192,43267,1,0,0:0:0:0:
256,192,43433,1,8,0:0:0:0:
256,192,43600,1,8,0:0:0:0:
256,192,43767,1,0,0:0:0:0:
256,192,43933,1,0,0:0:0:0:
256,192,44100,1,8,0:0:0:0:
256,192,44267,1,0,0:0:0:0:
352,96,44433,1,12,0:0:0:0:
256,192,44767,1,8,0:0:0:0:
256,192,44933,1,0,0:0:0:0:
256,192,45017,1,0,0:0:0:0:
256,192,45100,1,0,0:0:0:0:
256,192,45267,1,0,0:0:0:0:
256,192,45433,1,8,0:0:0:0:
352,96,45600,1,4,0:0:0:0:
352,96,45933,1,4,0:0:0:0:
256,192,46267,1,8,0:0:0:0:
256,192,46350,1,8,0:0:0:0:
256,192,46434,1,0,0:0:0:0:
256,192,46517,1,0,0:0:0:0:
256,192,46600,1,0,0:0:0:0:
256,192,46767,1,8,0:0:0:0:
256,192,46933,1,8,0:0:0:0:
352,96,47100,1,4,0:0:0:0:
256,192,47433,1,0,0:0:0:0:
256,192,47600,1,0,0:0:0:0:
256,192,47767,1,8,0:0:0:0:
256,192,47850,1,8,0:0:0:0:
256,192,47933,1,0,0:0:0:0:
256,192,48100,1,0,0:0:0:0:
256,192,48267,1,8,0:0:0:0:
256,192,48600,1,0,0:0:0:0:
256,192,48767,1,8,0:0:0:0:
256,192,48933,1,0,0:0:0:0:
256,192,49017,1,8,0:0:0:0:
256,192,49100,1,0,0:0:0:0:
256,192,49267,1,8,0:0:0:0:
256,192,49433,1,0,0:0:0:0:
256,192,49600,1,0,0:0:0:0:
352,96,49767,1,12,0:0:0:0:
256,192,50100,1,0,0:0:0:0:
256,192,50267,1,8,0:0:0:0:
256,192,50350,1,8,0:0:0:0:
256,192,50433,1,0,0:0:0:0:
256,192,50600,1,0,0:0:0:0:
256,192,50767,1,8,0:0:0:0:
256,192,50933,1,0,0:0:0:0:
256,192,51100,1,8,0:0:0:0:
256,192,51433,1,0,0:0:0:0:
256,192,51600,1,8,0:0:0:0:
256,192,51767,1,0,0:0:0:0:
256,192,51933,1,0,0:0:0:0:
256,192,52100,1,8,0:0:0:0:
256,192,52183,1,8,0:0:0:0:
256,192,52267,1,8,0:0:0:0:
384,96,52433,5,4,0:0:0:0:
256,192,52767,1,8,0:0:0:0:
256,192,52933,1,0,0:0:0:0:
256,192,53100,1,8,0:0:0:0:
256,192,53267,1,0,0:0:0:0:
256,192,53350,1,0,0:0:0:0:
256,192,53433,1,8,0:0:0:0:
256,192,53600,1,0,0:0:0:0:
256,192,53933,1,0,0:0:0:0:
256,192,54100,1,0,0:0:0:0:
256,192,54267,1,8,0:0:0:0:
256,192,54350,1,0,0:0:0:0:
256,192,54433,1,8,0:0:0:0:
256,192,54600,1,0,0:0:0:0:
256,192,54767,1,8,0:0:0:0:
256,192,55100,1,0,0:0:0:0:
256,192,55267,1,8,0:0:0:0:
256,192,55350,1,0,0:0:0:0:
256,192,55433,1,0,0:0:0:0:
256,192,55517,1,0,0:0:0:0:
256,192,55600,1,8,0:0:0:0:
256,192,55767,1,0,0:0:0:0:
256,192,55933,1,8,0:0:0:0:
256,192,56017,1,8,0:0:0:0:
256,192,56100,1,0,0:0:0:0:
256,192,56267,1,8,0:0:0:0:
256,192,56600,1,0,0:0:0:0:
256,192,56767,1,8,0:0:0:0:
256,192,56850,1,8,0:0:0:0:
256,192,56933,1,0,0:0:0:0:
256,192,57017,1,0,0:0:0:0:
256,192,57100,1,8,0:0:0:0:
256,192,57267,1,0,0:0:0:0:
256,192,57433,1,8,0:0:0:0:
256,192,57600,1,8,0:0:0:0:
352,96,57767,1,4,0:0:0:0:
256,192,58100,1,0,0:0:0:0:
256,192,58267,1,0,0:0:0:0:
256,192,58433,1,8,0:0:0:0:
256,192,58517,1,8,0:0:0:0:
256,192,58600,1,0,0:0:0:0:
256,192,58767,1,0,0:0:0:0:
256,192,58933,1,8,0:0:0:0:
256,192,59100,1,0,0:0:0:0:
256,192,59267,1,8,0:0:0:0:
256,192,59600,1,8,0:0:0:0:
256,192,59767,1,0,0:0:0:0:
256,192,59933,1,8,0:0:0:0:
256,192,60100,1,8,0:0:0:0:
256,192,60183,1,8,0:0:0:0:
256,192,60267,1,0,0:0:0:0:
352,96,60433,1,12,0:0:0:0:
256,192,60767,1,8,0:0:0:0:
256,192,60933,1,0,0:0:0:0:
256,192,61017,1,0,0:0:0:0:
256,192,61100,1,8,0:0:0:0:
256,192,61267,1,0,0:0:0:0:
256,192,61433,1,0,0:0:0:0:
256,192,61600,1,8,0:0:0:0:
256,192,61767,1,0,0:0:0:0:
256,192,62100,1,8,0:0:0:0:
256,192,62267,1,0,0:0:0:0:
256,192,62433,1,0,0:0:0:0:
256,192,62517,1,8,0:0:0:0:
256,192,62600,1,8,0:0:0:0:
256,192,62683,1,8,0:0:0:0:
256,192,62767,1,0,0:0:0:0:
256,192,62933,1,8,0:0:0:0:
352,96,63100,1,4,0:0:0:0:
256,192,63433,1,0,0:0:0:0:
256,192,63600,1,8,0:0:0:0:
256,192,63683,1,0,0:0:0:0:
256,192,63767,1,0,0:0:0:0:
256,192,63933,1,8,0:0:0:0:
256,192,64100,1,0,0:0:0:0:
256,192,64267,1,8,0:0:0:0:
256,192,64600,1,0,0:0:0:0:
256,192,64767,1,0,0:0:0:0:
352,96,64933,1,12,0:0:0:0:
256,192,65267,1,0,0:0:0:0:
256,192,65433,1,8,0:0:0:0:
256,192,65600,1,0,0:0:0:0:
256,192,65683,1,0,0:0:0:0:
256,192,65767,1,8,0:0:0:0:
256,192,65933,1,8,0:0:0:0:
256,192,66100,1,8,0:0:0:0:
352,96,66267,1,4,0:0:0:0:
256,192,66600,1,0,0:0:0:0:
256,192,66767,1,8,0:0:0:0:
352,96,66933,1,4,0:0:0:0:
352,96,67267,1,4,0:0:0:0:
352,96,67600,1,4,0:0:0:0:
256,192,67933,5,12,0:0:0:0:
256,192,68267,1,12,0:0:0:0:
256,192,68600,1,4,0:0:0:0:
256,192,68767,1,4,0:0:0:0:
352,96,69767,1,4,0:0:0:0:
256,192,70100,1,8,0:0:0:0:
256,192,70433,1,0,0:0:0:0:
256,192,70600,1,0,0:0:0:0:
256,192,70767,1,8,0:0:0:0:
256,192,70850,1,0,0:0:0:0:
256,192,70933,1,0,0:0:0:0:
256,192,71017,1,0,0:0:0:0:
256,192,71100,1,8,0:0:0:0:
256,192,71267,1,0,0:0:0:0:
256,192,71433,1,8,0:0:0:0:
256,192,71600,1,0,0:0:0:0:
256,192,71683,1,8,0:0:0:0:
256,192,71767,1,8,0:0:0:0:
256,192,71933,1,0,0:0:0:0:
256,192,72100,1,8,0:0:0:0:
256,192,72433,1,0,0:0:0:0:
256,192,72767,1,8,0:0:0:0:
256,192,72933,1,0,0:0:0:0:
256,192,73017,1,0,0:0:0:0:
256,192,73100,1,8,0:0:0:0:
256,192,73267,1,0,0:0:0:0:
256,192,73433,1,8,0:0:0:0:
256,192,73517,1,8,0:0:0:0:
256,192,73600,1,0,0:0:0:0:
256,192,73683,1,0,0:0:0:0:
256,192,73767,1,8,0:0:0:0:
256,192,73933,1,0,0:0:0:0:
256,192,74100,1,8,0:0:0:0:
256,192,74433,1,0,0:0:0:0:
256,192,74600,1,0,0:0:0:0:
256,192,74767,1,8,0:0:0:0:
256,192,74850,1,8,0:0:0:0:
256,192,74933,1,0,0:0:0:0:
352,96,75100,1,12,0:0:0:0:
256,192,75433,1,0,0:0:0:0:
256,192,75600,1,8,0:0:0:0:
256,192,75683,1,8,0:0:0:0:
256,192,75767,1,0,0:0:0:0:
256,192,75933,1,0,0:0:0:0:
256,192,76100,1,8,0:0:0:0:
256,192,76267,1,0,0:0:0:0:
256,192,76350,1,0,0:0:0:0:
256,192,76433,1,8,0:0:0:0:
256,192,76517,1,8,0:0:0:0:
256,192,76600,1,0,0:0:0:0:
256,192,76767,1,8,0:0:0:0:
256,192,76933,1,0,0:0:0:0:
256,192,77100,1,0,0:0:0:0:
256,192,77433,1,8,0:0:0:0:
256,192,77600,1,8,0:0:0:0:
352,96,77767,1,4,0:0:0:0:
256,192,78100,1,0,0:0:0:0:
352,96,78267,1,12,0:0:0:0:
256,192,78600,1,0,0:0:0:0:
352,96,78767,1,12,0:0:0:0:
256,192,79100,1,0,0:0:0:0:
256,192,79267,1,8,0:0:0:0:
256,192,79350,1,8,0:0:0:0:
256,192,79433,1,0,0:0:0:0:
256,192,79600,1,0,0:0:0:0:
256,192,79767,1,8,0:0:0:0:
256,192,79933,1,0,0:0:0:0:
256,192,80017,1,0,0:0:0:0:
256,192,80100,1,8,0:0:0:0:
256,192,80183,1,8,0:0:0:0:
256,192,80267,1,0,0:0:0:0:
352,96,80433,1,12,0:0:0:0:
256,192,80766,1,0,0:0:0:0:
256,192,81099,1,0,0:0:0:0:
256,192,81266,1,8,0:0:0:0:
256,192,81433,1,0,0:0:0:0:
256,192,81516,1,8,0:0:0:0:
256,192,81599,1,8,0:0:0:0:
256,192,81683,1,8,0:0:0:0:
256,192,81767,1,0,0:0:0:0:
256,192,81933,1,0,0:0:0:0:
256,192,82099,1,8,0:0:0:0:
256,192,82266,1,0,0:0:0:0:
256,192,82349,1,0,0:0:0:0:
256,192,82433,1,8,0:0:0:0:
256,192,82599,1,0,0:0:0:0:
256,192,82766,1,8,0:0:0:0:
256,192,83099,1,0,0:0:0:0:
256,192,83433,1,8,0:0:0:0:
256,192,83599,1,0,0:0:0:0:
256,192,83683,1,8,0:0:0:0:
256,192,83766,1,0,0:0:0:0:
256,192,83933,1,0,0:0:0:0:
256,192,84099,1,8,0:0:0:0:
256,192,84183,1,0,0:0:0:0:
256,192,84266,1,0,0:0:0:0:
256,192,84349,1,0,0:0:0:0:
256,192,84433,1,8,0:0:0:0:
256,192,84599,1,0,0:0:0:0:
256,192,84766,1,8,0:0:0:0:
256,192,85099,1,0,0:0:0:0:
256,192,85266,1,8,0:0:0:0:
256,192,85433,1,8,0:0:0:0:
256,192,85516,1,8,0:0:0:0:
256,192,85599,1,0,0:0:0:0:
352,96,85766,1,12,0:0:0:0:
256,192,86099,1,0,0:0:0:0:
256,192,86267,1,0,0:0:0:0:
256,192,86349,1,0,0:0:0:0:
256,192,86433,1,8,0:0:0:0:
256,192,86599,1,0,0:0:0:0:
256,192,86766,1,8,0:0:0:0:
256,192,86933,1,0,0:0:0:0:
256,192,87017,1,8,0:0:0:0:
256,192,87100,1,8,0:0:0:0:
256,192,87183,1,8,0:0:0:0:
256,192,87266,1,0,0:0:0:0:
256,192,87433,1,8,0:0:0:0:
256,192,87599,1,8,0:0:0:0:
256,192,87766,1,0,0:0:0:0:
256,192,88099,1,0,0:0:0:0:
256,192,88266,1,8,0:0:0:0:
352,96,88433,1,4,0:0:0:0:
256,192,88766,1,0,0:0:0:0:
256,192,88933,1,8,0:0:0:0:
256,192,89017,1,8,0:0:0:0:
256,192,89100,1,0,0:0:0:0:
256,192,89266,1,0,0:0:0:0:
256,192,89433,1,8,0:0:0:0:
384,96,89600,1,4,0:0:0:0:
256,192,89933,1,8,0:0:0:0:
256,192,90016,1,0,0:0:0:0:
256,192,90099,1,0,0:0:0:0:
256,192,90266,1,8,0:0:0:0:
256,192,90433,1,8,0:0:0:0:
256,192,90599,1,0,0:0:0:0:
256,192,90683,1,0,0:0:0:0:
256,192,90766,1,8,0:0:0:0:
256,192,90849,1,8,0:0:0:0:
256,192,90933,1,8,0:0:0:0:
352,96,91099,1,4,0:0:0:0:
256,192,91433,1,0,0:0:0:0:
256,192,91600,1,8,0:0:0:0:
256,192,91767,1,0,0:0:0:0:
256,192,91933,1,0,0:0:0:0:
256,192,92017,1,0,0:0:0:0:
256,192,92100,1,8,0:0:0:0:
256,192,92183,1,0,0:0:0:0:
256,192,92267,1,8,0:0:0:0:
256,192,93267,1,0,0:0:0:0:
256,192,93433,1,8,0:0:0:0:
256,192,93600,1,8,0:0:0:0:
352,96,93767,1,4,0:0:0:0:
256,192,94100,1,8,0:0:0:0:
256,192,94267,1,0,0:0:0:0:
256,192,94350,1,8,0:0:0:0:
256,192,94434,1,8,0:0:0:0:
256,192,94600,1,0,0:0:0:0:
256,192,94767,1,8,0:0:0:0:
256,192,94934,1,0,0:0:0:0:
256,192,95267,1,0,0:0:0:0:
256,192,95434,1,8,0:0:0:0:
256,192,95600,1,0,0:0:0:0:
256,192,95684,1,0,0:0:0:0:
256,192,95767,1,8,0:0:0:0:
256,192,95934,1,0,0:0:0:0:
256,192,96100,1,8,0:0:0:0:
256,192,96267,1,0,0:0:0:0:
256,192,96600,1,0,0:0:0:0:
256,192,96767,1,8,0:0:0:0:
256,192,96934,1,0,0:0:0:0:
256,192,97017,1,8,0:0:0:0:
256,192,97100,1,8,0:0:0:0:
256,192,97267,1,0,0:0:0:0:
256,192,97434,1,8,0:0:0:0:
256,192,97767,1,8,0:0:0:0:
256,192,97934,1,0,0:0:0:0:
256,192,98100,1,8,0:0:0:0:
256,192,98183,1,8,0:0:0:0:
256,192,98267,1,0,0:0:0:0:
256,192,98350,1,0,0:0:0:0:
256,192,98434,1,8,0:0:0:0:
256,192,98600,1,0,0:0:0:0:
256,192,98767,1,8,0:0:0:0:
352,96,99100,1,4,0:0:0:0:
256,192,99434,1,8,0:0:0:0:
256,192,99600,1,0,0:0:0:0:
256,192,99684,1,0,0:0:0:0:
256,192,99767,1,8,0:0:0:0:
256,192,99934,1,0,0:0:0:0:
256,192,100100,1,8,0:0:0:0:
256,192,100267,1,0,0:0:0:0:
256,192,100600,1,0,0:0:0:0:
256,192,100767,1,8,0:0:0:0:
256,192,100934,1,0,0:0:0:0:
256,192,101017,1,8,0:0:0:0:
256,192,101100,1,8,0:0:0:0:
256,192,101267,1,0,0:0:0:0:
256,192,101434,1,8,0:0:0:0:
256,192,101600,1,0,0:0:0:0:
256,192,101934,1,0,0:0:0:0:
256,192,102100,1,8,0:0:0:0:
256,192,102267,1,0,0:0:0:0:
256,192,102350,1,0,0:0:0:0:
256,192,102434,1,8,0:0:0:0:
256,192,102600,1,0,0:0:0:0:
256,192,102767,1,8,0:0:0:0:
256,192,102934,1,0,0:0:0:0:
256,192,103100,1,8,0:0:0:0:
256,192,103184,1,8,0:0:0:0:
256,192,103267,1,0,0:0:0:0:
256,192,103350,1,0,0:0:0:0:
256,192,103434,1,8,0:0:0:0:
256,192,103600,1,0,0:0:0:0:
256,192,103767,1,8,0:0:0:0:
256,192,103850,1,0,0:0:0:0:
256,192,103933,1,0,0:0:0:0:
256,192,104100,1,8,0:0:0:0:
256,192,104433,1,4,0:0:0:0:
352,96,104600,1,4,0:0:0:0:
256,192,105600,1,4,0:0:0:0:
256,192,105933,1,4,0:0:0:0:
256,192,106600,1,0,0:0:0:0:
256,192,106683,1,0,0:0:0:0:
256,192,106767,1,8,0:0:0:0:
352,96,106933,1,4,0:0:0:0:
256,192,107100,12,0,111433,0:0:0:0:
256,192,111600,5,0,0:0:0:0:
256,192,111683,1,0,0:0:0:0:
256,192,111767,5,8,0:0:0:0:
256,192,111933,1,0,0:0:0:0:
