osu file format v14

[General]
AudioFilename: audio.mp3
AudioLeadIn: 0
PreviewTime: 69017
Countdown: 0
SampleSet: Normal
StackLeniency: 0.7
Mode: 1
LetterboxInBreaks: 0
WidescreenStoryboard: 1

[Editor]
Bookmarks: 25767,36433
DistanceSpacing: 1
BeatDivisor: 4
GridSize: 32
TimelineZoom: 1.6

[Metadata]
Title:DIVE! (TV Size)
TitleUnicode:DIVE!(TV Size)
Artist:Yuki Setsuna (CV: Kusunoki Tomori)
ArtistUnicode:優木せつ菜 (CV: 楠木ともり)
Creator:K a y o k o
Version:GT'S KANTAN!
Source:ラブライブ!虹ヶ咲学園スクールアイドル同好会
Tags:love live! nijigasaki high school idol club gakuen doukoukai doukou kai nijigaku ニジガク nakagawa nana 中川菜々 llas sifas スクスタ festival all stars スクールアイドルフェスティバル perfect dream project pdp Ayaka Miyake MOMIKEN SPYAIR tasuku insert anime insert song video game japanese rock j-rock jrock pop j-pop jpop -maruko- _gt Sammu K_a_y_o_k_o Kayoko
BeatmapID:4441300
BeatmapSetID:2115009

[Difficulty]
HPDrainRate:8
CircleSize:2
OverallDifficulty:3
ApproachRate:10
SliderMultiplier:1.4
SliderTickRate:1

[Events]
//Background and Video events
0,0,"sechuuna.jpg",0,40
Video,800,"setsuta scarlet storm.mp4"
//Break Periods
//Storyboard Layer 0 (Background)
//Storyboard Layer 1 (Fail)
//Storyboard Layer 2 (Pass)
//Storyboard Layer 3 (Foreground)
//Storyboard Layer 4 (Overlay)
//Storyboard Sound Samples

[TimingPoints]
-3566,333.333333333333,4,1,0,50,1,0
1100,-100,4,1,0,60,0,0
15100,-100,4,1,0,80,0,0
25850,-100,4,1,0,70,0,0
52433,-100,4,1,0,80,0,1
57767,-100,4,1,0,80,0,0
57850,-100,4,1,0,70,0,0
69767,-100,4,1,0,90,0,1
93767,-100,4,1,0,90,0,0
93850,-100,4,1,0,80,0,0
107100,-100,4,1,0,70,0,0
108433,-100,4,1,0,60,0,0
109767,-100,4,1,0,50,0,0
111100,-100,4,1,0,40,0,0
111600,-100,4,1,0,70,0,0

[HitObjects]
273,153,1767,5,8,0:0:0:0:
271,151,2933,1,0,0:0:0:0:
271,151,4433,1,8,0:0:0:0:
273,152,5600,1,0,0:0:0:0:
278,148,7100,1,8,0:0:0:0:
271,145,8267,1,0,0:0:0:0:
271,145,9767,1,8,0:0:0:0:
271,145,10933,1,0,0:0:0:0:
324,125,12433,1,0,0:0:0:0:
331,126,13600,1,8,0:0:0:0:
216,173,14767,1,0,0:0:0:0:
216,173,15100,1,12,0:0:0:0:
223,254,15767,1,0,0:0:0:0:
216,246,16100,1,0,0:0:0:0:
289,225,16767,1,0,0:0:0:0:
216,246,17100,1,8,0:0:0:0:
216,246,17767,1,0,0:0:0:0:
216,246,18433,1,8,0:0:0:0:
267,214,18767,1,0,0:0:0:0:
267,214,19100,1,8,0:0:0:0:
267,214,19767,1,0,0:0:0:0:
267,214,20100,1,0,0:0:0:0:
263,207,20433,1,12,0:0:0:0:
248,206,21100,1,0,0:0:0:0:
248,206,21433,1,0,0:0:0:0:
227,202,22100,1,0,0:0:0:0:
230,203,22433,1,8,0:0:0:0:
230,145,23100,1,0,0:0:0:0:
230,145,23767,1,8,0:0:0:0:
230,145,24100,1,0,0:0:0:0:
230,145,24433,1,8,0:0:0:0:
265,150,25433,1,0,0:0:0:0:
147,186,25767,5,12,0:0:0:0:
280,212,26433,1,8,0:0:0:0:
280,212,26933,1,0,0:0:0:0:
280,212,27600,1,0,0:0:0:0:
280,212,28100,1,8,0:0:0:0:
272,208,29100,1,0,0:0:0:0:
272,208,29600,1,8,0:0:0:0:
272,208,30267,1,8,0:0:0:0:
272,208,30767,1,0,0:0:0:0:
242,193,31767,1,8,0:0:0:0:
242,193,32267,1,0,0:0:0:0:
242,193,32933,1,8,0:0:0:0:
218,192,33433,1,0,0:0:0:0:
218,192,33767,1,12,0:0:0:0:
218,192,34433,1,0,0:0:0:0:
209,192,34933,1,12,0:0:0:0:
233,138,35600,1,0,0:0:0:0:
227,163,36100,1,0,0:0:0:0:
200,148,36433,1,12,0:0:0:0:
257,266,37100,1,0,0:0:0:0:
257,266,37600,1,8,0:0:0:0:
257,266,37933,1,0,0:0:0:0:
251,270,38267,1,0,0:0:0:0:
251,271,38767,1,8,0:0:0:0:
240,276,39767,1,8,0:0:0:0:
241,275,40267,1,0,0:0:0:0:
240,276,40600,1,0,0:0:0:0:
241,275,40933,1,8,0:0:0:0:
240,276,41433,1,0,0:0:0:0:
249,167,41767,1,12,0:0:0:0:
236,139,42433,1,0,0:0:0:0:
236,139,42933,1,12,0:0:0:0:
236,139,43600,1,0,0:0:0:0:
236,139,44100,1,0,0:0:0:0:
236,128,44433,1,12,0:0:0:0:
238,130,45100,1,8,0:0:0:0:
233,128,45600,1,12,0:0:0:0:
215,199,46267,1,0,0:0:0:0:
233,128,46767,1,8,0:0:0:0:
238,130,47100,1,4,0:0:0:0:
104,192,47767,1,0,0:0:0:0:
274,154,48267,1,8,0:0:0:0:
274,154,48933,1,0,0:0:0:0:
274,154,49433,1,0,0:0:0:0:
254,122,49767,1,12,0:0:0:0:
227,122,50267,1,0,0:0:0:0:
227,122,51100,1,8,0:0:0:0:
227,122,52433,1,12,0:0:0:0:
208,158,53100,1,0,0:0:0:0:
212,151,53433,1,8,0:0:0:0:
221,203,54100,1,8,0:0:0:0:
221,203,54433,1,0,0:0:0:0:
221,203,54767,1,0,0:0:0:0:
221,203,55100,1,8,0:0:0:0:
221,203,55600,1,8,0:0:0:0:
233,220,56100,1,8,0:0:0:0:
233,219,56433,1,0,0:0:0:0:
247,153,57100,1,0,0:0:0:0:
247,153,57433,1,0,0:0:0:0:
247,153,57767,1,12,0:0:0:0:
298,136,58433,1,0,0:0:0:0:
298,136,58933,1,8,0:0:0:0:
298,136,59267,1,0,0:0:0:0:
298,136,59600,1,8,0:0:0:0:
286,130,60433,1,12,0:0:0:0:
286,131,60933,1,0,0:0:0:0:
286,130,61267,1,0,0:0:0:0:
286,131,61767,1,8,0:0:0:0:
340,198,63100,1,12,0:0:0:0:
218,159,63600,1,0,0:0:0:0:
218,159,64267,1,0,0:0:0:0:
207,159,64933,1,12,0:0:0:0:
204,134,65767,1,0,0:0:0:0:
198,179,66267,1,12,0:0:0:0:
201,123,66933,1,0,0:0:0:0:
142,222,67267,1,0,0:0:0:0:
195,128,67600,1,8,0:0:0:0:
176,123,68267,1,0,0:0:0:0:
175,130,68767,1,0,0:0:0:0:
192,198,69767,5,12,0:0:0:0:
248,136,70433,1,8,0:0:0:0:
247,154,70767,1,0,0:0:0:0:
299,140,71433,1,0,0:0:0:0:
299,140,71767,1,8,0:0:0:0:
243,154,72100,1,0,0:0:0:0:
243,154,72433,1,8,0:0:0:0:
247,134,73100,1,0,0:0:0:0:
247,134,73433,1,0,0:0:0:0:
247,134,74100,1,8,0:0:0:0:
132,170,74433,1,0,0:0:0:0:
247,134,74767,1,0,0:0:0:0:
247,134,75100,1,12,0:0:0:0:
142,172,75600,1,0,0:0:0:0:
197,166,76267,1,0,0:0:0:0:
192,156,76600,1,0,0:0:0:0:
197,166,76933,1,8,0:0:0:0:
153,143,77767,1,12,0:0:0:0:
153,143,78267,1,12,0:0:0:0:
153,143,78767,1,12,0:0:0:0:
242,137,79767,1,0,0:0:0:0:
242,137,80433,1,12,0:0:0:0:
242,137,81100,1,0,0:0:0:0:
242,137,81433,1,8,0:0:0:0:
242,137,82100,1,0,0:0:0:0:
242,137,82433,1,8,0:0:0:0:
242,137,82767,1,8,0:0:0:0:
242,137,83100,1,0,0:0:0:0:
242,137,83767,1,8,0:0:0:0:
242,137,84100,1,0,0:0:0:0:
242,137,84767,1,8,0:0:0:0:
242,137,85100,1,0,0:0:0:0:
242,137,85433,1,0,0:0:0:0:
242,137,85767,1,12,0:0:0:0:
280,155,86267,1,0,0:0:0:0:
280,155,86933,1,12,0:0:0:0:
273,148,87600,1,0,0:0:0:0:
244,136,88100,1,0,0:0:0:0:
249,134,88433,1,12,0:0:0:0:
256,132,88933,1,0,0:0:0:0:
280,150,89600,1,12,0:0:0:0:
280,150,90100,1,0,0:0:0:0:
311,94,90433,1,8,0:0:0:0:
290,113,90767,1,8,0:0:0:0:
290,113,91100,1,4,0:0:0:0:
315,140,91767,1,0,0:0:0:0:
315,140,92267,1,12,0:0:0:0:
168,296,93433,1,0,0:0:0:0:
216,173,93767,1,12,0:0:0:0:
223,254,94434,1,0,0:0:0:0:
216,246,94767,1,0,0:0:0:0:
289,225,95434,1,0,0:0:0:0:
216,246,95767,1,8,0:0:0:0:
216,246,96434,1,0,0:0:0:0:
216,246,97100,1,8,0:0:0:0:
267,214,97434,1,0,0:0:0:0:
267,214,97767,1,8,0:0:0:0:
267,214,98434,1,0,0:0:0:0:
267,214,98767,1,0,0:0:0:0:
263,207,99100,1,12,0:0:0:0:
248,206,99767,1,0,0:0:0:0:
248,206,100100,1,0,0:0:0:0:
227,202,100767,1,0,0:0:0:0:
230,203,101100,1,8,0:0:0:0:
230,145,101767,1,0,0:0:0:0:
230,145,102434,1,8,0:0:0:0:
230,145,102767,1,0,0:0:0:0:
230,145,103100,1,8,0:0:0:0:
133,193,103767,1,0,0:0:0:0:
265,150,104100,1,8,0:0:0:0:
147,186,104434,5,0,0:0:0:0:
282,214,105600,1,0,0:0:0:0:
282,214,105933,1,0,0:0:0:0:
269,202,106933,1,12,0:0:0:0:
256,192,107267,12,0,111433,0:0:0:0:
236,202,111767,5,8,0:0:0:0:
