osu file format v14

[General]
AudioFilename: audio.mp3
AudioLeadIn: 0
PreviewTime: 59869
Countdown: 0
SampleSet: Soft
StackLeniency: 0.7
Mode: 2
LetterboxInBreaks: 0
WidescreenStoryboard: 1

[Editor]
DistanceSpacing: 1.8
BeatDivisor: 4
GridSize: 16
TimelineZoom: 2

[Metadata]
Title:CHASE! (Short Ver.)
TitleUnicode:CHASE! (Short Ver.)
Artist:Yuki Setsuna (CV: Kusunoki Tomori)
ArtistUnicode:優木せつ菜 (CV: 楠木ともり)
Creator:Terton
Version:SALAD!
Source:ラブライブ!虹ヶ咲学園スクールアイドル同好会
Tags:-Joakh rock japanese love live! nijigasaki high school idol club gakuen doukoukai doukou kai nijigaku ニジガク nakagawa nana 中川菜々 llas sifas スクスタ festival all stars スクールアイドルフェスティバル perfect dream project pdp tokimeki runners anime video game
BeatmapID:2782068
BeatmapSetID:1324066

[Difficulty]
HPDrainRate:4
CircleSize:3
OverallDifficulty:7
ApproachRate:7
SliderMultiplier:1.1
SliderTickRate:1

[Events]
//Background and Video events
0,0,"setsuna.jpg",0,0
//Break Periods
//Storyboard Layer 0 (Background)
//Storyboard Layer 1 (Fail)
//Storyboard Layer 2 (Pass)
//Storyboard Layer 3 (Foreground)
//Storyboard Layer 4 (Overlay)
//Storyboard Sound Samples

[TimingPoints]
840,352.941176470588,4,2,1,60,1,0
14957,-100,4,2,1,70,0,0
37545,-100,4,2,1,75,0,0
48839,-100,4,2,1,60,0,0
54487,-100,4,2,1,70,0,0
60134,-100,4,2,1,80,0,1
79898,-100,4,2,1,80,0,0
82722,-100,4,2,1,80,0,1
102487,-100,4,2,1,60,0,1
105310,-100,4,2,1,60,0,0
120839,-100,4,2,1,5,0,0

[Colours]
Combo1 : 2,80,196
Combo2 : 219,120,21
Combo3 : 255,0,0
Combo4 : 158,38,168

[HitObjects]
387,252,840,5,6,0:1:0:0:
247,163,1192,1,2,0:0:0:0:
324,151,1369,2,0,L|454:153,2,110,2|2|2,0:0|0:0|0:0,0:0:0:0:
470,320,2781,6,0,L|472:252,1,55,2|2,0:0|0:0,0:0:0:0:
307,232,3310,1,2,0:0:0:0:
450,217,3663,6,0,P|462:164|431:110,1,110,2|2,0:0|0:0,0:0:0:0:
355,100,4192,1,0,0:0:0:0:
271,104,4369,1,2,0:0:0:0:
438,116,4722,6,0,L|455:-3,1,110,2|0,0:0|0:0,0:0:0:0:
287,285,5428,1,2,0:0:0:0:
126,270,5781,1,2,0:0:0:0:
287,285,6134,1,0,0:0:0:0:
45,230,6487,5,2,0:0:0:0:
209,163,6839,1,2,0:0:0:0:
264,164,7016,2,0,L|388:164,1,110,2|2,0:0|0:0,0:0:0:0:
208,345,7722,6,0,P|157:288|221:237,1,165,2|0,0:0|0:0,0:0:0:0:
352,235,8604,1,2,0:0:0:0:
495,233,8957,1,2,0:0:0:0:
253,152,9310,5,2,0:0:0:0:
419,63,9663,2,0,L|420:196,1,110,2|2,0:0|0:0,0:0:0:0:
255,310,10369,6,0,P|207:260|273:213,1,165,2|0,0:0|0:0,0:0:0:0:
348,313,11075,2,0,L|465:304,1,110,2|2,0:0|0:0,0:0:0:0:
256,192,11781,12,0,14251,0:0:0:0:
365,248,14957,6,0,P|388:185|354:145,1,110,6|8,1:0|0:0,0:0:0:0:
284,202,15487,1,0,1:0:0:0:
449,120,15839,1,0,1:0:0:0:
383,122,16016,1,8,0:0:0:0:
225,258,16369,6,0,P|202:195|236:155,1,110,0|8,0:0|0:0,0:0:0:0:
305,158,16898,2,0,L|428:155,1,110,0|0,1:0|1:0,0:0:0:0:
371,65,17428,1,8,0:0:0:0:
123,324,17781,6,0,P|100:261|134:221,1,110,4|8,1:2|0:0,0:0:0:0:
205,276,18311,1,0,1:0:0:0:
40,130,18663,1,0,1:0:0:0:
106,132,18840,1,8,0:0:0:0:
270,332,19193,6,0,P|293:269|259:229,1,110,0|8,0:0|0:0,0:0:0:0:
189,232,19722,2,0,L|66:229,1,110,0|0,1:0|1:0,0:0:0:0:
123,136,20252,1,8,0:0:0:0:
366,334,20604,6,0,P|389:271|355:231,1,110,4|8,1:2|0:0,0:0:0:0:
286,208,21134,1,0,1:0:0:0:
220,208,21310,1,0,1:0:0:0:
384,110,21663,6,0,L|493:109,1,110,4|0,1:2|0:0,0:0:0:0:
417,277,22192,2,0,L|419:353,1,55,0|8,1:0|0:0,0:0:0:0:
262,285,22722,2,0,L|396:274,1,110,0|8,1:0|0:0,0:0:0:0:
317,192,23251,1,0,0:0:0:0:
80,207,23604,5,4,1:2:0:0:
72,190,23781,1,0,1:0:0:0:
64,172,23957,1,0,1:0:0:0:
147,93,24134,1,4,1:2:0:0:
155,76,24311,1,0,1:0:0:0:
163,58,24487,1,0,1:0:0:0:
16,58,24663,5,4,1:2:0:0:
302,215,26251,6,0,L|431:212,2,110,6|0|0,1:2|0:0|0:0,0:0:0:0:
135,347,27310,2,0,L|120:279,1,55,2|2,0:0|0:0,0:0:0:0:
205,246,27663,6,0,P|245:208|201:108,1,165
51,68,28545,1,2,0:0:0:0:
119,55,28722,1,2,0:0:0:0:
185,42,28898,1,2,0:0:0:0:
348,154,29251,5,2,0:0:0:0:
414,136,29428,1,2,0:0:0:0:
348,154,29604,1,2,0:0:0:0:
183,337,29957,1,2,0:0:0:0:
349,326,30310,6,0,L|463:321,2,110,2|2|2,0:0|0:0|0:0,0:0:0:0:
184,252,31369,1,2,0:0:0:0:
107,200,31545,1,2,0:0:0:0:
35,258,31722,1,2,0:0:0:0:
184,250,31898,6,0,P|250:173|192:85,1,220,2|0,1:2|0:0,0:0:0:0:
34,129,32957,1,2,0:0:0:0:
34,129,33134,1,2,0:0:0:0:
119,127,33310,6,0,L|333:50,1,220
245,211,34192,2,0,L|168:211,2,55,2|2|2,0:0|0:0|0:0,0:0:0:0:
411,231,34898,5,2,0:0:0:0:
344,212,35075,1,2,0:0:0:0:
277,187,35251,1,2,0:0:0:0:
443,125,35604,1,0,0:0:0:0:
189,293,35957,6,0,P|126:228|209:148,1,220,2|0,1:2|3:0,0:0:0:0:
284,140,36839,2,0,L|283:68,1,55,8|4,1:3|1:3,0:0:0:0:
195,51,37192,1,0,3:0:0:0:
438,295,37545,6,0,L|439:219,1,55,6|2,1:2|0:2,0:0:0:0:
348,353,37898,2,0,L|349:277,1,55,10|2,0:2|0:2,0:0:0:0:
438,240,38251,2,0,L|309:237,1,110,2|8,1:2|0:0,0:0:0:0:
413,151,38781,6,0,P|439:102|411:60,1,110,2|2,0:2|0:2,0:0:0:0:
318,154,39310,1,10,0:2:0:0:
176,84,39663,2,0,L|240:81,1,55,2|2,1:2|1:2,0:0:0:0:
375,265,40192,6,0,L|263:267,1,110,2|2,0:2|0:2,0:0:0:0:
182,160,40722,2,0,L|182:83,1,55,10|2,0:2|1:2,0:0:0:0:
283,154,41075,2,0,L|283:77,1,55,2|2,1:2|1:2,0:0:0:0:
44,318,41604,6,0,P|28:266|64:201,1,110,2|2,0:2|0:2,0:0:0:0:
142,206,42134,1,8,0:0:0:0:
236,206,42310,2,0,P|252:154|216:89,1,110,2|2,1:2|1:2,0:0:0:0:
142,206,42839,1,10,0:2:0:0:
47,216,43016,1,2,1:2:0:0:
206,318,43192,6,0,P|284:252|198:178,1,220,2|0,1:2|1:0,0:0:0:0:
412,142,44251,1,10,0:2:0:0:
484,137,44428,6,0,L|475:260,1,110,2|0,0:0|3:0,0:0:0:0:
387,318,44957,2,0,L|260:316,1,110,8|0,0:0|1:0,0:0:0:0:
190,230,45487,1,2,1:2:0:0:
269,229,45663,1,10,0:2:0:0:
123,229,45839,6,0,P|107:177|143:112,1,110,2|2,0:2|0:2,0:0:0:0:
208,117,46369,1,10,0:2:0:0:
302,117,46545,2,0,P|318:65|282:0,1,110,2|2,1:2|1:2,0:0:0:0:
208,117,47075,1,8,0:0:0:0:
362,113,47251,6,0,P|390:166|363:202,1,110,6|2,1:2|1:2,0:0:0:0:
291,209,47781,2,0,L|291:277,1,55,10|0,0:2|1:0,0:0:0:0:
363,208,48134,1,8,0:0:0:0:
445,207,48310,1,8,1:3:0:0:
363,208,48487,1,4,1:3:0:0:
91,209,48839,6,0,P|64:167|100:115,1,110,4|0,1:2|0:0,0:0:0:0:
178,94,49369,1,0,1:0:0:0:
343,94,49722,1,0,0:0:0:0:
178,337,50075,6,0,L|65:337,1,110,8|0,1:3|1:0,0:0:0:0:
112,259,50604,1,0,1:0:0:0:
356,218,50957,2,0,L|355:106,1,110,10|0,0:0|0:0,0:0:0:0:
267,114,51487,1,0,3:0:0:0:
117,288,51663,6,0,P|93:244|124:186,1,110,4|0,1:2|0:0,0:0:0:0:
274,345,52369,1,8,0:0:0:0:
194,344,52546,1,8,0:0:0:0:
27,218,52898,6,0,L|136:216,1,110,4|8,1:2|0:0,0:0:0:0:
48,117,53428,1,0,1:0:0:0:
214,113,53781,1,10,0:0:0:0:
379,117,54134,1,0,3:0:0:0:
118,275,54487,6,0,P|92:220|131:176,1,110,6|10,1:2|0:0,0:0:0:0:
274,207,55192,2,0,L|402:203,1,110,2|10,1:2|0:2,0:0:0:0:
141,315,55898,6,0,L|269:311,1,110,6|8,1:2|0:0,0:0:0:0:
163,106,56428,1,0,1:0:0:0:
81,112,56604,2,0,L|97:220,1,110,2|10,1:2|0:2,0:0:0:0:
374,181,57310,6,0,L|507:177,1,110,6|10,1:2|0:2,0:0:0:0:
397,80,57839,2,0,L|264:84,1,110,6|2,1:2|1:2,0:0:0:0:
375,294,58369,1,8,0:0:0:0:
226,289,58545,1,10,1:2:0:0:
377,190,58898,5,10,1:2:0:0:
465,189,59075,1,10,1:2:0:0:
295,232,59957,1,0,0:0:0:0:
143,206,60134,6,0,L|33:206,1,110,6|10,1:0|0:2,0:0:0:0:
117,108,60663,1,2,1:0:0:0:
269,109,61016,1,2,1:2:0:0:
25,32,61369,6,0,L|149:33,1,110,2|0,1:2|1:0,0:0:0:0:
223,33,61898,1,8,0:0:0:0:
134,32,62075,1,2,1:2:0:0:
223,292,62251,2,0,L|223:174,1,110,2|10,1:2|0:2,0:0:0:0:
471,356,62957,6,0,L|471:229,1,110,2|10,1:2|0:2,0:0:0:0:
383,247,63487,1,0,1:0:0:0:
293,246,63663,1,2,1:2:0:0:
458,156,64016,6,0,L|459:46,1,110,10|0,0:2|0:0,0:0:0:0:
290,113,64722,1,10,0:2:0:0:
453,263,65075,2,0,L|451:186,1,55,2|0,1:2|0:0,0:0:0:0:
351,344,65428,2,0,L|349:267,1,55,8|0,0:0|0:0,0:0:0:0:
198,172,65781,6,0,L|69:170,1,110,6|10,1:2|0:2,0:0:0:0:
163,316,66310,2,0,L|292:314,1,110,2|2,1:2|1:2,0:0:0:0:
24,205,67016,6,0,L|26:93,1,110,2|0,1:2|0:0,0:0:0:0:
114,203,67545,1,8,0:0:0:0:
281,68,67898,1,2,1:2:0:0:
115,37,68251,1,10,0:2:0:0:
283,278,68604,6,0,P|310:232|269:178,1,110,6|10,1:2|0:2,0:0:0:0:
118,279,69310,1,2,1:2:0:0:
363,187,69663,6,0,L|231:186,1,110,10|0,0:2|0:0,0:0:0:0:
418,84,70369,1,10,0:2:0:0:
250,151,70722,2,0,L|188:151,1,55,10|8,1:2|1:2,0:0:0:0:
283,60,71075,2,0,L|352:60,1,55,0|0,3:0|3:0,0:0:0:0:
186,337,71428,6,0,L|186:227,1,110,6|10,1:2|0:2,0:0:0:0:
258,342,71957,1,2,1:2:0:0:
414,113,72310,1,2,1:2:0:0:
328,106,72487,1,8,0:0:0:0:
480,350,72663,6,0,L|480:233,1,110,6|0,1:2|1:0,0:0:0:0:
397,233,73192,2,0,L|267:231,2,110,10|2|8,0:2|1:2|0:0,0:0:0:0:
485,240,74075,1,2,0:2:0:0:
335,162,74251,6,0,L|319:32,1,110,6|10,1:2|0:2,0:0:0:0:
399,164,74781,1,2,1:2:0:0:
239,204,75134,1,2,1:2:0:0:
322,202,75310,1,8,0:0:0:0:
474,333,75487,6,0,L|345:332,1,110,6|0,1:2|1:0,0:0:0:0:
270,199,76016,2,0,L|270:84,1,110,10|2,0:2|1:2,0:0:0:0:
369,94,76722,1,8,0:0:0:0:
72,316,77075,6,0,P|51:266|83:213,1,110,6|10,1:2|0:2,0:0:0:0:
147,312,77604,1,2,1:2:0:0:
300,216,77957,1,2,1:2:0:0:
375,214,78134,1,8,0:0:0:0:
224,119,78310,6,0,L|101:119,1,110,6|0,1:2|1:0,0:0:0:0:
190,40,78839,1,8,0:0:0:0:
323,119,79192,2,0,L|455:119,1,110,2|10,1:2|0:2,0:0:0:0:
183,340,79898,5,6,1:2:0:0:
183,340,80075,1,2,1:2:0:0:
183,340,80251,1,2,1:2:0:0:
271,246,80428,2,0,L|141:245,1,110,6|2,1:2|1:2,0:0:0:0:
238,160,80957,1,8,1:2:0:0:
391,223,81134,6,0,P|434:148|371:90,1,165,6|10,1:2|0:2,0:0:0:0:
335,338,81839,2,0,L|214:336,1,110,0|0,3:0|3:0,0:0:0:0:
315,255,82369,2,0,L|317:188,1,55,0|0,3:0|3:0,0:0:0:0:
162,224,82722,6,0,P|136:178|168:136,1,110,6|10,1:0|0:2,0:0:0:0:
256,44,83251,2,0,L|128:45,2,110,2|2|2,1:2|1:2|1:2,0:0:0:0:
395,28,84310,6,0,L|469:28,1,55,0|8,1:0|0:0,0:0:0:0:
348,131,84663,1,2,1:2:0:0:
267,129,84839,1,2,1:2:0:0:
433,128,85192,1,14,0:2:0:0:
184,205,85545,6,0,L|52:209,1,110,6|10,1:2|0:2,0:0:0:0:
153,301,86075,1,0,1:0:0:0:
233,294,86251,1,2,1:2:0:0:
479,186,86604,6,0,L|360:184,1,110,10|0,0:2|0:0,0:0:0:0:
202,179,87310,1,10,0:2:0:0:
285,107,87487,2,0,L|284:26,1,55,0|2,1:0|1:2,0:0:0:0:
117,52,88016,1,8,0:0:0:0:
362,23,88369,6,0,P|392:59|364:118,1,110,6|10,1:2|0:2,0:0:0:0:
288,207,88898,2,0,L|420:207,1,110,2|2,1:2|1:2,0:0:0:0:
326,297,89428,1,8,0:0:0:0:
176,324,89604,6,0,L|171:197,1,110,6|0,1:2|1:0,0:0:0:0:
250,313,90134,1,8,0:0:0:0:
73,104,90487,1,2,1:2:0:0:
241,108,90839,1,10,0:2:0:0:
75,216,91192,6,0,L|196:213,2,110,6|10|2,1:2|0:2|1:2,0:0:0:0:
325,198,92251,2,0,L|453:198,1,110,6|0,1:2|0:0,0:0:0:0:
357,300,92781,5,0,1:0:0:0:
209,270,92957,2,0,L|83:274,1,110,10|10,1:2|1:2,0:0:0:0:
177,189,93487,2,0,L|173:120,1,55,0|0,3:0|3:0,0:0:0:0:
407,81,94016,6,0,P|431:135|398:188,1,110,6|10,1:2|0:2,0:0:0:0:
334,175,94545,1,2,1:2:0:0:
189,310,94898,1,2,1:2:0:0:
273,306,95075,1,8,0:0:0:0:
121,281,95251,6,0,P|96:227|135:183,1,110,6|0,1:2|1:0,0:0:0:0:
227,168,95781,2,0,L|226:39,1,110,10|2,0:2|1:2,0:0:0:0:
353,314,96487,1,8,0:0:0:0:
270,303,96663,1,2,0:2:0:0:
422,224,96839,6,0,L|423:102,1,110,6|10,1:2|0:2,0:0:0:0:
353,314,97369,2,0,P|328:260|367:216,1,110,2|2,1:2|1:2,0:0:0:0:
445,224,97898,1,8,0:0:0:0:
291,132,98075,6,0,L|162:141,1,110,6|0,1:2|1:2,0:0:0:0:
271,47,98604,2,0,L|400:38,1,110,10|2,0:2|1:2,0:0:0:0:
217,229,99310,1,8,3:0:0:0:
465,176,99663,6,0,L|346:179,1,110,4|2,1:2|0:3,0:0:0:0:
295,181,100192,1,0,1:0:0:0:
372,264,100369,1,8,0:0:0:0:
448,254,100545,1,0,1:0:0:0:
201,136,100898,6,0,L|70:145,1,110,4|8,1:2|0:0,0:0:0:0:
168,63,101428,1,2,0:3:0:0:
410,183,101781,2,0,L|408:102,1,55,8|0,0:0|3:0,0:0:0:0:
322,301,102134,2,0,L|248:304,1,55,0|0,3:0|0:0,0:0:0:0:
419,340,102487,6,0,L|419:274,1,55,10|10,1:2|1:2,0:0:0:0:
251,209,103016,2,0,L|251:133,1,55,10|8,1:2|1:2,0:0:0:0:
420,137,103545,2,0,L|420:61,1,55,8|10,1:2|1:2,0:0:0:0:
132,282,105310,6,0,P|109:219|143:179,1,110,6|8,1:0|0:0,0:0:0:0:
221,236,105840,1,0,1:0:0:0:
58,178,106192,1,0,1:0:0:0:
124,180,106369,1,8,0:0:0:0:
290,291,106722,6,0,P|313:228|279:188,1,110,0|8,0:0|0:0,0:0:0:0:
204,190,107251,2,0,L|81:187,1,110,0|0,1:0|1:0,0:0:0:0:
157,101,107781,1,8,0:0:0:0:
322,177,108134,6,0,L|433:176,1,110,4|8,1:2|0:0,0:0:0:0:
354,275,108664,1,0,1:0:0:0:
192,338,109016,1,0,1:0:0:0:
258,340,109193,1,8,0:0:0:0:
92,282,109546,6,0,L|64:155,1,110,0|8,0:0|0:0,0:0:0:0:
159,259,110075,2,0,L|282:256,1,110,0|0,1:0|1:0,0:0:0:0:
200,166,110605,1,8,0:0:0:0:
440,167,110957,6,0,L|503:164,2,55,4|0|8,1:2|0:0|0:0,0:0:0:0:
350,164,111487,2,0,L|341:41,1,110,0|0,1:0|1:0,0:0:0:0:
430,274,112016,6,0,L|297:272,1,110,4|0,1:2|0:0,0:0:0:0:
389,177,112545,1,0,1:0:0:0:
466,175,112722,1,8,0:0:0:0:
378,77,112898,2,0,L|375:10,1,55,0|0,1:0|1:0,0:0:0:0:
276,80,113251,2,0,L|273:13,1,55,0|8,1:0|0:0,0:0:0:0:
378,77,113604,1,0,0:0:0:0:
134,328,113957,5,4,1:2:0:0:
57,293,114134,1,0,1:0:0:0:
134,328,114310,1,0,1:0:0:0:
212,327,114487,1,4,1:2:0:0:
289,286,114663,1,0,1:0:0:0:
212,327,114839,1,0,1:0:0:0:
58,204,115016,5,4,2:1:0:0:
256,192,115369,12,0,120839,0:0:0:0:
