osu file format v14

[General]
AudioFilename: audio.mp3
AudioLeadIn: 0
PreviewTime: 59869
Countdown: 0
SampleSet: Soft
StackLeniency: 0.7
Mode: 2
LetterboxInBreaks: 0
WidescreenStoryboard: 1

[Editor]
DistanceSpacing: 1.8
BeatDivisor: 4
GridSize: 16
TimelineZoom: 2

[Metadata]
Title:CHASE! (Short Ver.)
TitleUnicode:CHASE! (Short Ver.)
Artist:Yuki Setsuna (CV: Kusunoki Tomori)
ArtistUnicode:優木せつ菜 (CV: 楠木ともり)
Creator:Terton
Version:RAIN!
Source:ラブライブ!虹ヶ咲学園スクールアイドル同好会
Tags:-Joakh rock japanese love live! nijigasaki high school idol club gakuen doukoukai doukou kai nijigaku ニジガク nakagawa nana 中川菜々 llas sifas スクスタ festival all stars スクールアイドルフェスティバル perfect dream project pdp tokimeki runners anime video game
BeatmapID:2743798
BeatmapSetID:1324066

[Difficulty]
HPDrainRate:6
CircleSize:4
OverallDifficulty:9
ApproachRate:9
SliderMultiplier:1.8
SliderTickRate:2

[Events]
//Background and Video events
0,0,"setsuna.jpg",0,0
//Break Periods
//Storyboard Layer 0 (Background)
//Storyboard Layer 1 (Fail)
//Storyboard Layer 2 (Pass)
//Storyboard Layer 3 (Foreground)
//Storyboard Layer 4 (Overlay)
//Storyboard Sound Samples

[TimingPoints]
840,352.941176470588,4,2,1,60,1,0
14957,-100,4,2,1,70,0,0
37545,-100,4,2,1,75,0,0
48839,-100,4,2,1,60,0,0
54487,-100,4,2,1,70,0,0
60134,-83.3333333333333,4,2,1,80,0,1
79898,-83.3333333333333,4,2,1,80,0,0
82722,-83.3333333333333,4,2,1,80,0,1
102487,-83.3333333333333,4,2,1,60,0,1
105310,-100,4,2,1,60,0,0
120839,-100,4,2,1,5,0,0

[Colours]
Combo1 : 2,80,196
Combo2 : 219,120,21
Combo3 : 255,0,0
Combo4 : 158,38,168

[HitObjects]
379,235,662,5,0,0:0:0:0:
141,233,840,2,0,P|90:159|163:122,1,180,6|2,0:1|0:0,0:0:0:0:
265,120,1369,1,2,0:0:0:0:
84,41,1722,1,2,0:0:0:0:
265,120,2075,1,2,0:0:0:0:
357,212,2781,5,2,0:0:0:0:
249,210,2957,2,0,L|39:212,1,180,2|2,0:0|0:0,0:0:0:0:
251,254,3663,5,2,0:0:0:0:
116,136,4016,2,0,L|305:133,1,180,2|2,0:0|0:0,0:0:0:0:
135,214,4722,6,0,P|46:160|147:81,1,270,2|0,0:0|0:0,0:0:0:0:
259,85,5428,1,2,0:0:0:0:
32,85,5781,1,2,0:0:0:0:
163,88,6487,6,0,P|112:162|185:199,1,180,2|2,0:0|0:0,0:0:0:0:
287,201,7016,1,2,0:0:0:0:
106,280,7369,1,2,0:0:0:0:
287,201,7722,1,2,0:0:0:0:
465,276,8604,5,2,0:0:0:0:
243,257,8957,1,2,0:0:0:0:
465,276,9310,2,0,L|258:274,2,180,2|2|2,0:0|0:0|0:0,0:0:0:0:
234,284,10369,6,0,P|153:227|261:161,1,270,2|0,0:0|0:0,0:0:0:0:
375,114,11075,1,2,0:0:0:0:
175,75,11428,1,2,0:0:0:0:
256,192,11604,12,0,14251,0:0:0:0:
370,251,14957,6,0,P|424:181|346:165,1,180,6|8,1:0|0:0,0:0:0:0:
198,325,15487,2,0,L|157:291,2,45,0|8|0,1:0|0:0|1:0,0:0:0:0:
306,327,15839,1,0,1:0:0:0:
143,253,16016,6,0,P|89:183|167:167,1,180,8|0,0:0|0:0,0:0:0:0:
257,148,16545,1,0,1:0:0:0:
95,319,16722,2,0,L|74:225,1,90,8|0,0:0|1:0,0:0:0:0:
130,325,16987,1,8,0:0:0:0:
278,328,17075,2,0,L|373:327,1,90,0|0,1:0|1:0,0:0:0:0:
203,229,17428,2,0,L|182:135,1,90,8|0,0:0|0:0,0:0:0:0:
420,45,17781,6,0,L|235:47,1,180,4|8,1:2|0:0,0:0:0:0:
108,83,18310,2,0,L|77:35,2,45,0|8|0,1:0|0:0|1:0,0:0:0:0:
207,134,18663,1,0,1:0:0:0:
37,245,18839,6,0,P|17:306|112:332,1,180,8|0,0:0|0:0,0:0:0:0:
207,336,19369,1,0,1:0:0:0:
43,231,19545,2,0,L|22:137,1,90,8|0,0:0|1:0,0:0:0:0:
78,237,19810,1,8,0:0:0:0:
226,240,19898,2,0,L|321:239,1,90,0|0,1:0|1:0,0:0:0:0:
150,130,20251,2,0,L|149:36,1,90,8|0,0:0|0:0,0:0:0:0:
406,162,20604,6,0,P|464:107|395:60,1,180,4|8,1:2|0:0,0:0:0:0:
269,136,21134,2,0,L|228:102,2,45,0|8|0,1:0|0:0|1:0,0:0:0:0:
403,206,21487,1,0,1:0:0:0:
168,354,21663,6,0,P|110:299|179:252,1,180,4|0,1:2|0:0,0:0:0:0:
335,350,22192,1,0,1:0:0:0:
191,349,22369,2,0,L|81:351,1,90,8|0,0:0|1:0,0:0:0:0:
153,283,22634,1,8,0:0:0:0:
305,247,22722,2,0,L|326:153,1,90,0|0,1:0|1:0,0:0:0:0:
159,144,23075,1,8,0:0:0:0:
75,146,23251,1,0,0:0:0:0:
381,275,23604,5,4,1:2:0:0:
229,277,23781,1,0,1:0:0:0:
377,266,23957,1,0,1:0:0:0:
133,193,24134,1,4,1:2:0:0:
284,197,24310,1,0,1:0:0:0:
137,184,24487,1,0,1:0:0:0:
372,192,24663,6,0,P|384:128|189:263,1,630,4|0,1:2|0:0,0:0:0:0:
337,254,26251,6,0,L|358:160,1,90,6|0,1:2|0:0,0:0:0:0:
191,131,26604,1,0,0:0:0:0:
96,98,26781,1,0,0:0:0:0:
96,98,26957,1,0,0:0:0:0:
191,131,27134,1,0,0:0:0:0:
356,262,27310,1,2,0:0:0:0:
191,362,27487,6,0,P|100:286|206:256,1,270,2|0,0:0|0:0,0:0:0:0:
320,240,28192,1,0,0:0:0:0:
415,207,28369,1,0,0:0:0:0:
249,153,28545,2,0,L|129:158,1,90,2|2,0:0|0:0,0:0:0:0:
324,80,28898,1,2,0:0:0:0:
416,80,29075,5,0,1:0:0:0:
252,296,29251,2,0,L|132:301,1,90,2|2,0:0|0:0,0:0:0:0:
327,223,29604,1,2,0:0:0:0:
429,221,29781,1,0,0:0:0:0:
196,180,29957,6,0,L|-5:181,2,180,2|2|2,0:0|0:0|0:0,0:0:0:0:
294,180,30839,1,0,0:0:0:0:
121,336,31016,2,0,P|71:279|143:209,1,180,2|2,0:0|0:0,0:0:0:0:
226,208,31545,1,2,0:0:0:0:
315,208,31722,1,2,0:0:0:0:
80,144,31898,6,0,P|30:87|102:17,1,180,2|0,1:2|0:0,0:0:0:0:
195,10,32428,1,0,0:0:0:0:
97,292,32604,2,0,L|17:250,1,90
97,292,32957,1,2,0:0:0:0:
343,361,33134,6,0,P|393:304|321:234,1,180,2|0,0:0|0:0,0:0:0:0:
164,230,33663,2,0,L|53:230,1,90
239,166,34016,2,0,L|260:72,1,90,0|2,0:0|0:0,0:0:0:0:
92,121,34369,1,2,0:0:0:0:
258,78,34545,6,0,L|442:77,1,180,2|2,0:0|0:0,0:0:0:0:
325,158,35075,1,2,0:0:0:0:
90,349,35251,2,0,P|40:292|112:222,1,180,2|0,0:0|0:0,0:0:0:0:
263,188,35781,1,0,0:0:0:0:
19,150,35957,1,2,1:2:0:0:
346,235,36663,5,0,3:0:0:0:
302,209,36751,1,0,3:0:0:0:
258,181,36839,1,8,1:3:0:0:
423,120,37016,1,4,1:3:0:0:
258,181,37192,2,0,L|190:177,1,45,0|0,3:0|3:0,0:0:0:0:
213,178,37369,2,0,L|258:181,1,45,0|0,3:0|3:0,0:0:0:0:
419,345,37545,6,0,L|440:251,1,90,6|2,1:2|0:2,0:0:0:0:
272,283,37898,2,0,L|162:283,1,90,10|2,0:2|0:2,0:0:0:0:
349,180,38251,2,0,L|239:180,1,90,2|2,1:2|1:2,0:0:0:0:
425,133,38604,1,8,0:0:0:0:
188,189,38781,6,0,P|138:132|210:62,1,180,2|2,0:2|0:2,0:0:0:0:
359,42,39310,1,10,0:2:0:0:
194,62,39487,2,0,L|153:28,2,45,2|8|2,1:2|0:0|1:2,0:0:0:0:
357,169,39839,2,0,L|414:68,1,90,2|8,1:2|0:0,0:0:0:0:
238,238,40192,6,0,L|41:239,1,180,2|2,0:2|0:2,0:0:0:0:
335,149,40722,2,0,L|356:55,1,90,10|2,0:2|1:2,0:0:0:0:
300,158,40987,1,0,0:0:0:0:
154,79,41075,2,0,L|42:80,2,90,2|2|8,1:2|1:2|0:0,0:0:0:0:
392,341,41604,6,0,L|391:158,1,180,2|2,0:2|0:2,0:0:0:0:
228,300,42134,1,8,0:0:0:0:
391,161,42310,2,0,L|432:127,2,45,2|8|0,1:2|0:0|1:0,0:0:0:0:
228,300,42663,1,2,1:2:0:0:
106,296,42839,2,0,L|-12:295,1,90,10|2,0:2|1:2,0:0:0:0:
68,231,43104,1,8,0:0:0:0:
253,222,43192,6,0,L|255:121,1,90,2|0,1:2|0:0,0:0:0:0:
17,108,43545,2,0,L|135:107,1,90,8|0,0:0|0:0,0:0:0:0:
270,105,43898,1,0,1:0:0:0:
348,105,44075,1,0,1:0:0:0:
185,198,44251,1,10,0:2:0:0:
423,354,44428,6,0,P|473:297|401:227,1,180,2|0,0:0|3:0,0:0:0:0:
248,306,44957,1,8,0:0:0:0:
413,218,45134,2,0,L|454:184,2,45,0|8|0,3:2|0:0|1:0,0:0:0:0:
248,306,45487,1,2,1:2:0:0:
170,306,45663,1,10,0:2:0:0:
405,163,45839,6,0,P|455:106|383:36,1,180,2|2,0:2|0:2,0:0:0:0:
233,59,46369,1,10,0:2:0:0:
396,321,46545,2,0,L|504:322,1,90,2|0,1:2|1:0,0:0:0:0:
249,304,46898,2,0,L|228:210,1,90,2|8,1:2|0:0,0:0:0:0:
494,228,47251,1,6,1:2:0:0:
206,226,47604,5,2,1:2:0:0:
111,193,47781,1,10,0:2:0:0:
111,193,47957,1,0,1:0:0:0:
275,221,48134,1,8,0:0:0:0:
179,150,48310,1,8,1:3:0:0:
82,279,48487,1,4,1:3:0:0:
179,150,48663,1,0,0:0:0:0:
432,326,48839,6,0,P|432:248|247:230,1,270,4|0,1:2|1:0,0:0:0:0:
151,226,49545,2,0,L|33:228,2,90,8|0|0,0:0|0:0|0:0,0:0:0:0:
260,227,50075,1,8,1:3:0:0:
151,226,50251,5,0,0:0:0:0:
61,172,50428,1,0,1:0:0:0:
151,226,50604,1,0,1:0:0:0:
430,257,50957,2,0,L|236:249,1,180,10|0,0:0|0:0,0:0:0:0:
351,181,51487,2,0,L|415:177,1,45,0|0,3:0|3:0,0:0:0:0:
247,319,51663,2,0,P|197:262|281:192,1,180,4|0,1:2|0:0,0:0:0:0:
107,171,52192,1,0,1:0:0:0:
272,122,52369,1,8,0:0:0:0:
107,171,52545,2,0,L|0:175,1,90,8|8,0:0|0:3,0:0:0:0:
255,351,52898,6,0,P|305:294|233:224,1,180,4|8,1:2|0:0,0:0:0:0:
92,171,53428,1,0,1:0:0:0:
187,137,53604,1,0,0:0:0:0:
187,137,53781,1,10,0:0:0:0:
92,171,53957,1,0,1:0:0:0:
244,214,54134,2,0,L|312:210,1,45,0|0,3:0|3:0,0:0:0:0:
289,211,54310,2,0,L|244:214,1,45,0|0,3:0|3:0,0:0:0:0:
94,328,54487,6,0,L|195:323,1,90,6|0,1:2|0:0,0:0:0:0:
346,106,54839,2,0,L|245:111,1,90,10|0,0:0|1:0,0:0:0:0:
20,204,55192,2,0,L|22:105,1,90,2|0,1:2|1:0,0:0:0:0:
266,336,55545,2,0,L|310:255,1,90,10|0,0:2|0:0,0:0:0:0:
74,355,55898,6,0,P|24:298|96:228,1,180,6|8,1:2|0:0,0:0:0:0:
244,212,56428,2,0,L|285:178,2,45,0|8|2,1:0|0:0|1:2,0:0:0:0:
89,133,56781,1,0,0:0:0:0:
17,79,56957,1,10,0:2:0:0:
89,133,57134,1,0,1:0:0:0:
322,367,57310,6,0,P|372:310|300:240,1,180,6|10,1:2|0:2,0:0:0:0:
69,286,57839,2,0,L|269:290,1,180,6|2,1:2|1:2,0:0:0:0:
81,173,58369,1,8,0:0:0:0:
316,137,58545,1,10,1:2:0:0:
316,137,58898,5,10,1:2:0:0:
81,173,59075,1,10,1:2:0:0:
155,170,59957,1,0,0:0:0:0:
438,248,60134,6,0,L|197:246,1,215.999993408203,6|10,1:0|0:2,0:0:0:0:
389,164,60663,2,0,L|415:45,1,107.999996704102,2|0,1:0|0:0,0:0:0:0:
245,142,61016,2,0,L|127:140,1,107.999996704102,2|8,1:2|0:0,0:0:0:0:
411,356,61369,6,0,P|471:271|396:194,1,215.999993408203,2|0,1:2|1:0,0:0:0:0:
241,264,61898,1,8,0:0:0:0:
409,196,62075,2,0,L|455:157,2,53.9999983520508,2|8|2,1:2|0:0|1:2,0:0:0:0:
290,168,62428,1,0,1:0:0:0:
456,119,62604,2,0,L|482:0,1,107.999996704102,10|0,0:2|0:0,0:0:0:0:
224,289,62957,6,0,L|337:290,1,107.999996704102,2|0,1:2|0:0,0:0:0:0:
163,207,63310,2,0,L|50:208,1,107.999996704102,10|0,0:2|1:0,0:0:0:0:
112,140,63575,1,8,0:0:0:0:
283,291,63663,2,0,L|309:172,1,107.999996704102,2|0,1:2|1:0,0:0:0:0:
138,343,64016,6,0,P|73:246|165:71,1,323.999990112305,10|0,0:2|1:0,0:0:0:0:
296,64,64722,1,10,0:2:0:0:
129,227,64898,2,0,L|83:188,2,53.9999983520508,0|8|2,1:0|0:0|1:2,0:0:0:0:
236,226,65251,1,0,0:0:0:0:
68,316,65428,1,8,0:0:0:0:
142,317,65604,1,0,0:0:0:0:
389,251,65781,6,0,P|449:166|374:89,1,215.999993408203,6|10,1:2|0:2,0:0:0:0:
219,81,66310,2,0,L|173:42,2,53.9999983520508,2|8|0,1:2|0:0|1:0,0:0:0:0:
386,274,66663,2,0,L|494:277,1,107.999996704102,2|8,1:2|0:0,0:0:0:0:
191,195,67016,6,0,L|420:199,1,215.999993408203,2|0,1:2|0:0,0:0:0:0:
239,359,67545,2,0,L|213:240,1,107.999996704102,8|0,0:0|1:0,0:0:0:0:
271,360,67810,1,8,0:0:0:0:
433,196,67898,2,0,L|490:104,1,107.999996704102,2|0,1:2|1:0,0:0:0:0:
324,107,68251,2,0,L|216:109,1,107.999996704102,10|0,0:2|0:0,0:0:0:0:
479,277,68604,6,0,L|366:273,1,107.999996704102,6|0,1:2|0:0,0:0:0:0:
105,353,68957,2,0,L|105:228,1,107.999996704102,10|0,0:2|1:0,0:0:0:0:
387,315,69310,2,0,L|268:312,1,107.999996704102,2|0,1:2|1:0,0:0:0:0:
17,193,69663,6,0,P|177:156|215:11,1,323.999990112305,10|0,0:2|1:0,0:0:0:0:
44,280,70369,2,0,L|18:161,1,107.999996704102,10|0,0:2|0:0,0:0:0:0:
185,287,70722,1,10,1:2:0:0:
18,283,70898,1,8,1:2:0:0:
292,262,71075,2,0,L|373:256,1,53.9999983520508,0|0,3:0|3:0,0:0:0:0:
345,258,71251,2,0,L|292:262,1,53.9999983520508,0|0,3:0|3:0,0:0:0:0:
89,205,71428,6,0,P|29:120|104:43,1,215.999993408203,6|10,1:2|0:2,0:0:0:0:
261,102,71957,2,0,L|307:63,2,53.9999983520508,2|0|0,1:2|0:0|1:0,0:0:0:0:
120,244,72310,2,0,L|11:195,1,107.999996704102,2|8,1:2|0:0,0:0:0:0:
297,342,72663,6,0,P|357:257|282:180,1,215.999993408203,6|0,1:2|1:0,0:0:0:0:
125,243,73192,2,0,L|1:245,1,107.999996704102,10|0,0:2|1:0,0:0:0:0:
71,176,73457,1,8,0:0:0:0:
292,181,73545,2,0,L|318:62,1,107.999996704102,2|0,1:2|1:0,0:0:0:0:
144,341,73898,2,0,L|118:222,1,107.999996704102,8|2,0:0|0:2,0:0:0:0:
380,320,74251,6,0,P|440:235|365:158,1,215.999993408203,6|10,1:2|0:2,0:0:0:0:
210,175,74781,2,0,L|86:177,1,107.999996704102,2|0,1:2|1:0,0:0:0:0:
270,83,75134,2,0,L|146:85,1,107.999996704102,2|8,1:2|0:0,0:0:0:0:
439,305,75487,6,0,L|209:303,1,215.999993408203,6|0,1:2|1:0,0:0:0:0:
387,243,76016,2,0,L|413:124,1,107.999996704102,10|0,0:2|1:0,0:0:0:0:
355,246,76281,1,8,0:0:0:0:
205,159,76369,2,0,L|81:160,1,107.999996704102,2|0,1:2|1:0,0:0:0:0:
151,88,76634,1,0,1:0:0:0:
406,243,76722,2,0,L|432:124,1,107.999996704102,8|0,0:0|1:0,0:0:0:0:
374,246,76987,1,0,1:0:0:0:
159,383,77075,6,0,P|99:298|174:221,1,215.999993408203,6|10,1:2|0:2,0:0:0:0:
329,327,77604,2,0,L|451:328,1,107.999996704102,2|0,1:2|1:0,0:0:0:0:
269,219,77957,2,0,L|243:100,1,107.999996704102,2|8,1:2|0:0,0:0:0:0:
495,23,78310,6,0,L|261:22,1,215.999993408203,6|0,1:2|1:0,0:0:0:0:
445,95,78839,1,8,0:0:0:0:
279,189,79016,2,0,L|233:150,2,53.9999983520508,0|8|2,1:0|0:0|1:2,0:0:0:0:
380,191,79369,1,0,1:0:0:0:
478,188,79545,2,0,L|478:79,1,107.999996704102,10|0,0:2|0:0,0:0:0:0:
137,217,79898,6,0,L|23:218,2,107.999996704102,6|2|2,1:2|1:2|1:2,0:0:0:0:
388,324,80428,2,0,L|496:325,2,107.999996704102,6|0|2,1:2|1:0|1:2,0:0:0:0:
219,337,80957,1,8,1:2:0:0:
487,209,81134,6,0,P|490:123|377:101,1,215.999993408203,6|0,1:2|1:0,0:0:0:0:
214,109,81663,2,0,L|75:107,1,107.999996704102,10|0,0:2|3:0,0:0:0:0:
374,190,82016,1,10,3:2:0:0:
225,272,82192,2,0,L|182:241,1,53.9999983520508,0|0,3:0|3:0,0:0:0:0:
375,269,82369,2,0,L|456:263,1,53.9999983520508,0|0,3:0|0:0,0:0:0:0:
428,265,82545,2,0,L|375:269,1,53.9999983520508,0|0,3:0|3:0,0:0:0:0:
115,199,82722,6,0,P|55:114|130:37,1,215.999993408203,6|10,1:0|0:2,0:0:0:0:
286,162,83251,2,0,L|412:161,1,107.999996704102,2|0,1:2|0:0,0:0:0:0:
227,285,83604,2,0,L|353:284,1,107.999996704102,2|8,1:2|0:0,0:0:0:0:
65,346,83957,6,0,P|5:261|80:184,1,215.999993408203,2|0,1:2|1:0,0:0:0:0:
236,164,84487,2,0,L|259:58,1,107.999996704102,8|2,0:0|1:2,0:0:0:0:
205,172,84751,1,8,0:0:0:0:
25,62,84839,2,0,L|145:60,1,107.999996704102,2|0,1:2|1:0,0:0:0:0:
309,312,85192,2,0,L|189:314,1,107.999996704102,14|0,0:2|0:0,0:0:0:0:
489,209,85545,6,0,L|369:211,1,107.999996704102,6|0,1:2|0:0,0:0:0:0:
215,213,85898,1,10,0:2:0:0:
381,143,86075,2,0,L|427:104,2,53.9999983520508,0|8|2,1:0|0:0|1:2,0:0:0:0:
215,213,86428,1,0,1:0:0:0:
464,350,86604,6,0,P|477:210|319:176,1,323.999990112305,10|0,0:2|1:0,0:0:0:0:
176,132,87310,2,0,L|67:133,1,107.999996704102,10|0,0:2|1:0,0:0:0:0:
123,64,87575,1,8,0:0:0:0:
317,355,87663,2,0,L|340:249,1,107.999996704102,2|0,1:2|0:0,0:0:0:0:
172,251,88016,2,0,L|149:145,1,107.999996704102,8|0,0:0|0:0,0:0:0:0:
402,224,88369,6,0,P|462:139|387:62,1,215.999993408203,6|10,1:2|0:2,0:0:0:0:
235,73,88898,2,0,L|189:34,2,53.9999983520508,2|0|0,1:2|0:0|0:0,0:0:0:0:
387,223,89251,2,0,L|494:221,1,107.999996704102,2|8,1:2|0:0,0:0:0:0:
216,342,89604,6,0,P|156:257|231:180,1,215.999993408203,6|0,1:2|1:0,0:0:0:0:
387,223,90134,2,0,L|500:221,1,107.999996704102,8|0,0:0|1:0,0:0:0:0:
441,157,90398,1,8,0:0:0:0:
215,182,90487,2,0,L|192:76,1,107.999996704102,2|0,1:2|1:0,0:0:0:0:
360,301,90839,2,0,L|473:299,1,107.999996704102,10|0,0:2|0:0,0:0:0:0:
140,316,91192,6,0,L|253:314,1,107.999996704102,6|0,1:2|0:0,0:0:0:0:
193,243,91457,2,0,L|120:243,1,53.9999983520508,0|10,0:0|0:2,0:0:0:0:
275,242,91722,1,0,1:0:0:0:
439,202,91898,2,0,L|462:96,1,107.999996704102,2|0,1:2|0:0,0:0:0:0:
191,261,92251,6,0,P|156:116|302:79,1,323.999990112305,6|0,1:2|1:0,0:0:0:0:
437,72,92957,2,0,L|312:73,1,107.999996704102,10|0,1:2|1:0,0:0:0:0:
91,191,93310,1,10,1:2:0:0:
233,225,93487,2,0,L|286:185,1,53.9999983520508,0|0,3:0|3:0,0:0:0:0:
70,277,93663,2,0,L|13:261,1,53.9999983520508,0|0,3:0|3:0,0:0:0:0:
18,262,93839,2,0,L|70:277,1,53.9999983520508,0|0,3:0|3:0,0:0:0:0:
256,348,94016,6,0,P|317:261|249:194,1,215.999993408203,6|10,1:2|0:2,0:0:0:0:
88,210,94545,2,0,L|42:171,2,53.9999983520508,2|8|0,1:2|0:0|1:0,0:0:0:0:
252,194,94898,1,2,1:2:0:0:
337,194,95075,1,8,0:0:0:0:
67,220,95251,6,0,P|17:131|94:66,1,215.999993408203,6|0,1:2|1:0,0:0:0:0:
257,173,95781,2,0,L|280:67,1,107.999996704102,10|0,0:2|1:0,0:0:0:0:
226,172,96045,1,8,0:0:0:0:
56,349,96134,2,0,L|33:243,1,107.999996704102,2|0,1:2|1:0,0:0:0:0:
201,265,96487,2,0,L|326:265,1,107.999996704102,8|2,0:0|0:2,0:0:0:0:
41,59,96839,6,0,L|265:58,1,215.999993408203,6|10,1:2|0:2,0:0:0:0:
427,95,97369,2,0,L|473:56,2,53.9999983520508,2|8|0,1:2|0:0|1:0,0:0:0:0:
261,188,97722,1,2,1:2:0:0:
177,191,97898,1,8,0:0:0:0:
474,297,98075,6,0,L|250:296,1,215.999993408203,6|0,1:2|1:2,0:0:0:0:
386,200,98604,2,0,L|496:198,1,107.999996704102,10|0,0:2|1:0,0:0:0:0:
439,128,98869,1,8,0:0:0:0:
263,117,98957,2,0,L|240:11,1,107.999996704102,2|0,1:2|1:0,0:0:0:0:
407,320,99310,2,0,L|488:314,1,53.9999983520508,8|8,3:0|3:0,0:0:0:0:
460,316,99487,2,0,L|407:320,1,53.9999983520508,8|0,3:0|0:0,0:0:0:0:
212,346,99663,6,0,P|151:259|219:192,1,215.999993408203,4|2,1:2|0:3,0:0:0:0:
314,196,100192,1,0,1:0:0:0:
402,194,100369,1,8,0:0:0:0:
469,112,100545,1,0,1:0:0:0:
393,41,100722,1,2,0:3:0:0:
113,204,100898,6,0,P|52:117|120:50,1,215.999993408203,4|8,1:2|0:0,0:0:0:0:
221,54,101428,1,2,0:3:0:0:
315,32,101604,1,0,1:0:0:0:
148,217,101781,1,8,0:0:0:0:
279,222,101957,2,0,L|358:220,1,53.9999983520508,0|0,3:0|3:0,0:0:0:0:
167,338,102134,2,0,L|114:298,2,53.9999983520508,0|0|0,3:0|0:0|0:0,0:0:0:0:
437,91,102487,5,10,1:2:0:0:
135,97,102663,1,10,1:2:0:0:
135,97,103016,1,10,1:2:0:0:
437,91,103192,1,8,1:2:0:0:
437,91,103545,1,8,1:2:0:0:
135,97,103722,1,10,1:2:0:0:
142,251,105310,6,0,P|88:181|166:165,1,180,6|8,1:0|0:0,0:0:0:0:
314,325,105839,2,0,L|355:291,2,45,0|8|0,1:0|0:0|1:0,0:0:0:0:
151,328,106192,1,0,1:0:0:0:
279,214,106369,6,0,L|468:212,1,180,8|0,0:0|0:0,0:0:0:0:
295,123,106898,1,0,1:0:0:0:
459,317,107075,2,0,L|480:223,1,90,8|0,0:0|1:0,0:0:0:0:
424,323,107339,1,8,0:0:0:0:
276,326,107428,2,0,L|181:325,1,90,0|0,1:0|1:0,0:0:0:0:
351,227,107781,2,0,L|372:133,1,90,8|0,0:0|0:0,0:0:0:0:
134,157,108134,5,4,1:2:0:0:
55,158,108310,1,0,0:0:0:0:
134,157,108487,1,8,0:0:0:0:
298,83,108663,1,0,1:0:0:0:
256,81,108751,1,8,0:0:0:0:
219,84,108839,1,0,1:0:0:0:
382,159,109016,1,0,1:0:0:0:
142,320,109192,6,0,P|84:265|153:218,1,180,8|0,0:0|0:0,0:0:0:0:
310,193,109722,1,0,1:0:0:0:
146,213,109898,1,8,0:0:0:0:
308,129,110075,2,0,L|349:95,2,45,0|8|0,1:0|0:0|1:0,0:0:0:0:
143,111,110428,1,0,1:0:0:0:
68,111,110604,1,8,0:0:0:0:
143,111,110781,1,0,0:0:0:0:
378,285,110957,6,0,L|196:284,1,180,4|8,1:2|0:0,0:0:0:0:
363,86,111487,2,0,L|404:52,2,45,0|8|0,1:0|0:0|1:0,0:0:0:0:
214,90,111839,1,0,1:0:0:0:
449,188,112016,6,0,L|260:186,1,180,4|0,1:2|0:0,0:0:0:0:
433,226,112545,1,0,1:0:0:0:
271,210,112722,2,0,L|250:116,1,90,8|0,0:0|1:0,0:0:0:0:
306,216,112987,1,8,0:0:0:0:
475,338,113075,2,0,L|496:244,1,90,0|0,1:0|1:0,0:0:0:0:
342,319,113428,2,0,L|241:317,1,90,8|0,0:0|0:0,0:0:0:0:
30,191,113957,5,4,1:2:0:0:
174,193,114134,1,0,1:0:0:0:
34,182,114310,1,0,1:0:0:0:
278,109,114487,1,4,1:2:0:0:
134,110,114663,1,0,1:0:0:0:
274,100,114839,1,0,1:0:0:0:
19,75,115016,5,4,2:1:0:0:
256,192,115192,12,0,120839,0:0:0:0:
