osu file format v14

[General]
AudioFilename: audio.mp3
AudioLeadIn: 0
PreviewTime: 188348
Countdown: 0
SampleSet: Soft
StackLeniency: 0.5
Mode: 0
LetterboxInBreaks: 0
WidescreenStoryboard: 1

[Editor]
Bookmarks: 26260,48848,82731,105319,127907,156142,161789,164260,164613,188613,211201,233789,243495,250731
DistanceSpacing: 1
BeatDivisor: 4
GridSize: 32
TimelineZoom: 3.5

[Metadata]
Title:CHASE!
TitleUnicode:CHASE!
Artist:Yuki Setsuna (CV: Kusunoki Tomori)
ArtistUnicode:優木せつ菜 (CV: 楠木ともり)
Creator:Liyuu
Version:SCARLET!
Source:ラブライブ!虹ヶ咲学園スクールアイドル同好会
Tags:-rielle- aquivery pile asagi ayamemymommy big sis shiwakaze kyairie red crewmate vaporfly newton- ifinixe wen wendle anime video game japanese rock love live! nijigasaki high school idol club gakuen doukoukai doukou kai nijigaku ニジガク 鈴木エレカ・JOE pop jpop jrock
BeatmapID:3740271
BeatmapSetID:1822739

[Difficulty]
HPDrainRate:6
CircleSize:4
OverallDifficulty:8.7
ApproachRate:9.3
SliderMultiplier:1.8
SliderTickRate:1

[Events]
//Background and Video events
0,0,"bgg.jpg",0,0
//Break Periods
//Storyboard Layer 0 (Background)
//Storyboard Layer 1 (Fail)
//Storyboard Layer 2 (Pass)
//Storyboard Layer 3 (Foreground)
//Storyboard Layer 4 (Overlay)
//Storyboard Sound Samples

[TimingPoints]
-599,352.941176470588,4,2,0,100,1,0
105,-100,4,2,0,100,0,0
634,-100,4,2,1,50,0,0
810,-142.857142857143,4,2,2,50,0,0
1163,-142.857142857143,4,2,3,50,0,0
1340,-142.857142857143,4,2,4,50,0,0
1693,-142.857142857143,4,2,5,50,0,0
2046,-142.857142857143,4,2,6,50,0,0
2575,-142.857142857143,4,2,7,50,0,0
2751,-142.857142857143,4,2,1,50,0,0
2928,-142.857142857143,4,2,5,50,0,0
3281,-142.857142857143,4,2,8,50,0,0
3634,-142.857142857143,4,2,9,50,0,0
3987,-142.857142857143,4,2,8,50,0,0
4163,-142.857142857143,4,2,7,50,0,0
4340,-142.857142857143,4,2,1,50,0,0
4516,-142.857142857143,4,2,10,50,0,0
4693,-142.857142857143,4,2,1,50,0,0
4869,-142.857142857143,4,2,11,50,0,0
5398,-142.857142857143,4,2,12,50,0,0
5751,-142.857142857143,4,2,4,50,0,0
6104,-142.857142857143,4,2,7,50,0,0
6457,-142.857142857143,4,2,13,50,0,0
6810,-142.857142857143,4,2,3,50,0,0
6987,-142.857142857143,4,2,4,50,0,0
7340,-142.857142857143,4,2,5,50,0,0
7693,-142.857142857143,4,2,14,50,0,0
8222,-142.857142857143,4,2,7,50,0,0
8575,-142.857142857143,4,2,5,50,0,0
8928,-142.857142857143,4,2,8,50,0,0
9281,-142.857142857143,4,2,15,50,0,0
9634,-142.857142857143,4,2,1,50,0,0
10340,-250.000000000001,4,2,16,50,0,0
11046,-250.000000000001,4,2,1,50,0,0
14928,-100,4,2,1,65,0,0
15104,-100,4,2,17,65,0,0
15281,-100,4,2,18,65,0,0
15457,-100,4,2,2,65,0,0
15634,-100,4,2,3,65,0,0
15810,-100,4,2,2,65,0,0
15987,-100,4,2,19,65,0,0
16163,-100,4,2,4,65,0,0
16340,-100,4,2,2,65,0,0
16428,-100,4,2,2,65,0,0
16516,-100,4,2,5,65,0,0
16693,-100,4,2,20,65,0,0
16869,-100,4,2,5,65,0,0
16957,-100,4,2,1,65,0,0
17046,-100,4,2,6,65,0,0
17222,-100,4,2,5,65,0,0
17398,-100,4,2,20,65,0,0
17575,-100,4,2,5,65,0,0
17751,-100,4,2,7,65,0,0
17928,-100,4,2,17,65,0,0
18016,-100,4,2,17,65,0,0
18104,-100,4,2,18,65,0,0
18281,-100,4,2,2,65,0,0
18369,-100,4,2,1,65,0,0
18457,-100,4,2,3,65,0,0
18634,-100,4,2,2,65,0,0
18810,-100,4,2,19,65,0,0
18987,-100,4,2,4,65,0,0
19163,-100,4,2,2,65,0,0
19251,-100,4,2,2,65,0,0
19340,-100,4,2,8,65,0,0
19516,-100,4,2,21,65,0,0
19693,-100,4,2,8,65,0,0
19781,-100,4,2,1,65,0,0
19869,-100,4,2,9,65,0,0
20046,-100,4,2,8,65,0,0
20222,-100,4,2,21,65,0,0
20398,-100,4,2,8,65,0,0
20575,-100,4,2,7,65,0,0
20751,-100,4,2,17,65,0,0
20928,-100,4,2,18,65,0,0
21104,-100,4,2,2,65,0,0
21281,-100,4,2,3,65,0,0
21457,-100,4,2,2,65,0,0
21634,-100,4,2,19,65,0,0
21810,-100,4,2,4,65,0,0
21987,-100,4,2,2,65,0,0
22075,-100,4,2,2,65,0,0
22163,-100,4,2,5,65,0,0
22340,-100,4,2,20,65,0,0
22516,-100,4,2,5,65,0,0
22604,-100,4,2,1,65,0,0
22693,-100,4,2,6,65,0,0
22869,-100,4,2,5,65,0,0
23046,-100,4,2,20,65,0,0
23222,-100,4,2,5,65,0,0
23575,-100,4,2,22,65,0,0
23928,-100,4,2,5,65,0,0
24104,-100,4,2,22,65,0,0
24457,-100,4,2,10,65,0,0
24634,-125,4,2,11,65,0,0
24986,-125,4,2,23,65,0,0
26222,-200,4,2,12,50,0,0
26575,-200,4,2,3,50,0,0
27281,-200,4,2,24,50,0,0
27457,-200,4,2,1,50,0,0
27634,-200,4,2,13,50,0,0
27987,-200,4,2,3,50,0,0
28516,-200,4,2,1,50,0,0
28693,-200,4,2,24,50,0,0
28869,-200,4,2,1,50,0,0
29046,-200,4,2,13,50,0,0
29222,-200,4,2,1,50,0,0
29398,-200,4,2,24,50,0,0
29575,-200,4,2,1,50,0,0
29751,-200,4,2,3,50,0,0
29928,-200,4,2,1,50,0,0
30104,-200,4,2,3,50,0,0
30281,-200,4,2,1,50,0,0
30457,-200,4,2,13,50,0,0
30634,-200,4,2,1,50,0,0
30810,-200,4,2,3,50,0,0
30987,-200,4,2,1,50,0,0
31163,-200,4,2,3,50,0,0
31340,-200,4,2,1,50,0,0
31516,-200,4,2,24,50,0,0
31693,-200,4,2,1,50,0,0
31869,-200,4,2,14,50,0,0
32222,-200,4,2,3,50,0,0
32928,-200,4,2,24,50,0,0
33104,-200,4,2,1,50,0,0
33281,-200,4,2,13,50,0,0
33634,-200,4,2,3,50,0,0
34163,-200,4,2,1,50,0,0
34340,-200,4,2,24,50,0,0
34516,-200,4,2,1,50,0,0
34693,-200,4,2,13,50,0,0
34869,-200,4,2,1,50,0,0
35046,-200,4,2,24,50,0,0
35222,-200,4,2,1,50,0,0
35398,-200,4,2,3,50,0,0
35575,-200,4,2,1,50,0,0
35751,-200,4,2,3,50,0,0
35928,-200,4,2,12,50,0,0
36281,-200,4,2,1,50,0,0
36634,-100,4,2,1,50,0,0
36987,-100,4,2,12,50,0,0
37163,-100,4,2,1,50,0,0
37428,-100,4,2,2,50,0,0
37516,-100,4,2,12,60,0,0
37693,-100,4,2,25,60,0,0
37869,-100,4,2,1,60,0,0
38046,-100,4,2,25,60,0,0
38222,-100,4,2,12,60,0,0
38398,-100,4,2,25,60,0,0
38575,-100,4,2,25,60,0,0
38751,-100,4,2,25,60,0,0
38928,-100,4,2,1,60,0,0
39104,-100,4,2,25,60,0,0
39281,-100,4,2,1,60,0,0
39457,-100,4,2,15,60,0,0
39546,-100,4,2,1,60,0,0
39634,-100,4,2,12,60,0,0
39810,-100,4,2,15,60,0,0
39987,-100,4,2,25,60,0,0
40163,-100,4,2,25,60,0,0
40340,-100,4,2,1,60,0,0
40516,-100,4,2,25,60,0,0
40693,-100,4,2,1,60,0,0
40869,-100,4,2,25,60,0,0
41046,-100,4,2,12,60,0,0
41222,-100,4,2,25,60,0,0
41398,-100,4,2,25,60,0,0
41575,-100,4,2,25,60,0,0
41751,-100,4,2,1,60,0,0
41840,-100,4,2,1,60,0,0
41928,-100,4,2,25,60,0,0
42104,-100,4,2,25,60,0,0
42281,-100,4,2,15,60,0,0
42369,-100,4,2,1,60,0,0
42634,-100,4,2,15,60,0,0
42810,-100,4,2,1,60,0,0
42987,-100,4,2,15,60,0,0
43163,-100,4,2,12,60,0,0
43340,-100,4,2,1,60,0,0
44398,-100,4,2,25,60,0,0
44575,-100,4,2,1,60,0,0
45104,-100,4,2,16,60,0,0
45193,-100,4,2,1,60,0,0
45457,-100,4,2,15,60,0,0
45634,-100,4,2,1,60,0,0
45810,-100,4,2,12,60,0,0
45987,-100,4,2,12,60,0,0
46163,-100,4,2,1,60,0,0
46340,-100,4,2,25,60,0,0
46516,-100,4,2,1,60,0,0
46693,-100,4,2,16,60,0,0
46869,-100,4,2,12,60,0,0
47046,-100,4,2,26,60,0,0
47222,-90.9090909090909,4,2,12,60,0,0
47487,-90.9090909090909,4,2,12,60,0,0
47575,-90.9090909090909,4,2,1,60,0,0
48810,-125,4,2,14,55,0,0
49163,-125,4,2,24,55,0,0
49340,-125,4,2,12,55,0,0
49516,-125,4,2,27,55,0,0
49693,-125,4,2,1,55,0,0
49869,-125,4,2,3,55,0,0
50046,-125,4,2,12,55,0,0
50222,-125,4,2,3,55,0,0
50398,-125,4,2,12,55,0,0
50575,-125,4,2,14,55,0,0
50928,-125,4,2,28,55,0,0
51104,-125,4,2,24,55,0,0
51457,-125,4,2,12,55,0,0
51634,-125,4,2,13,55,0,0
51810,-125,4,2,1,55,0,0
51987,-125,4,2,3,55,0,0
52163,-125,4,2,12,55,0,0
52340,-125,4,2,27,55,0,0
52516,-125,4,2,1,55,0,0
52693,-125,4,2,13,55,0,0
52869,-125,4,2,12,55,0,0
53222,-125,4,2,1,55,0,0
53398,-125,4,2,14,55,0,0
53663,-125,4,2,14,55,0,0
53751,-125,4,2,28,55,0,0
53928,-125,4,2,1,55,0,0
54104,-111.111111111111,4,2,1,55,0,0
54457,-111.111111111111,4,2,12,55,0,0
54810,-111.111111111111,4,2,24,55,0,0
55163,-111.111111111111,4,2,14,55,0,0
55516,-111.111111111111,4,2,24,55,0,0
55869,-111.111111111111,4,2,12,55,0,0
56222,-111.111111111111,4,2,27,55,0,0
56398,-111.111111111111,4,2,24,55,0,0
56575,-111.111111111111,4,2,24,55,0,0
56928,-111.111111111111,4,2,24,55,0,0
57104,-111.111111111111,4,2,24,55,0,0
57281,-111.111111111111,4,2,12,55,0,0
57634,-111.111111111111,4,2,1,55,0,0
57810,-111.111111111111,4,2,12,55,0,0
58075,-111.111111111111,4,2,12,55,0,0
58163,-111.111111111111,4,2,12,55,0,0
58340,-111.111111111111,4,2,27,55,0,0
58516,-111.111111111111,4,2,29,55,0,0
58869,-111.111111111111,4,2,1,55,0,0
60106,-90.9090909090909,4,2,17,70,0,1
60369,-90.9090909090909,4,2,17,70,0,1
60457,-90.9090909090909,4,2,30,70,0,1
60634,-90.9090909090909,4,2,12,70,0,1
60722,-90.9090909090909,4,2,18,70,0,1
60987,-90.9090909090909,4,2,12,70,0,1
61163,-90.9090909090909,4,2,31,70,0,1
61340,-90.9090909090909,4,2,12,70,0,1
61516,-90.9090909090909,4,2,4,70,0,1
61693,-90.9090909090909,4,2,4,70,0,1
61869,-90.9090909090909,4,2,31,70,0,1
62046,-90.9090909090909,4,2,12,70,0,1
62134,-90.9090909090909,4,2,19,70,0,1
62398,-90.9090909090909,4,2,19,70,0,1
62575,-90.9090909090909,4,2,30,70,0,1
62928,-90.9090909090909,4,2,19,70,0,1
63193,-90.9090909090909,4,2,19,70,0,1
63281,-90.9090909090909,4,2,30,70,0,1
63457,-90.9090909090909,4,2,19,70,0,1
63634,-90.9090909090909,4,2,19,70,0,1
63810,-90.9090909090909,4,2,19,70,0,1
63987,-90.9090909090909,4,2,30,70,0,1
64163,-90.9090909090909,4,2,4,70,0,1
64340,-90.9090909090909,4,2,4,70,0,1
64516,-90.9090909090909,4,2,4,70,0,1
64693,-90.9090909090909,4,2,30,70,0,1
64869,-90.9090909090909,4,2,19,70,0,1
65046,-90.9090909090909,4,2,19,70,0,1
65222,-90.9090909090909,4,2,19,70,0,1
65398,-90.9090909090909,4,2,31,70,0,1
65575,-90.9090909090909,4,2,19,70,0,1
65751,-90.9090909090909,4,2,19,70,0,1
66104,-90.9090909090909,4,2,30,70,0,1
66281,-90.9090909090909,4,2,12,70,0,1
66369,-90.9090909090909,4,2,18,70,0,1
66634,-90.9090909090909,4,2,12,70,0,1
66810,-90.9090909090909,4,2,31,70,0,1
66987,-90.9090909090909,4,2,12,70,0,1
67163,-90.9090909090909,4,2,4,70,0,1
67340,-90.9090909090909,4,2,4,70,0,1
67516,-90.9090909090909,4,2,31,70,0,1
67693,-90.9090909090909,4,2,19,70,0,1
67869,-90.9090909090909,4,2,19,70,0,1
68046,-90.9090909090909,4,2,19,70,0,1
68222,-90.9090909090909,4,2,30,70,0,1
68575,-90.9090909090909,4,2,19,70,0,1
68928,-90.9090909090909,4,2,30,70,0,1
69104,-90.9090909090909,4,2,19,70,0,1
69281,-90.9090909090909,4,2,19,70,0,1
69457,-90.9090909090909,4,2,19,70,0,1
69634,-90.9090909090909,4,2,30,70,0,1
69810,-90.9090909090909,4,2,1,70,0,1
69987,-90.9090909090909,4,2,4,70,0,1
70163,-90.9090909090909,4,2,4,70,0,1
70340,-90.9090909090909,4,2,30,70,0,1
70516,-90.9090909090909,4,2,1,70,0,1
70693,-90.9090909090909,4,2,30,70,0,1
70869,-90.9090909090909,4,2,1,70,0,1
71046,-90.9090909090909,4,2,31,70,0,1
71134,-90.9090909090909,4,2,31,70,0,1
71398,-90.9090909090909,4,2,19,70,0,1
71751,-90.9090909090909,4,2,30,70,0,1
71928,-90.9090909090909,4,2,12,70,0,1
72016,-90.9090909090909,4,2,18,70,0,1
72281,-90.9090909090909,4,2,12,70,0,1
72457,-90.9090909090909,4,2,31,70,0,1
72634,-90.9090909090909,4,2,12,70,0,1
72810,-90.9090909090909,4,2,4,70,0,1
72987,-90.9090909090909,4,2,4,70,0,1
73163,-90.9090909090909,4,2,30,70,0,1
73340,-90.9090909090909,4,2,19,70,0,1
73516,-90.9090909090909,4,2,19,70,0,1
73693,-90.9090909090909,4,2,19,70,0,1
73869,-90.9090909090909,4,2,31,70,0,1
74046,-90.9090909090909,4,2,1,70,0,1
74222,-90.9090909090909,4,2,19,70,0,1
74575,-90.9090909090909,4,2,30,70,0,1
74751,-90.9090909090909,4,2,12,70,0,1
74840,-90.9090909090909,4,2,18,70,0,1
75104,-90.9090909090909,4,2,12,70,0,1
75281,-90.9090909090909,4,2,31,70,0,1
75457,-90.9090909090909,4,2,12,70,0,1
75634,-90.9090909090909,4,2,4,70,0,1
75810,-90.9090909090909,4,2,4,70,0,1
75987,-90.9090909090909,4,2,30,70,0,1
76163,-90.9090909090909,4,2,1,70,0,1
76251,-90.9090909090909,4,2,1,70,0,1
76340,-90.9090909090909,4,2,32,70,0,1
76516,-90.9090909090909,4,2,18,70,0,1
76693,-90.9090909090909,4,2,18,70,0,1
77046,-100,4,2,20,70,0,1
77398,-100,4,2,24,70,0,1
77575,-100,4,2,12,70,0,1
77751,-100,4,2,1,70,0,1
77928,-100,4,2,12,70,0,1
78281,-133.333333333333,4,2,12,70,0,1
78634,-133.333333333333,4,2,12,70,0,1
78810,-133.333333333333,4,2,27,70,0,1
79163,-133.333333333333,4,2,1,70,0,1
79871,-133.333333333333,4,2,29,70,0,0
80222,-133.333333333333,4,2,29,70,0,0
80398,-133.333333333333,4,2,29,70,0,0
80751,-133.333333333333,4,2,29,70,0,0
80928,-133.333333333333,4,2,29,70,0,0
81634,-133.333333333333,4,2,29,70,0,0
82693,-100,4,2,1,65,0,0
82869,-100,4,2,17,65,0,0
83046,-100,4,2,18,65,0,0
83222,-100,4,2,2,65,0,0
83398,-100,4,2,3,65,0,0
83575,-100,4,2,2,65,0,0
83751,-100,4,2,19,65,0,0
83928,-100,4,2,4,65,0,0
84104,-100,4,2,2,65,0,0
84193,-100,4,2,2,65,0,0
84281,-100,4,2,5,65,0,0
84457,-100,4,2,20,65,0,0
84634,-100,4,2,5,65,0,0
84722,-100,4,2,1,65,0,0
84810,-100,4,2,6,65,0,0
84987,-100,4,2,5,65,0,0
85163,-100,4,2,20,65,0,0
85340,-100,4,2,5,65,0,0
85516,-100,4,2,7,65,0,0
85692,-100,4,2,17,65,0,0
85869,-100,4,2,18,65,0,0
86046,-100,4,2,2,65,0,0
86134,-100,4,2,1,65,0,0
86222,-100,4,2,3,65,0,0
86398,-100,4,2,2,65,0,0
86575,-100,4,2,19,65,0,0
86751,-100,4,2,4,65,0,0
86928,-100,4,2,2,65,0,0
87016,-100,4,2,2,65,0,0
87104,-100,4,2,8,65,0,0
87281,-100,4,2,21,65,0,0
87457,-100,4,2,8,65,0,0
87546,-100,4,2,1,65,0,0
87634,-100,4,2,9,65,0,0
87810,-100,4,2,8,65,0,0
87987,-100,4,2,21,65,0,0
88163,-100,4,2,8,65,0,0
88340,-100,4,2,7,65,0,0
88516,-100,4,2,17,65,0,0
88693,-100,4,2,18,65,0,0
88869,-100,4,2,2,65,0,0
89046,-100,4,2,3,65,0,0
89222,-100,4,2,2,65,0,0
89398,-100,4,2,19,65,0,0
89575,-100,4,2,4,65,0,0
89751,-100,4,2,2,65,0,0
89840,-100,4,2,2,65,0,0
89928,-100,4,2,5,65,0,0
90104,-100,4,2,20,65,0,0
90281,-100,4,2,5,65,0,0
90369,-100,4,2,1,65,0,0
90457,-100,4,2,6,65,0,0
90634,-100,4,2,5,65,0,0
90810,-100,4,2,20,65,0,0
90987,-100,4,2,5,65,0,0
91340,-100,4,2,22,65,0,0
91693,-100,4,2,5,65,0,0
91869,-100,4,2,22,65,0,0
92222,-100,4,2,10,65,0,0
92398,-125,4,2,11,65,0,0
92751,-125,4,2,23,65,0,0
93987,-200,4,2,12,50,0,0
95046,-200,4,2,1,50,0,0
102281,-200,4,2,12,50,0,0
102457,-200,4,2,29,60,0,0
102634,-200,4,2,29,40,0,0
102810,-200,4,2,29,45,0,0
102987,-200,4,2,29,50,0,0
103163,-200,4,2,29,55,0,0
103340,-200,4,2,29,60,0,0
103516,-200,4,2,29,65,0,0
103693,-200,4,2,14,50,0,0
104046,-200,4,2,1,50,0,0
104398,-111.111111111111,4,2,1,50,0,0
104751,-111.111111111111,4,2,12,50,0,0
104928,-111.111111111111,4,2,1,50,0,0
105193,-111.111111111111,4,2,2,50,0,0
105281,-99.9999999999999,4,2,12,60,0,0
105457,-99.9999999999999,4,2,25,60,0,0
105634,-99.9999999999999,4,2,1,60,0,0
105810,-99.9999999999999,4,2,25,60,0,0
105987,-99.9999999999999,4,2,12,60,0,0
106163,-99.9999999999999,4,2,25,60,0,0
106340,-99.9999999999999,4,2,25,60,0,0
106516,-99.9999999999999,4,2,25,60,0,0
106693,-99.9999999999999,4,2,1,60,0,0
106869,-99.9999999999999,4,2,25,60,0,0
107046,-99.9999999999999,4,2,1,60,0,0
107222,-99.9999999999999,4,2,15,60,0,0
107310,-99.9999999999999,4,2,1,60,0,0
107398,-99.9999999999999,4,2,12,60,0,0
107575,-99.9999999999999,4,2,15,60,0,0
107751,-99.9999999999999,4,2,25,60,0,0
107928,-99.9999999999999,4,2,25,60,0,0
108104,-99.9999999999999,4,2,1,60,0,0
108281,-99.9999999999999,4,2,25,60,0,0
108457,-99.9999999999999,4,2,1,60,0,0
108634,-99.9999999999999,4,2,25,60,0,0
108722,-99.9999999999999,4,2,1,60,0,0
108810,-99.9999999999999,4,2,12,60,0,0
108987,-99.9999999999999,4,2,25,60,0,0
109163,-99.9999999999999,4,2,25,60,0,0
109340,-99.9999999999999,4,2,25,60,0,0
109516,-99.9999999999999,4,2,1,60,0,0
109693,-99.9999999999999,4,2,25,60,0,0
109869,-99.9999999999999,4,2,25,60,0,0
110046,-99.9999999999999,4,2,15,60,0,0
110134,-99.9999999999999,4,2,1,60,0,0
110398,-99.9999999999999,4,2,15,60,0,0
110575,-99.9999999999999,4,2,1,60,0,0
110751,-99.9999999999999,4,2,15,60,0,0
110928,-99.9999999999999,4,2,12,60,0,0
111104,-99.9999999999999,4,2,1,60,0,0
112163,-99.9999999999999,4,2,25,60,0,0
112340,-99.9999999999999,4,2,1,60,0,0
112869,-99.9999999999999,4,2,16,60,0,0
112957,-99.9999999999999,4,2,1,60,0,0
113222,-99.9999999999999,4,2,15,60,0,0
113398,-99.9999999999999,4,2,1,60,0,0
113575,-99.9999999999999,4,2,12,60,0,0
113663,-99.9999999999999,4,2,12,60,0,0
113751,-99.9999999999999,4,2,12,60,0,0
113928,-99.9999999999999,4,2,1,60,0,0
114104,-99.9999999999999,4,2,25,60,0,0
114281,-99.9999999999999,4,2,1,60,0,0
114457,-99.9999999999999,4,2,16,60,0,0
114634,-99.9999999999999,4,2,12,60,0,0
114810,-99.9999999999999,4,2,26,60,0,0
114987,-99.9999999999999,4,2,12,60,0,0
115251,-99.9999999999999,4,2,12,60,0,0
115340,-99.9999999999999,4,2,1,60,0,0
116222,-125,4,2,1,60,0,0
116575,-125,4,2,14,55,0,0
116928,-125,4,2,24,55,0,0
117104,-125,4,2,12,55,0,0
117281,-125,4,2,27,55,0,0
117457,-125,4,2,1,55,0,0
117634,-125,4,2,3,55,0,0
117810,-125,4,2,12,55,0,0
117987,-125,4,2,3,55,0,0
118163,-125,4,2,12,55,0,0
118340,-125,4,2,14,55,0,0
118693,-125,4,2,28,55,0,0
118869,-125,4,2,24,55,0,0
119222,-125,4,2,12,55,0,0
119310,-125,4,2,12,55,0,0
119398,-125,4,2,13,55,0,0
119575,-125,4,2,1,55,0,0
119751,-125,4,2,3,55,0,0
119928,-125,4,2,12,55,0,0
120104,-125,4,2,27,55,0,0
120281,-125,4,2,1,55,0,0
120457,-125,4,2,14,55,0,0
120634,-125,4,2,12,55,0,0
120987,-125,4,2,1,55,0,0
121163,-125,4,2,14,55,0,0
121516,-125,4,2,28,55,0,0
121693,-125,4,2,1,55,0,0
122222,-111.111111111111,4,2,12,55,0,0
122575,-111.111111111111,4,2,24,55,0,0
122928,-111.111111111111,4,2,14,55,0,0
123281,-111.111111111111,4,2,24,55,0,0
123634,-111.111111111111,4,2,12,55,0,0
123987,-111.111111111111,4,2,27,55,0,0
124163,-111.111111111111,4,2,24,55,0,0
124340,-111.111111111111,4,2,24,55,0,0
124693,-111.111111111111,4,2,24,55,0,0
124869,-111.111111111111,4,2,24,55,0,0
125046,-111.111111111111,4,2,12,55,0,0
125398,-111.111111111111,4,2,1,55,0,0
125575,-111.111111111111,4,2,12,55,0,0
125840,-111.111111111111,4,2,12,55,0,0
125928,-111.111111111111,4,2,12,55,0,0
126104,-111.111111111111,4,2,27,55,0,0
126281,-111.111111111111,4,2,29,55,0,0
126634,-111.111111111111,4,2,1,55,0,0
127871,-90.9090909090909,4,2,17,70,0,1
128134,-90.9090909090909,4,2,17,70,0,1
128222,-90.9090909090909,4,2,30,70,0,1
128398,-90.9090909090909,4,2,12,70,0,1
128487,-90.9090909090909,4,2,18,70,0,1
128751,-90.9090909090909,4,2,12,70,0,1
128928,-90.9090909090909,4,2,31,70,0,1
129104,-90.9090909090909,4,2,12,70,0,1
129281,-90.9090909090909,4,2,4,70,0,1
129457,-90.9090909090909,4,2,4,70,0,1
129634,-90.9090909090909,4,2,31,70,0,1
129810,-90.9090909090909,4,2,12,70,0,1
129898,-90.9090909090909,4,2,19,70,0,1
130163,-90.9090909090909,4,2,19,70,0,1
130340,-90.9090909090909,4,2,30,70,0,1
130693,-90.9090909090909,4,2,19,70,0,1
130957,-90.9090909090909,4,2,19,70,0,1
131046,-90.9090909090909,4,2,30,70,0,1
131222,-90.9090909090909,4,2,19,70,0,1
131398,-90.9090909090909,4,2,19,70,0,1
131575,-90.9090909090909,4,2,19,70,0,1
131751,-90.9090909090909,4,2,30,70,0,1
131928,-90.9090909090909,4,2,4,70,0,1
132104,-90.9090909090909,4,2,4,70,0,1
132281,-90.9090909090909,4,2,4,70,0,1
132457,-90.9090909090909,4,2,30,70,0,1
132634,-90.9090909090909,4,2,19,70,0,1
132810,-90.9090909090909,4,2,19,70,0,1
132987,-90.9090909090909,4,2,19,70,0,1
133163,-90.9090909090909,4,2,31,70,0,1
133340,-90.9090909090909,4,2,19,70,0,1
133516,-90.9090909090909,4,2,19,70,0,1
133869,-90.9090909090909,4,2,30,70,0,1
134046,-90.9090909090909,4,2,12,70,0,1
134134,-90.9090909090909,4,2,18,70,0,1
134398,-90.9090909090909,4,2,12,70,0,1
134575,-90.9090909090909,4,2,31,70,0,1
134751,-90.9090909090909,4,2,12,70,0,1
134928,-90.9090909090909,4,2,4,70,0,1
135104,-90.9090909090909,4,2,4,70,0,1
135281,-90.9090909090909,4,2,31,70,0,1
135457,-90.9090909090909,4,2,19,70,0,1
135634,-90.9090909090909,4,2,19,70,0,1
135810,-90.9090909090909,4,2,19,70,0,1
135987,-90.9090909090909,4,2,30,70,0,1
136340,-90.9090909090909,4,2,19,70,0,1
136693,-90.9090909090909,4,2,30,70,0,1
136869,-90.9090909090909,4,2,19,70,0,1
137046,-90.9090909090909,4,2,19,70,0,1
137222,-90.9090909090909,4,2,19,70,0,1
137398,-90.9090909090909,4,2,30,70,0,1
137575,-90.9090909090909,4,2,1,70,0,1
137751,-90.9090909090909,4,2,4,70,0,1
137928,-90.9090909090909,4,2,4,70,0,1
138104,-90.9090909090909,4,2,30,70,0,1
138281,-90.9090909090909,4,2,1,70,0,1
138457,-90.9090909090909,4,2,30,70,0,1
138634,-90.9090909090909,4,2,2,70,0,1
138722,-90.9090909090909,4,2,31,70,0,1
138810,-90.9090909090909,4,2,31,70,0,1
138898,-90.9090909090909,4,2,31,70,0,1
139163,-90.9090909090909,4,2,19,70,0,1
139516,-90.9090909090909,4,2,30,70,0,1
139693,-90.9090909090909,4,2,12,70,0,1
139781,-90.9090909090909,4,2,18,70,0,1
140046,-90.9090909090909,4,2,12,70,0,1
140222,-90.9090909090909,4,2,31,70,0,1
140398,-90.9090909090909,4,2,12,70,0,1
140575,-90.9090909090909,4,2,4,70,0,1
140751,-90.9090909090909,4,2,4,70,0,1
140928,-90.9090909090909,4,2,30,70,0,1
141104,-90.9090909090909,4,2,19,70,0,1
141281,-90.9090909090909,4,2,19,70,0,1
141457,-90.9090909090909,4,2,19,70,0,1
141634,-90.9090909090909,4,2,31,70,0,1
141810,-90.9090909090909,4,2,1,70,0,1
141987,-90.9090909090909,4,2,19,70,0,1
142163,-90.9090909090909,4,2,1,70,0,1
142340,-90.9090909090909,4,2,30,70,0,1
142516,-90.9090909090909,4,2,12,70,0,1
142604,-90.9090909090909,4,2,18,70,0,1
142869,-90.9090909090909,4,2,12,70,0,1
143046,-90.9090909090909,4,2,31,70,0,1
143222,-90.9090909090909,4,2,12,70,0,1
143398,-90.9090909090909,4,2,4,70,0,1
143575,-90.9090909090909,4,2,4,70,0,1
143751,-90.9090909090909,4,2,30,70,0,1
143928,-90.9090909090909,4,2,1,70,0,1
144016,-90.9090909090909,4,2,1,70,0,1
144104,-90.9090909090909,4,2,32,70,0,1
144281,-90.9090909090909,4,2,18,70,0,1
144457,-90.9090909090909,4,2,18,70,0,1
144634,-90.9090909090909,4,2,18,70,0,1
144812,-100,4,2,20,70,0,0
145163,-100,4,2,24,70,0,0
145340,-100,4,2,12,70,0,0
145516,-100,4,2,1,70,0,0
145693,-100,4,2,12,70,0,0
146046,-100,4,2,12,70,0,0
146310,-100,4,2,12,70,0,0
146398,-100,4,2,12,70,0,0
146575,-100,4,2,27,70,0,0
146751,-100,4,2,1,70,0,0
147634,-100,4,2,29,70,0,0
147987,-100,4,2,29,70,0,0
148163,-100,4,2,29,70,0,0
148516,-100,4,2,29,70,0,0
148693,-100,4,2,29,70,0,0
150104,-100,4,2,21,70,0,0
150457,-90.9090909090909,4,2,21,65,0,0
150722,-90.9090909090909,4,2,21,65,0,0
150810,-90.9090909090909,4,2,31,65,0,0
150987,-90.9090909090909,4,2,18,65,0,0
151163,-90.9090909090909,4,2,18,65,0,0
151340,-90.9090909090909,4,2,18,65,0,0
151516,-90.9090909090909,4,2,30,65,0,0
151604,-90.9090909090909,4,2,1,65,0,0
151693,-90.9090909090909,4,2,12,65,0,0
151781,-90.9090909090909,4,2,1,65,0,0
151869,-90.9090909090909,4,2,30,65,0,0
152046,-90.9090909090909,4,2,12,65,0,0
152222,-90.9090909090909,4,2,30,65,0,0
152398,-90.9090909090909,4,2,12,65,0,0
152487,-90.9090909090909,4,2,18,65,0,0
152751,-90.9090909090909,4,2,12,65,0,0
152928,-90.9090909090909,4,2,31,65,0,0
153281,-90.9090909090909,4,2,19,65,0,0
153457,-90.9090909090909,4,2,1,65,0,0
153634,-90.9090909090909,4,2,30,65,0,0
153810,-90.9090909090909,4,2,12,65,0,0
153898,-90.9090909090909,4,2,19,65,0,0
154163,-90.9090909090909,4,2,12,65,0,0
154340,-90.9090909090909,4,2,30,65,0,0
154516,-90.9090909090909,4,2,12,65,0,0
154693,-90.9090909090909,4,2,4,65,0,0
154781,-90.9090909090909,4,2,4,65,0,0
154869,-90.9090909090909,4,2,12,65,0,0
155046,-90.9090909090909,4,2,30,65,0,0
155222,-90.9090909090909,4,2,12,65,0,0
155310,-90.9090909090909,4,2,19,65,0,0
155575,-90.9090909090909,4,2,1,65,0,0
155751,-90.9090909090909,4,2,19,65,0,0
155928,-90.9090909090909,4,2,1,65,0,0
156106,-90.9090909090909,4,2,19,65,0,1
156193,-90.9090909090909,4,2,1,65,0,1
156457,-90.9090909090909,4,2,30,65,0,1
156546,-90.9090909090909,4,2,1,65,0,1
156634,-90.9090909090909,4,2,12,65,0,1
156722,-90.9090909090909,4,2,1,65,0,1
156810,-90.9090909090909,4,2,19,65,0,1
156898,-90.9090909090909,4,2,1,65,0,1
156987,-90.9090909090909,4,2,12,65,0,1
157075,-90.9090909090909,4,2,1,65,0,1
157163,-90.9090909090909,4,2,30,65,0,1
157251,-90.9090909090909,4,2,1,65,0,1
157340,-90.9090909090909,4,2,12,65,0,1
157428,-90.9090909090909,4,2,1,65,0,1
157516,-90.9090909090909,4,2,30,65,0,1
157604,-90.9090909090909,4,2,1,65,0,1
157693,-90.9090909090909,4,2,12,65,0,1
157781,-90.9090909090909,4,2,1,65,0,1
157869,-90.9090909090909,4,2,30,65,0,1
157957,-90.9090909090909,4,2,1,65,0,1
158046,-90.9090909090909,4,2,12,65,0,1
158134,-90.9090909090909,4,2,1,65,0,1
158222,-90.9090909090909,4,2,19,65,0,1
158310,-90.9090909090909,4,2,1,65,0,1
158398,-90.9090909090909,4,2,12,65,0,1
158487,-90.9090909090909,4,2,1,65,0,1
158575,-90.9090909090909,4,2,30,65,0,1
158663,-90.9090909090909,4,2,1,65,0,1
158928,-90.9090909090909,4,2,19,65,0,1
159016,-90.9090909090909,4,2,1,65,0,1
159281,-90.9090909090909,4,2,30,65,0,1
159369,-90.9090909090909,4,2,1,65,0,1
159457,-90.9090909090909,4,2,12,65,0,1
159546,-90.9090909090909,4,2,1,65,0,1
159634,-90.9090909090909,4,2,19,65,0,1
159722,-90.9090909090909,4,2,1,65,0,1
159810,-90.9090909090909,4,2,12,65,0,1
159898,-90.9090909090909,4,2,1,65,0,1
159987,-90.9090909090909,4,2,30,65,0,1
160075,-90.9090909090909,4,2,1,65,0,1
160163,-90.9090909090909,4,2,12,65,0,1
160251,-90.9090909090909,4,2,1,65,0,1
160340,-90.9090909090909,4,2,30,65,0,1
160428,-90.9090909090909,4,2,1,65,0,1
160516,-90.9090909090909,4,2,12,65,0,1
160604,-90.9090909090909,4,2,1,65,0,1
160693,-90.9090909090909,4,2,30,65,0,1
160781,-90.9090909090909,4,2,1,65,0,1
160869,-90.9090909090909,4,2,12,65,0,1
160957,-90.9090909090909,4,2,1,65,0,1
161046,-90.9090909090909,4,2,19,65,0,1
161134,-90.9090909090909,4,2,1,65,0,1
161222,-90.9090909090909,4,2,12,65,0,1
161310,-90.9090909090909,4,2,1,65,0,1
161398,-90.9090909090909,4,2,30,65,0,1
161487,-90.9090909090909,4,2,1,65,0,1
161751,-90.9090909090909,4,2,12,65,0,1
161930,-100,4,2,29,65,0,0
162104,-100,4,2,12,65,0,0
162457,-100,4,2,29,65,0,0
162634,-100,4,2,12,65,0,0
162987,-90.9090909090909,4,2,20,65,0,0
163340,-90.9090909090909,4,2,20,65,0,0
163516,-90.9090909090909,4,2,1,65,0,0
164222,-90.9090909090909,4,2,5,65,0,0
164398,-90.9090909090909,4,2,1,65,0,0
164575,-125,4,2,13,55,0,0
164928,-125,4,2,3,55,0,0
165104,-125,4,2,3,55,0,0
165281,-125,4,2,24,55,0,0
165457,-125,4,2,1,55,0,0
165634,-125,4,2,24,55,0,0
165810,-125,4,2,12,55,0,0
165987,-125,4,2,3,55,0,0
166163,-125,4,2,12,55,0,0
166340,-125,4,2,14,55,0,0
166516,-125,4,2,1,55,0,0
166693,-125,4,2,28,55,0,0
166869,-125,4,2,12,55,0,0
167046,-125,4,2,3,55,0,0
167222,-125,4,2,12,55,0,0
167575,-125,4,2,12,55,0,0
167751,-125,4,2,3,55,0,0
167928,-125,4,2,12,55,0,0
168104,-125,4,2,27,55,0,0
168281,-125,4,2,1,55,0,0
168457,-125,4,2,3,55,0,0
168634,-125,4,2,12,55,0,0
168810,-125,4,2,3,55,0,0
168987,-125,4,2,1,55,0,0
169163,-125,4,2,14,55,0,0
169340,-125,4,2,1,55,0,0
169516,-125,4,2,28,55,0,0
169693,-125,4,2,12,55,0,0
169869,-125,4,2,3,55,0,0
170046,-125,4,2,12,55,0,0
170398,-125,4,2,1,55,0,0
170575,-125,4,2,14,55,0,0
170751,-125,4,2,12,55,0,0
170928,-125,4,2,24,55,0,0
171104,-125,4,2,12,55,0,0
171281,-125,4,2,3,55,0,0
171457,-125,4,2,12,55,0,0
171810,-125,4,2,1,55,0,0
171987,-125,4,2,14,55,0,0
172163,-125,4,2,1,55,0,0
172340,-125,4,2,33,55,0,0
172516,-125,4,2,12,55,0,0
172693,-125,4,2,3,55,0,0
172869,-125,4,2,1,55,0,0
173046,-125,4,2,12,55,0,0
173398,-125,4,2,24,55,0,0
173751,-125,4,2,24,55,0,0
173928,-125,4,2,24,55,0,0
174104,-125,4,2,24,55,0,0
174457,-125,4,2,12,55,0,0
174634,-125,4,2,1,55,0,0
174810,-125,4,2,13,55,0,0
175163,-125,4,2,33,55,0,0
175340,-125,4,2,1,55,0,0
175693,-111.111111111111,4,2,12,60,0,0
176046,-111.111111111111,4,2,12,60,0,0
176222,-111.111111111111,4,2,24,60,0,0
176398,-111.111111111111,4,2,12,60,0,0
176575,-111.111111111111,4,2,3,60,0,0
176751,-111.111111111111,4,2,12,60,0,0
176928,-111.111111111111,4,2,27,60,0,0
177104,-111.111111111111,4,2,12,60,0,0
177281,-111.111111111111,4,2,3,60,0,0
177457,-111.111111111111,4,2,3,60,0,0
177634,-111.111111111111,4,2,27,60,0,0
177810,-111.111111111111,4,2,1,60,0,0
177987,-111.111111111111,4,2,14,60,0,0
178163,-111.111111111111,4,2,12,60,0,0
178340,-111.111111111111,4,2,24,60,0,0
178516,-111.111111111111,4,2,12,60,0,0
178869,-111.111111111111,4,2,12,60,0,0
179046,-111.111111111111,4,2,27,60,0,0
179222,-111.111111111111,4,2,12,60,0,0
179310,-111.111111111111,4,2,12,60,0,0
179398,-111.111111111111,4,2,3,60,0,0
179575,-111.111111111111,4,2,12,60,0,0
179751,-111.111111111111,4,2,27,60,0,0
179928,-111.111111111111,4,2,12,60,0,0
180281,-111.111111111111,4,2,12,60,0,0
180457,-111.111111111111,4,2,24,60,0,0
180634,-111.111111111111,4,2,24,60,0,0
180722,-111.111111111111,4,2,24,60,0,0
180810,-111.111111111111,4,2,13,60,0,0
180987,-111.111111111111,4,2,13,60,0,0
181163,-111.111111111111,4,2,24,60,0,0
181251,-111.111111111111,4,2,24,60,0,0
181340,-111.111111111111,4,2,24,60,0,0
181516,-111.111111111111,4,2,12,60,0,0
181869,-111.111111111111,4,2,24,60,0,0
182222,-111.111111111111,4,2,14,60,0,0
182575,-111.111111111111,4,2,24,60,0,0
182928,-111.111111111111,4,2,12,60,0,0
183281,-111.111111111111,4,2,27,60,0,0
183457,-111.111111111111,4,2,1,60,0,0
183634,-111.111111111111,4,2,14,60,0,0
183987,-111.111111111111,4,2,24,60,0,0
184163,-111.111111111111,4,2,24,60,0,0
184340,-99.9999999999999,4,2,12,60,0,0
184693,-99.9999999999999,4,2,29,60,0,0
184869,-99.9999999999999,4,2,12,60,0,0
185398,-99.9999999999999,4,2,29,60,0,0
186457,-99.9999999999999,4,2,1,30,0,0
186810,-99.9999999999999,4,2,1,40,0,0
187163,-99.9999999999999,4,2,1,45,0,0
187340,-99.9999999999999,4,2,1,50,0,0
187516,-99.9999999999999,4,2,1,55,0,0
187693,-99.9999999999999,4,2,1,60,0,0
187869,-99.9999999999999,4,2,29,60,0,0
188398,-99.9999999999999,4,2,29,60,0,0
188575,-90.9090909090909,4,2,12,60,0,0
188928,-90.9090909090909,4,2,1,60,0,0
189016,-90.9090909090909,4,2,1,60,0,0
189104,-66.6666666666667,4,2,12,60,0,0
189193,-66.6666666666667,4,2,12,60,0,0
189457,-66.6666666666667,4,2,12,60,0,0
189546,-66.6666666666667,4,2,12,60,0,0
189810,-90.9090909090909,4,2,12,60,0,0
190516,-90.9090909090909,4,2,12,60,0,0
190693,-90.9090909090909,4,2,1,60,0,0
191310,-90.9090909090909,4,2,2,60,0,0
191400,-90.9090909090909,4,2,17,70,0,1
191751,-90.9090909090909,4,2,30,70,0,1
191928,-90.9090909090909,4,2,19,70,0,1
192104,-90.9090909090909,4,2,19,70,0,1
192281,-90.9090909090909,4,2,19,70,0,1
192457,-90.9090909090909,4,2,30,70,0,1
192634,-90.9090909090909,4,2,4,70,0,1
192810,-90.9090909090909,4,2,4,70,0,1
192987,-90.9090909090909,4,2,4,70,0,1
193163,-90.9090909090909,4,2,30,70,0,1
193340,-90.9090909090909,4,2,19,70,0,1
193516,-90.9090909090909,4,2,19,70,0,1
193693,-90.9090909090909,4,2,19,70,0,1
193869,-90.9090909090909,4,2,31,70,0,1
194046,-90.9090909090909,4,2,19,70,0,1
194222,-90.9090909090909,4,2,19,70,0,1
194575,-90.9090909090909,4,2,30,70,0,1
194751,-90.9090909090909,4,2,12,70,0,1
194840,-90.9090909090909,4,2,18,70,0,1
195104,-90.9090909090909,4,2,12,70,0,1
195281,-90.9090909090909,4,2,31,70,0,1
195457,-90.9090909090909,4,2,12,70,0,1
195634,-90.9090909090909,4,2,4,70,0,1
195810,-90.9090909090909,4,2,4,70,0,1
195987,-90.9090909090909,4,2,31,70,0,1
196163,-90.9090909090909,4,2,19,70,0,1
196340,-90.9090909090909,4,2,19,70,0,1
196516,-90.9090909090909,4,2,19,70,0,1
196693,-90.9090909090909,4,2,30,70,0,1
197046,-90.9090909090909,4,2,19,70,0,1
197398,-90.9090909090909,4,2,30,70,0,1
197575,-90.9090909090909,4,2,19,70,0,1
197751,-90.9090909090909,4,2,19,70,0,1
197928,-90.9090909090909,4,2,19,70,0,1
198104,-90.9090909090909,4,2,30,70,0,1
198281,-90.9090909090909,4,2,1,70,0,1
198457,-90.9090909090909,4,2,4,70,0,1
198634,-90.9090909090909,4,2,4,70,0,1
198810,-90.9090909090909,4,2,30,70,0,1
198987,-90.9090909090909,4,2,1,70,0,1
199163,-90.9090909090909,4,2,30,70,0,1
199340,-90.9090909090909,4,2,2,70,0,1
199516,-90.9090909090909,4,2,31,70,0,1
199604,-90.9090909090909,4,2,31,70,0,1
199869,-90.9090909090909,4,2,19,70,0,1
200222,-90.9090909090909,4,2,30,70,0,1
200398,-90.9090909090909,4,2,12,70,0,1
200487,-90.9090909090909,4,2,18,70,0,1
200751,-90.9090909090909,4,2,12,70,0,1
200928,-90.9090909090909,4,2,31,70,0,1
201104,-90.9090909090909,4,2,12,70,0,1
201281,-90.9090909090909,4,2,4,70,0,1
201457,-90.9090909090909,4,2,4,70,0,1
201634,-90.9090909090909,4,2,30,70,0,1
201810,-90.9090909090909,4,2,19,70,0,1
201987,-90.9090909090909,4,2,19,70,0,1
202163,-90.9090909090909,4,2,19,70,0,1
202340,-90.9090909090909,4,2,31,70,0,1
202516,-90.9090909090909,4,2,1,70,0,1
202693,-90.9090909090909,4,2,19,70,0,1
203046,-90.9090909090909,4,2,30,70,0,1
203222,-90.9090909090909,4,2,12,70,0,1
203310,-90.9090909090909,4,2,18,70,0,1
203575,-90.9090909090909,4,2,12,70,0,1
203751,-90.9090909090909,4,2,31,70,0,1
203928,-90.9090909090909,4,2,12,70,0,1
204104,-90.9090909090909,4,2,4,70,0,1
204281,-90.9090909090909,4,2,4,70,0,1
204457,-90.9090909090909,4,2,30,70,0,1
204634,-90.9090909090909,4,2,1,70,0,1
204810,-90.9090909090909,4,2,32,70,0,1
204987,-90.9090909090909,4,2,1,70,0,1
205163,-90.9090909090909,4,2,34,70,0,1
205340,-90.9090909090909,4,2,19,70,0,1
205516,-90.9090909090909,4,2,19,70,0,1
205781,-90.9090909090909,4,2,19,70,0,1
205869,-90.9090909090909,4,2,30,70,0,1
206046,-90.9090909090909,4,2,12,70,0,1
206134,-90.9090909090909,4,2,18,70,0,1
206398,-90.9090909090909,4,2,12,70,0,1
206575,-90.9090909090909,4,2,31,70,0,1
206751,-90.9090909090909,4,2,12,70,0,1
206928,-90.9090909090909,4,2,4,70,0,1
207104,-90.9090909090909,4,2,4,70,0,1
207281,-90.9090909090909,4,2,31,70,0,1
207457,-90.9090909090909,4,2,19,70,0,1
207634,-90.9090909090909,4,2,19,70,0,1
207898,-90.9090909090909,4,2,19,70,0,1
207987,-90.9090909090909,4,2,30,70,0,1
208163,-90.9090909090909,4,2,1,70,0,1
208340,-90.9090909090909,4,2,35,70,0,1
208516,-90.9090909090909,4,2,29,70,0,1
208693,-90.9090909090909,4,2,22,70,0,1
208869,-90.9090909090909,4,2,29,70,0,1
209046,-90.9090909090909,4,2,36,70,0,1
209222,-90.9090909090909,4,2,12,70,0,1
209398,-90.9090909090909,4,2,36,70,0,1
209575,-90.9090909090909,4,2,29,70,0,1
209663,-90.9090909090909,4,2,29,70,0,1
209751,-90.9090909090909,4,2,6,70,0,1
209928,-90.9090909090909,4,2,6,70,0,1
210104,-90.9090909090909,4,2,37,70,0,1
210281,-90.9090909090909,4,2,12,70,0,1
210369,-90.9090909090909,4,2,12,70,0,1
210457,-90.9090909090909,4,2,38,70,0,1
210634,-90.9090909090909,4,2,38,70,0,1
210810,-90.9090909090909,4,2,37,70,0,1
210898,-90.9090909090909,4,2,37,70,0,1
211163,-90.9090909090909,4,2,17,70,0,1
211428,-90.9090909090909,4,2,17,70,0,1
211516,-90.9090909090909,4,2,30,70,0,1
211693,-90.9090909090909,4,2,12,70,0,1
211781,-90.9090909090909,4,2,18,70,0,1
212046,-90.9090909090909,4,2,12,70,0,1
212222,-90.9090909090909,4,2,31,70,0,1
212398,-90.9090909090909,4,2,12,70,0,1
212575,-90.9090909090909,4,2,4,70,0,1
212751,-90.9090909090909,4,2,4,70,0,1
212928,-90.9090909090909,4,2,31,70,0,1
213104,-90.9090909090909,4,2,12,70,0,1
213193,-90.9090909090909,4,2,19,70,0,1
213457,-90.9090909090909,4,2,19,70,0,1
213634,-90.9090909090909,4,2,30,70,0,1
213898,-90.9090909090909,4,2,30,70,0,1
213987,-90.9090909090909,4,2,19,70,0,1
214340,-90.9090909090909,4,2,30,70,0,1
214516,-90.9090909090909,4,2,19,70,0,1
214693,-90.9090909090909,4,2,19,70,0,1
214869,-90.9090909090909,4,2,19,70,0,1
215046,-90.9090909090909,4,2,30,70,0,1
215222,-90.9090909090909,4,2,4,70,0,1
215398,-90.9090909090909,4,2,4,70,0,1
215575,-90.9090909090909,4,2,4,70,0,1
215751,-90.9090909090909,4,2,30,70,0,1
215928,-90.9090909090909,4,2,19,70,0,1
216104,-90.9090909090909,4,2,19,70,0,1
216281,-90.9090909090909,4,2,19,70,0,1
216457,-90.9090909090909,4,2,31,70,0,1
216634,-90.9090909090909,4,2,19,70,0,1
216810,-90.9090909090909,4,2,19,70,0,1
217163,-90.9090909090909,4,2,30,70,0,1
217340,-90.9090909090909,4,2,12,70,0,1
217428,-90.9090909090909,4,2,18,70,0,1
217693,-90.9090909090909,4,2,12,70,0,1
217869,-90.9090909090909,4,2,31,70,0,1
218046,-90.9090909090909,4,2,12,70,0,1
218222,-90.9090909090909,4,2,4,70,0,1
218398,-90.9090909090909,4,2,4,70,0,1
218575,-90.9090909090909,4,2,31,70,0,1
218751,-90.9090909090909,4,2,19,70,0,1
218928,-90.9090909090909,4,2,19,70,0,1
219104,-90.9090909090909,4,2,19,70,0,1
219281,-90.9090909090909,4,2,30,70,0,1
219546,-90.9090909090909,4,2,30,70,0,1
219634,-90.9090909090909,4,2,19,70,0,1
219987,-90.9090909090909,4,2,30,70,0,1
220163,-90.9090909090909,4,2,19,70,0,1
220340,-90.9090909090909,4,2,19,70,0,1
220516,-90.9090909090909,4,2,19,70,0,1
220693,-90.9090909090909,4,2,30,70,0,1
220869,-90.9090909090909,4,2,4,70,0,1
221046,-90.9090909090909,4,2,4,70,0,1
221222,-90.9090909090909,4,2,4,70,0,1
221398,-90.9090909090909,4,2,30,70,0,1
221575,-90.9090909090909,4,2,1,70,0,1
221751,-90.9090909090909,4,2,30,70,0,1
221928,-90.9090909090909,4,2,1,70,0,1
222104,-90.9090909090909,4,2,31,70,0,1
222193,-90.9090909090909,4,2,31,70,0,1
222457,-90.9090909090909,4,2,19,70,0,1
222810,-90.9090909090909,4,2,30,70,0,1
222987,-90.9090909090909,4,2,12,70,0,1
223075,-90.9090909090909,4,2,18,70,0,1
223340,-90.9090909090909,4,2,12,70,0,1
223516,-90.9090909090909,4,2,31,70,0,1
223693,-90.9090909090909,4,2,12,70,0,1
223869,-90.9090909090909,4,2,4,70,0,1
224046,-90.9090909090909,4,2,4,70,0,1
224222,-90.9090909090909,4,2,30,70,0,1
224398,-90.9090909090909,4,2,19,70,0,1
224575,-90.9090909090909,4,2,19,70,0,1
224751,-90.9090909090909,4,2,19,70,0,1
224928,-90.9090909090909,4,2,31,70,0,1
225104,-90.9090909090909,4,2,1,70,0,1
225281,-90.9090909090909,4,2,19,70,0,1
225634,-90.9090909090909,4,2,30,70,0,1
225810,-90.9090909090909,4,2,12,70,0,1
225898,-90.9090909090909,4,2,18,70,0,1
226163,-90.9090909090909,4,2,12,70,0,1
226340,-90.9090909090909,4,2,31,70,0,1
226516,-90.9090909090909,4,2,12,70,0,1
226693,-90.9090909090909,4,2,4,70,0,1
226869,-90.9090909090909,4,2,4,70,0,1
227046,-90.9090909090909,4,2,30,70,0,1
227222,-90.9090909090909,4,2,1,70,0,1
227310,-90.9090909090909,4,2,1,70,0,1
227398,-90.9090909090909,4,2,32,70,0,1
227575,-90.9090909090909,4,2,18,70,0,1
227751,-90.9090909090909,4,2,18,70,0,1
227840,-90.9090909090909,4,2,18,70,0,1
228106,-100,4,2,20,70,0,0
228457,-100,4,2,24,70,0,0
228634,-100,4,2,12,70,0,0
228810,-100,4,2,1,70,0,0
228987,-100,4,2,12,70,0,0
229340,-100,4,2,12,70,0,0
229693,-100,4,2,12,70,0,0
229869,-100,4,2,27,70,0,0
230222,-100,4,2,1,70,0,0
230928,-100,4,2,29,70,0,0
231281,-100,4,2,29,70,0,0
231457,-100,4,2,29,70,0,0
231810,-100,4,2,29,70,0,0
231987,-100,4,2,29,70,0,0
232693,-100,4,2,29,70,0,0
233751,-100,4,2,1,65,0,0
233928,-100,4,2,17,65,0,0
234104,-100,4,2,18,65,0,0
234281,-100,4,2,2,65,0,0
234457,-100,4,2,3,65,0,0
234634,-100,4,2,2,65,0,0
234810,-100,4,2,19,65,0,0
234987,-100,4,2,4,65,0,0
235163,-100,4,2,2,65,0,0
235340,-100,4,2,5,65,0,0
235516,-100,4,2,20,65,0,0
235693,-100,4,2,5,65,0,0
235781,-100,4,2,1,65,0,0
235869,-100,4,2,6,65,0,0
236046,-100,4,2,5,65,0,0
236222,-100,4,2,20,65,0,0
236398,-100,4,2,5,65,0,0
236575,-100,4,2,7,65,0,0
236751,-100,4,2,17,65,0,0
236928,-100,4,2,18,65,0,0
237104,-100,4,2,2,65,0,0
237193,-100,4,2,1,65,0,0
237281,-100,4,2,3,65,0,0
237457,-100,4,2,2,65,0,0
237634,-100,4,2,19,65,0,0
237810,-100,4,2,4,65,0,0
237987,-100,4,2,2,65,0,0
238163,-100,4,2,8,65,0,0
238340,-100,4,2,21,65,0,0
238516,-100,4,2,8,65,0,0
238604,-100,4,2,1,65,0,0
238693,-100,4,2,9,65,0,0
238869,-100,4,2,8,65,0,0
239046,-100,4,2,21,65,0,0
239222,-100,4,2,8,65,0,0
239398,-100,4,2,7,65,0,0
239575,-100,4,2,17,65,0,0
239751,-100,4,2,18,65,0,0
239928,-100,4,2,2,65,0,0
240104,-100,4,2,3,65,0,0
240281,-100,4,2,2,65,0,0
240457,-100,4,2,19,65,0,0
240634,-100,4,2,4,65,0,0
240810,-100,4,2,2,65,0,0
240987,-100,4,2,5,65,0,0
241163,-100,4,2,20,65,0,0
241340,-100,4,2,5,65,0,0
241428,-100,4,2,1,65,0,0
241516,-100,4,2,6,65,0,0
241693,-100,4,2,5,65,0,0
241869,-100,4,2,20,65,0,0
242046,-100,4,2,5,65,0,0
242398,-100,4,2,17,65,0,0
242575,-100,4,2,17,65,0,0
242751,-100,4,2,23,65,0,0
242928,-100,4,2,39,65,0,0
243104,-100,4,2,40,65,0,0
243457,-500,4,2,24,45,0,0
250693,-500,4,2,24,45,0,0

[Colours]
Combo1 : 247,247,51
Combo2 : 237,61,61
Combo3 : 255,128,0

[HitObjects]
75,27,636,5,2,2:2:0:0:
75,27,812,2,0,P|38:72|47:148,1,125.999996154785,2|2,2:2|2:2,0:0:0:0:
119,213,1342,2,0,P|167:197|250:177,1,125.999996154785,2|2,2:2|2:2,0:0:0:0:
510,331,2048,6,0,P|447:337|397:298,1,125.999996154785,2|0,2:2|0:0,0:0:0:0:
319,235,2577,2,0,L|304:297,1,62.9999980773926,2|2,2:2|2:2,0:0:0:0:
423,198,2930,2,0,P|410:137|398:74,1,125.999996154785,2|2,2:2|2:2,0:0:0:0:
256,2,3636,5,2,2:2:0:0:
136,75,3989,1,2,2:2:0:0:
238,185,4342,2,0,L|224:251,1,62.9999980773926,2|2,2:2|2:2,0:0:0:0:
261,349,4695,6,0,B|219:326|177:357|177:357|160:288|93:288,1,188.999994232178,2|0,2:2|0:0,0:0:0:0:
36,358,5400,1,2,2:2:0:0:
17,185,5753,2,0,P|79:193|140:132,1,125.999996154785,2|2,2:2|2:2,0:0:0:0:
419,248,6459,6,0,P|368:212|307:220,1,125.999996154785,2|2,2:2|2:2,0:0:0:0:
201,263,6989,2,0,P|215:201|226:139,1,125.999996154785,2|2,2:2|2:2,0:0:0:0:
434,11,7695,6,0,P|485:42|476:112,1,125.999996154785,2|0,2:2|0:0,0:0:0:0:
431,175,8224,1,2,2:2:0:0:
431,175,8577,2,0,P|368:179|307:207,1,125.999996154785,2|2,2:2|2:2,0:0:0:0:
69,341,9283,6,0,P|130:336|174:378,2,125.999996154785,2|2|2,2:2|2:2|2:2,0:0:0:0:
218,135,10342,6,0,B|204:208|260:192|248:275,1,144,2|2,2:2|2:2,0:0:0:0:
338,384,11400,1,2,2:2:0:0:
256,192,11577,12,0,14224,0:0:0:0:
512,40,14930,6,0,P|446:99|356:76,1,180,14|10,2:1|2:2,0:0:0:0:
237,171,15459,1,2,2:1:0:0:
237,171,15548,1,8,2:1:0:0:
237,171,15636,2,0,P|230:126|213:76,1,90,10|10,2:1|2:1,0:0:0:0:
379,218,15989,5,10,2:2:0:0:
263,337,16165,2,0,P|328:330|382:368,1,135,10|0,2:1|0:0,0:0:0:0:
393,376,16518,1,10,2:1:0:0:
310,141,16695,5,10,2:2:0:0:
473,286,16871,1,2,2:1:0:0:
473,286,16959,1,8,2:2:0:0:
473,286,17048,1,10,2:1:0:0:
419,89,17224,1,10,2:1:0:0:
273,245,17400,2,0,P|217:234|161:206,1,90,10|10,2:2|2:1,0:0:0:0:
139,144,17665,5,0,0:0:0:0:
127,138,17753,2,0,P|84:187|92:269,1,135,14|0,2:1|0:0,0:0:0:0:
93,270,18106,1,10,2:2:0:0:
240,375,18283,1,2,2:1:0:0:
240,375,18371,1,8,2:2:0:0:
240,375,18459,2,0,P|297:355|347:353,1,90,10|10,2:1|2:1,0:0:0:0:
449,127,18812,5,10,2:2:0:0:
512,275,18989,2,0,P|441:266|380:246,1,135,10|0,2:1|0:0,0:0:0:0:
369,235,19342,1,10,2:1:0:0:
180,152,19518,1,10,2:2:0:0:
331,66,19695,1,2,2:1:0:0:
331,66,19783,1,8,2:2:0:0:
331,66,19871,5,10,2:1:0:0:
213,293,20048,1,10,2:1:0:0:
114,54,20224,1,10,2:2:0:0:
283,208,20400,1,10,2:1:0:0:
0,145,20577,6,0,P|68:198|154:181,1,180,14|10,2:1|2:2,0:0:0:0:
268,26,21106,1,2,2:1:0:0:
268,26,21195,1,8,2:1:0:0:
268,26,21283,2,0,P|280:87|284:129,1,90,10|10,2:1|2:1,0:0:0:0:
296,293,21636,5,14,2:2:0:0:
512,210,21812,2,0,P|456:174|391:188,1,135,10|0,2:1|0:0,0:0:0:0:
381,198,22165,1,10,2:1:0:0:
420,384,22342,2,0,P|430:326|445:281,1,90,10|2,2:2|2:1,0:0:0:0:
439,296,22606,1,8,2:2:0:0:
439,296,22695,1,10,2:1:0:0:
341,84,22871,5,10,2:1:0:0:
512,210,23048,1,10,2:2:0:0:
301,321,23224,1,10,2:1:0:0:
388,201,23400,1,8,2:1:0:0:
203,41,23577,6,0,B|163:60|116:68,1,90,14|0,2:2|0:0,0:0:0:0:
206,278,23930,1,10,2:1:0:0:
24,158,24106,2,0,B|69:165|109:184,1,90,14|0,2:2|0:0,0:0:0:0:
324,78,24459,1,10,2:1:0:0:
206,278,24636,6,0,P|246:221|232:143,1,144,14|2,2:1|2:2,0:0:0:0:
100,282,25165,2,0,P|113:315|119:350,2,72,2|2|2,2:2|2:2|2:2,0:0:0:0:
41,83,26224,6,0,B|108:71|185:59|185:59|211:89|261:89,1,225,14|0,2:1|0:0,0:0:0:0:
389,56,27283,1,2,2:2:0:0:
312,12,27459,1,2,2:2:0:0:
312,12,27548,1,2,0:0:0:0:
312,12,27636,2,0,P|293:99|276:188,1,180,10|2,2:1|2:3,0:0:0:0:
257,268,28518,5,2,2:2:0:0:
257,268,28695,1,2,2:2:0:0:
177,231,28871,2,0,P|173:209|169:187,1,45,2|10,2:2|2:1,0:0:0:0:
31,149,29224,5,2,2:2:0:0:
31,149,29401,1,2,2:2:0:0:
111,112,29577,2,0,P|115:90|119:68,1,45,2|2,2:2|2:3,0:0:0:0:
210,4,29930,2,0,P|254:12|298:20,1,90,2|2,2:2|2:2,0:0:0:0:
381,57,30459,5,10,2:1:0:0:
360,141,30636,2,0,P|364:163|368:185,1,45,2|2,2:2|2:3,0:0:0:0:
456,206,30989,2,0,P|452:184|448:162,1,45,2|2,2:2|2:3,0:0:0:0:
512,89,31342,2,0,P|490:85|468:81,1,45,2|2,2:2|2:2,0:0:0:0:
379,25,31695,1,2,2:2:0:0:
326,134,31871,6,0,B|258:159|213:120|238:107|182:58|122:89,1,225,10|0,2:1|0:0,0:0:0:0:
0,127,32930,2,0,P|4:104|9:78,1,45,2|2,2:2|2:2,0:0:0:0:
105,0,33283,2,0,P|88:82|70:188,1,180,10|2,2:1|2:3,0:0:0:0:
104,275,34165,5,2,2:2:0:0:
184,307,34342,1,2,2:2:0:0:
248,247,34518,2,0,P|251:224|255:202,1,45,2|10,2:2|2:1,0:0:0:0:
423,146,34871,5,2,2:2:0:0:
343,178,35048,1,2,2:2:0:0:
279,118,35224,2,0,P|276:95|272:73,1,45,2|2,2:2|2:3,0:0:0:0:
362,7,35577,2,0,P|365:30|369:52,1,45,2|2,2:2|2:3,0:0:0:0:
501,184,35930,5,14,2:1:0:0:
80,158,36636,5,10,2:2:0:0:
80,158,36724,1,8,2:2:0:0:
80,158,36812,1,8,2:2:0:0:
204,295,36989,1,10,2:1:0:0:
360,91,37165,1,8,2:2:0:0:
323,107,37253,1,8,2:3:0:0:
282,107,37342,1,4,2:3:0:0:
244,93,37430,1,8,2:3:0:0:
214,65,37518,5,14,2:1:0:0:
101,258,37695,1,2,2:2:0:0:
2,83,37871,1,10,2:2:0:0:
180,195,38048,1,2,2:2:0:0:
180,195,38136,1,2,0:0:0:0:
180,195,38224,1,10,2:1:0:0:
12,331,38400,2,0,P|54:337|104:359,1,90,2|8,2:2|2:2,0:0:0:0:
293,212,38753,6,0,P|299:170|321:120,1,90,2|8,2:2|2:1,0:0:0:0:
150,60,39106,1,2,2:2:0:0:
368,3,39283,1,10,2:2:0:0:
203,164,39459,1,10,2:1:0:0:
203,164,39548,1,8,2:2:0:0:
203,164,39636,1,10,2:1:0:0:
389,288,39812,2,0,P|347:294|297:316,1,90,10|8,2:1|2:2,0:0:0:0:
103,157,40165,6,0,P|162:166|196:270,1,180,2|2,2:2|2:2,0:0:0:0:
0,195,40695,2,0,P|17:153|24:109,1,90,10|2,2:2|2:2,0:0:0:0:
233,43,41048,1,10,2:1:0:0:
117,249,41224,1,2,2:2:0:0:
117,249,41312,1,2,0:0:0:0:
117,249,41400,1,8,2:2:0:0:
0,19,41577,6,0,P|68:9|132:69,1,135,2|0,2:2|0:0,0:0:0:0:
102,141,41930,2,0,P|143:123|187:116,1,90,2|8,2:2|2:2,0:0:0:0:
355,176,42283,1,10,2:1:0:0:
355,176,42371,1,8,2:2:0:0:
355,176,42459,1,8,2:1:0:0:
211,9,42636,1,10,2:1:0:0:
270,238,42812,1,10,2:2:0:0:
457,63,42989,5,10,2:1:0:0:
457,63,43077,1,8,2:1:0:0:
457,63,43165,2,0,P|372:80|307:22,2,180,10|8|8,2:1|2:2|2:1,0:0:0:0:
264,154,44048,1,2,2:3:0:0:
449,285,44224,1,10,2:2:0:0:
349,169,44400,5,2,2:2:0:0:
349,169,44489,1,2,0:0:0:0:
349,169,44577,2,0,P|360:214|370:262,1,90,8|2,2:1|2:3,0:0:0:0:
193,322,44930,2,0,P|181:276|171:228,1,90,8|10,2:2|2:1,0:0:0:0:
174,215,45195,1,8,2:2:0:0:
174,215,45283,1,8,2:1:0:0:
289,383,45459,1,10,2:1:0:0:
82,337,45636,1,8,2:2:0:0:
249,158,45812,5,10,2:1:0:0:
249,158,45900,1,8,2:1:0:0:
249,158,45989,1,12,2:1:0:0:
176,349,46165,1,2,2:2:0:0:
31,160,46342,1,10,2:2:0:0:
262,256,46518,5,2,2:2:0:0:
262,256,46606,1,8,2:1:0:0:
262,256,46695,1,10,2:1:0:0:
312,41,46871,1,10,2:1:0:0:
130,150,47048,1,10,2:2:0:0:
302,341,47224,6,0,P|349:297|453:312,1,148.50000453186,14|0,2:1|0:0,0:0:0:0:
452,308,47577,1,10,2:2:0:0:
512,248,47753,1,10,2:2:0:0:
491,167,47930,1,8,2:1:0:0:
411,145,48106,1,8,2:2:0:0:
352,204,48283,1,8,2:1:0:0:
272,183,48459,1,8,2:1:0:0:
13,229,48636,5,8,2:1:0:0:
13,229,48724,1,8,2:1:0:0:
13,229,48812,2,0,P|12:159|72:108,1,144,14|2,2:1|2:2,0:0:0:0:
184,181,49342,2,0,P|150:194|114:198,1,72,10|10,2:1|2:2,0:0:0:0:
216,280,49695,2,0,P|252:284|286:298,1,72,2|2,2:2|2:3,0:0:0:0:
434,244,50048,6,0,P|383:194|310:204,1,144,10|10,2:1|2:1,0:0:0:0:
225,145,50577,2,0,P|240:70|242:-3,1,144,10|10,2:1|2:2,0:0:0:0:
143,70,51106,1,8,2:1:0:0:
314,201,51283,1,2,2:2:0:0:
179,304,51459,5,10,2:1:0:0:
179,304,51548,1,8,2:1:0:0:
179,304,51636,2,0,P|99:311|24:271,1,144,14|2,2:1|2:3,0:0:0:0:
0,158,52165,1,10,2:1:0:0:
129,212,52342,1,10,2:2:0:0:
111,43,52518,2,0,P|98:97|93:125,1,72,10|10,2:2|2:1,0:0:0:0:
227,235,52871,6,0,B|280:221|280:221|324:233|324:233|391:216,1,144,14|10,2:1|2:2,0:0:0:0:
466,76,53400,2,0,P|405:71|370:107,1,108,10|0,2:1|0:0,0:0:0:0:
361,116,53753,2,0,P|325:108|291:98,1,72,10|8,2:2|2:1,0:0:0:0:
163,8,54106,5,10,2:2:0:0:
130,31,54194,1,8,2:2:0:0:
115,68,54282,1,8,2:2:0:0:
120,108,54371,1,8,2:2:0:0:
142,141,54459,6,0,P|181:148|230:164,1,80.9999975280763,14|0,2:1|0:0,0:0:0:0:
343,328,54812,2,0,P|303:335|256:352,1,80.9999975280763,10|0,2:2|0:0,0:0:0:0:
143,273,55165,1,10,2:1:0:0:
330,222,55342,1,8,2:1:0:0:
241,82,55518,2,0,P|225:133|217:177,1,80.9999975280763,10|0,2:2|0:0,0:0:0:0:
48,316,55871,6,0,P|43:237|110:185,1,161.999995056153,14|10,2:1|2:2,0:0:0:0:
270,361,56400,1,8,2:1:0:0:
270,361,56489,1,8,2:2:0:0:
270,361,56577,1,10,2:2:0:0:
219,159,56753,1,8,2:1:0:0:
141,273,56930,1,10,2:2:0:0:
358,206,57107,5,8,2:1:0:0:
358,206,57195,1,8,2:1:0:0:
358,206,57283,2,0,P|408:218|447:229,1,80.9999975280763,14|0,2:1|0:0,0:0:0:0:
383,104,57636,1,10,2:2:0:0:
512,290,57812,6,0,P|464:325|405:322,1,121.499996292114,14|0,2:1|0:0,0:0:0:0:
394,328,58165,1,10,2:1:0:0:
250,171,58342,1,10,2:2:0:0:
206,371,58518,5,10,2:2:0:0:
199,384,58871,5,10,2:2:0:0:
430,177,59048,1,10,2:2:0:0:
430,177,59930,6,0,P|420:201|414:232,1,40.4999987640381,2|8,2:2|2:1,0:0:0:0:
502,365,60106,2,0,P|440:318|361:338,1,148.50000453186,14|0,2:1|0:0,0:0:0:0:
351,346,60459,1,10,2:2:0:0:
246,150,60636,2,0,P|305:175|344:182,1,99.0000030212403,2|10,2:1|2:1,0:0:0:0:
461,289,60989,1,10,2:1:0:0:
346,71,61165,1,10,2:2:0:0:
251,262,61342,6,0,P|162:271|91:181,1,198.000006042481,10|8,2:1|2:1,0:0:0:0:
20,79,61871,2,0,P|72:72|123:49,1,99.0000030212403,10|10,2:2|2:1,0:0:0:0:
114,54,62136,1,8,2:2:0:0:
114,54,62224,1,10,2:1:0:0:
313,199,62400,1,8,2:1:0:0:
272,11,62577,2,0,P|249:66|244:132,1,99.0000030212403,10|0,2:2|0:0,0:0:0:0:
396,297,62930,6,0,P|327:292|252:345,1,148.50000453186,14|0,2:1|0:0,0:0:0:0:
245,353,63283,1,10,2:2:0:0:
142,120,63459,1,8,2:1:0:0:
142,120,63548,1,8,2:2:0:0:
142,120,63636,1,10,2:1:0:0:
308,251,63812,1,8,2:1:0:0:
415,6,63989,5,10,2:2:0:0:
324,131,64165,2,0,B|385:143|425:192|425:192|469:163|513:165,1,198.000006042481,8|8,2:1|2:1,0:0:0:0:
308,251,64695,2,0,P|259:258|214:279,1,99.0000030212403,10|8,2:2|2:1,0:0:0:0:
198,305,64959,1,8,2:2:0:0:
198,305,65048,1,10,2:1:0:0:
101,84,65224,1,8,2:1:0:0:
0,235,65400,2,0,P|48:228|93:207,1,99.0000030212403,10|8,2:2|2:1,0:0:0:0:
314,18,65753,6,0,P|297:65|293:114,1,99.0000030212403,14|0,2:1|0:0,0:0:0:0:
182,46,66106,1,10,2:2:0:0:
357,222,66283,1,10,2:1:0:0:
357,222,66371,1,8,2:2:0:0:
357,222,66459,1,10,2:1:0:0:
163,314,66636,1,10,2:1:0:0:
291,115,66812,1,10,2:2:0:0:
431,337,66989,6,0,P|336:320|264:386,1,198.000006042481,10|8,2:1|2:1,0:0:0:0:
212,180,67518,1,10,2:2:0:0:
59,333,67695,1,8,2:1:0:0:
59,333,67783,1,8,2:2:0:0:
59,333,67871,1,10,2:1:0:0:
153,66,68048,1,8,2:1:0:0:
291,254,68224,2,0,P|337:239|401:233,1,99.0000030212403,10|0,2:2|0:0,0:0:0:0:
113,163,68577,6,0,P|64:154|17:138,1,99.0000030212403,14|0,2:1|0:0,0:0:0:0:
289,8,68930,2,0,P|269:65|261:108,1,99.0000030212403,10|8,2:2|2:1,0:0:0:0:
256,124,69195,1,8,2:2:0:0:
256,124,69283,1,10,2:1:0:0:
365,347,69459,1,8,2:1:0:0:
197,211,69636,5,10,2:2:0:0:
91,272,69812,2,0,P|166:333|266:315,1,198.000006042481,12|8,2:1|2:1,0:0:0:0:
460,59,70342,5,10,2:2:0:0:
197,211,70518,1,8,2:1:0:0:
414,302,70695,1,10,2:2:0:0:
309,20,70871,1,8,2:1:0:0:
108,159,71048,5,10,2:2:0:0:
138,126,71136,1,8,2:2:0:0:
179,110,71224,1,8,2:2:0:0:
222,112,71312,1,8,2:2:0:0:
262,129,71400,2,0,P|317:153|369:157,1,99.0000030212403,14|0,2:1|0:0,0:0:0:0:
295,262,71753,5,10,2:2:0:0:
408,75,71930,1,2,2:1:0:0:
408,75,72018,1,8,2:2:0:0:
408,75,72106,1,10,2:1:0:0:
512,252,72283,2,0,P|463:259|418:280,1,99.0000030212403,10|10,2:1|2:2,0:0:0:0:
152,302,72636,6,0,P|217:371|318:359,1,198.000006042481,14|8,2:1|2:1,0:0:0:0:
284,158,73165,2,0,P|263:222|251:267,1,99.0000030212403,10|8,2:2|2:1,0:0:0:0:
260,271,73430,1,8,2:2:0:0:
260,271,73518,1,10,2:1:0:0:
186,75,73695,1,8,2:1:0:0:
389,227,73871,1,10,2:2:0:0:
313,6,74048,1,2,2:2:0:0:
148,201,74224,6,0,P|93:185|25:172,1,99.0000030212403,14|0,2:1|0:0,0:0:0:0:
264,266,74577,1,10,2:2:0:0:
119,363,74754,1,10,2:1:0:0:
119,363,74842,1,8,2:2:0:0:
119,363,74930,1,10,2:1:0:0:
254,157,75106,1,10,2:1:0:0:
346,384,75283,1,10,2:2:0:0:
148,201,75459,6,0,P|136:134|238:52,1,198.000006042481,14|8,2:1|2:1,0:0:0:0:
512,153,75989,2,0,P|445:185|372:195,1,148.50000453186,10|8,2:2|2:2,0:0:0:0:
359,204,76342,5,10,2:2:0:0:
407,313,76518,1,8,2:1:0:0:
215,234,76695,1,10,2:1:0:0:
297,128,76871,1,0,0:0:0:0:
264,344,77048,6,0,P|196:358|110:273,1,180,14|2,2:1|2:2,0:0:0:0:
16,186,77577,2,0,P|60:177|117:151,1,90,10|8,2:1|2:2,0:0:0:0:
223,250,77930,1,10,2:1:0:0:
173,32,78106,1,0,0:0:0:0:
306,178,78283,6,0,P|382:167|444:222,1,135,14|8,2:1|2:1,0:0:0:0:
461,329,78812,1,10,2:2:0:0:
512,129,78989,1,0,0:0:0:0:
358,270,79165,1,10,2:2:0:0:
358,270,79342,1,8,2:1:0:0:
245,38,79518,1,10,2:2:0:0:
245,38,79606,1,8,2:2:0:0:
245,38,79695,1,8,2:2:0:0:
362,95,79871,5,10,2:2:0:0:
219,367,80048,1,10,2:2:0:0:
211,379,80400,5,10,2:2:0:0:
89,116,80577,1,8,2:2:0:0:
81,101,80930,5,8,2:2:0:0:
440,243,81106,1,10,2:2:0:0:
430,252,82695,6,0,B|365:267|365:267|325:304|325:304|245:324,1,180,14|10,2:1|2:2,0:0:0:0:
115,226,83224,1,10,2:1:0:0:
115,226,83313,1,8,2:1:0:0:
114,225,83400,2,0,P|124:268|134:312,1,90,10|10,2:1|2:1,0:0:0:0:
285,183,83754,1,10,2:2:0:0:
118,72,83930,6,0,P|183:79|237:41,1,135,10|0,2:1|0:0,0:0:0:0:
249,21,84283,1,10,2:1:0:0:
214,236,84459,5,10,2:2:0:0:
414,159,84636,1,10,2:1:0:0:
414,159,84724,1,8,2:2:0:0:
414,159,84813,1,10,2:1:0:0:
249,21,84989,1,10,2:1:0:0:
310,206,85165,2,0,P|299:249|289:293,1,90,10|10,2:2|2:1,0:0:0:0:
364,320,85430,5,8,1:1:0:0:
370,332,85518,2,0,P|321:375|239:367,1,135,14|0,2:1|0:0,0:0:0:0:
43,273,85871,1,10,2:2:0:0:
193,148,86048,1,10,2:1:0:0:
193,148,86136,1,8,2:2:0:0:
193,148,86224,2,0,P|203:191|213:235,1,90,10|10,2:1|2:1,0:0:0:0:
79,374,86577,5,10,2:2:0:0:
6,184,86753,2,0,P|72:183|121:226,1,135,10|0,2:1|0:0,0:0:0:0:
128,247,87106,1,10,2:1:0:0:
280,120,87283,1,10,2:2:0:0:
109,18,87460,1,10,2:1:0:0:
109,18,87548,1,8,2:2:0:0:
109,18,87636,5,10,2:1:0:0:
213,182,87813,1,10,2:1:0:0:
335,0,87989,1,10,2:2:0:0:
145,124,88165,1,10,2:1:0:0:
328,266,88342,6,0,P|347:171|373:89,1,180,14|10,2:1|2:2,0:0:0:0:
210,0,88871,1,10,2:1:0:0:
210,0,88960,1,8,2:1:0:0:
210,0,89048,2,0,P|223:43|231:87,1,90,10|10,2:1|2:1,0:0:0:0:
379,199,89401,5,14,2:2:0:0:
493,29,89577,2,0,P|426:28|377:71,1,135,10|0,2:1|0:0,0:0:0:0:
372,91,89930,1,10,2:1:0:0:
481,259,90106,2,0,P|489:214|502:171,1,90,10|10,2:2|2:1,0:0:0:0:
502,171,90371,1,8,2:2:0:0:
502,171,90459,1,10,2:1:0:0:
334,299,90636,5,10,2:1:0:0:
250,82,90813,1,10,2:2:0:0:
396,218,90989,1,10,2:1:0:0:
268,206,91165,1,8,2:1:0:0:
180,379,91342,6,0,P|136:365|92:357,1,90,14|0,2:2|0:0,0:0:0:0:
182,147,91695,1,10,2:1:0:0:
0,262,91871,2,0,P|44:253|87:240,1,90,14|0,2:2|0:0,0:0:0:0:
259,342,92224,1,10,2:1:0:0:
182,147,92400,2,0,P|224:199|207:275,1,144,14|2,2:1|2:2,0:0:0:0:
76,143,92930,2,0,P|86:108|93:73,2,72,2|2|2,2:2|2:2|2:2,0:0:0:0:
487,82,93989,6,0,B|435:77|386:125|386:125|363:60|311:50,1,225,10|0,2:1|0:0,0:0:0:0:
202,29,95048,1,2,2:2:0:0:
255,151,95224,5,2,2:2:0:0:
255,151,95312,1,2,0:0:0:0:
255,151,95400,2,0,P|315:82|414:71,1,180
426,192,96283,5,2,2:2:0:0:
426,192,96459,1,2,2:2:0:0:
348,225,96636,2,0,L|338:279,1,45,2|0,2:2|0:0,0:0:0:0:
171,248,96989,5,2,2:2:0:0:
171,248,97165,1,2,2:2:0:0:
249,281,97342,2,0,L|259:335,1,45,2|0,2:2|0:0,0:0:0:0:
340,370,97695,1,2,2:2:0:0:
407,307,97871,1,2,2:2:0:0:
348,225,98048,6,0,P|392:217|456:211,2,90,2|2|2,2:2|2:2|2:2,0:0:0:0:
459,91,99106,1,2,2:2:0:0:
459,91,99283,1,2,2:2:0:0:
315,23,99459,5,2,2:2:0:0:
315,23,99548,1,2,0:0:0:0:
315,23,99636,2,0,B|223:0|234:62|140:42,1,180,2|0,2:2|0:0,0:0:0:0:
57,0,100518,2,0,P|51:24|47:49,1,45,2|2,2:2|2:2,0:0:0:0:
0,196,100871,5,2,2:2:0:0:
0,196,100959,1,2,0:0:0:0:
0,196,101048,2,0,P|52:134|153:133,1,180
205,197,101930,1,2,2:2:0:0:
291,172,102106,1,2,2:2:0:0:
301,84,102283,1,10,2:1:0:0:
301,84,102371,1,8,2:1:0:0:
301,84,102459,5,12,2:2:0:0:
301,84,102812,1,10,2:2:0:0:
415,297,102989,1,10,2:2:0:0:
183,210,103165,1,8,2:2:0:0:
419,70,103342,1,10,2:2:0:0:
278,286,103518,1,8,2:2:0:0:
185,23,103695,1,10,2:1:0:0:
377,212,104400,5,10,2:2:0:0:
377,212,104489,1,8,2:2:0:0:
377,212,104577,1,8,2:2:0:0:
199,323,104754,5,10,2:1:0:0:
169,293,104842,1,8,2:3:0:0:
133,277,104929,1,8,2:2:0:0:
92,275,105018,1,8,2:3:0:0:
54,290,105106,2,0,P|47:315|40:340,1,40.4999987640381,4|8,2:3|2:3,0:0:0:0:
180,195,105283,5,14,2:1:0:0:
117,384,105459,1,2,2:2:0:0:
273,251,105636,1,10,2:2:0:0:
90,153,105812,1,2,2:2:0:0:
251,30,105989,5,10,2:1:0:0:
364,121,106165,2,0,P|320:126|274:142,1,90,2|8,2:2|2:2,0:0:0:0:
131,8,106518,6,0,P|145:50|150:95,1,90,2|8,2:2|2:1,0:0:0:0:
68,286,106871,1,2,2:2:0:0:
197,179,107048,1,10,2:2:0:0:
36,59,107224,1,10,2:1:0:0:
36,59,107312,1,8,2:2:0:0:
36,59,107400,5,10,2:1:0:0:
0,203,107577,2,0,P|45:188|95:182,1,90,10|8,2:1|2:2,0:0:0:0:
336,93,107930,6,0,P|272:40|172:70,1,180,2|2,2:2|2:2,0:0:0:0:
133,263,108459,1,10,2:2:0:0:
251,143,108636,1,10,2:2:0:0:
251,143,108724,1,8,2:1:0:0:
251,143,108812,1,10,2:1:0:0:
334,298,108989,2,0,P|318:336|308:395,1,90,2|8,2:2|2:2,0:0:0:0:
133,263,109342,6,0,P|185:255|227:241,1,90,2|8,2:2|2:1,0:0:0:0:
403,192,109695,1,2,2:2:0:0:
249,112,109871,1,8,2:2:0:0:
334,298,110048,2,0,P|378:299|421:312,1,90,10|8,2:1|2:1,0:0:0:0:
333,67,110400,5,10,2:1:0:0:
220,243,110577,1,10,2:2:0:0:
403,192,110753,1,10,2:1:0:0:
227,37,110930,6,0,P|135:22|74:87,1,180,10|8,2:1|2:2,0:0:0:0:
13,192,111459,1,10,2:3:0:0:
13,192,111548,1,8,2:1:0:0:
13,192,111636,2,0,P|62:202|115:224,1,90,8|2,2:1|2:3,0:0:0:0:
304,153,111989,1,10,2:2:0:0:
233,301,112165,6,0,P|224:256|211:211,1,90,2|8,2:2|2:1,0:0:0:0:
417,108,112518,2,0,P|403:151|395:195,1,90,2|8,2:3|2:2,0:0:0:0:
236,45,112871,1,10,2:1:0:0:
236,45,112959,1,8,2:2:0:0:
236,45,113048,1,8,2:1:0:0:
102,247,113224,1,10,2:1:0:0:
298,134,113400,1,8,2:2:0:0:
112,32,113577,5,10,2:1:0:0:
112,32,113665,1,8,2:1:0:0:
112,32,113753,1,12,2:1:0:0:
234,221,113930,1,2,2:2:0:0:
56,150,114106,1,10,2:2:0:0:
184,339,114283,5,10,2:2:0:0:
184,339,114371,1,8,2:1:0:0:
184,339,114459,1,10,2:1:0:0:
377,217,114636,1,10,2:1:0:0:
203,97,114812,1,10,2:2:0:0:
325,319,114989,6,0,P|393:333|461:273,1,135,14|0,2:1|0:0,0:0:0:0:
456,290,115342,5,10,2:2:0:0:
510,218,115518,1,10,2:2:0:0:
459,137,115695,1,8,2:1:0:0:
355,40,115871,5,8,2:2:0:0:
284,107,116048,1,8,2:1:0:0:
193,84,116224,1,8,2:1:0:0:
189,73,116312,1,8,2:1:0:0:
185,62,116400,1,8,2:1:0:0:
182,51,116489,1,8,2:1:0:0:
178,40,116577,6,0,P|125:78|126:165,1,144,14|2,2:1|2:2,0:0:0:0:
159,276,117106,2,0,P|193:279|229:289,1,72,10|10,2:1|2:2,0:0:0:0:
291,193,117459,2,0,P|255:189|220:179,1,72,2|2,2:2|2:3,0:0:0:0:
320,352,117812,6,0,P|386:362|448:315,1,144,10|10,2:1|2:1,0:0:0:0:
383,189,118342,2,0,P|372:223|368:263,1,72,10|0,2:1|0:0,0:0:0:0:
478,179,118695,1,10,2:2:0:0:
397,81,118871,1,8,2:1:0:0:
290,152,119048,1,2,2:2:0:0:
190,37,119224,5,10,2:1:0:0:
190,37,119312,1,8,2:1:0:0:
190,37,119400,2,0,B|138:25|138:25|95:39|95:39|44:27,1,144,14|2,2:1|2:3,0:0:0:0:
163,136,119930,1,10,2:1:0:0:
0,275,120106,5,10,2:2:0:0:
44,130,120283,2,0,P|59:182|68:216,1,72,10|10,2:2|2:1,0:0:0:0:
218,384,120636,6,0,P|262:329|256:259,1,144,14|10,2:1|2:2,0:0:0:0:
99,284,121165,2,0,P|144:291|176:304,1,72,10|0,2:1|0:0,0:0:0:0:
352,228,121518,1,10,2:2:0:0:
201,175,121695,1,8,2:1:0:0:
315,330,121871,1,10,2:2:0:0:
345,348,121959,1,8,2:2:0:0:
381,346,122048,1,8,2:2:0:0:
415,331,122136,1,8,2:2:0:0:
433,299,122224,6,0,L|452:216,1,80.9999975280763,14|0,2:1|0:0,0:0:0:0:
296,47,122577,2,0,L|315:136,1,80.9999975280763,10|0,2:2|0:0,0:0:0:0:
350,236,122930,1,10,2:1:0:0:
211,176,123106,1,8,2:1:0:0:
402,83,123283,2,0,P|452:98|501:107,1,80.9999975280763,10|0,2:2|0:0,0:0:0:0:
245,284,123636,6,0,P|169:296|97:239,1,161.999995056153,14|10,2:1|2:2,0:0:0:0:
42,99,124165,1,8,2:1:0:0:
42,99,124253,1,8,2:2:0:0:
42,99,124342,1,2,2:2:0:0:
195,208,124518,1,8,2:1:0:0:
8,309,124695,1,10,2:2:0:0:
164,83,124871,5,8,2:1:0:0:
164,83,124959,1,8,2:1:0:0:
164,83,125048,2,0,P|223:94|256:103,1,80.9999975280763,14|0,2:1|0:0,0:0:0:0:
98,225,125400,1,10,2:2:0:0:
286,315,125577,2,0,P|229:309|180:348,1,121.499996292114,14|0,2:1|0:0,0:0:0:0:
170,366,125930,5,10,2:1:0:0:
298,182,126106,1,10,2:2:0:0:
384,368,126283,1,10,2:2:0:0:
393,382,126636,5,10,2:2:0:0:
172,181,126812,1,10,2:2:0:0:
428,12,127342,5,8,2:1:0:0:
491,108,127518,1,8,2:2:0:0:
453,131,127606,1,8,2:2:0:0:
408,134,127695,1,10,2:2:0:0:
365,120,127783,1,8,2:2:0:0:
339,83,127871,6,0,B|284:95|284:95|250:126|250:126|183:143,1,148.50000453186,14|0,2:1|0:0,0:0:0:0:
178,145,128224,1,10,2:2:0:0:
0,261,128400,2,0,P|48:272|95:286,1,99.0000030212403,2|10,2:1|2:1,0:0:0:0:
262,76,128754,1,10,2:1:0:0:
76,172,128930,1,10,2:2:0:0:
306,318,129107,6,0,P|210:311|148:383,1,198.000006042481,10|8,2:1|2:1,0:0:0:0:
283,175,129636,1,10,2:2:0:0:
391,384,129812,1,10,2:1:0:0:
391,384,129901,1,8,2:2:0:0:
391,384,129989,2,0,P|402:336|417:289,1,99.0000030212403,10|8,2:1|2:1,0:0:0:0:
257,79,130342,2,0,P|271:126|282:174,1,99.0000030212403,10|0,2:2|0:0,0:0:0:0:
512,57,130695,6,0,P|438:59|369:9,1,148.50000453186,14|0,2:1|0:0,0:0:0:0:
357,1,131048,1,10,2:2:0:0:
494,195,131224,1,8,2:1:0:0:
494,195,131312,1,8,2:2:0:0:
494,195,131401,1,10,2:1:0:0:
241,278,131577,1,8,2:1:0:0:
373,151,131754,5,10,2:2:0:0:
487,354,131930,2,0,P|428:302|305:325,1,198.000006042481,8|8,2:1|2:1,0:0:0:0:
136,245,132459,2,0,P|147:293|160:350,1,99.0000030212403,10|8,2:2|2:1,0:0:0:0:
168,367,132724,1,8,2:2:0:0:
168,367,132812,1,10,2:1:0:0:
355,128,132989,1,8,2:1:0:0:
107,146,133165,2,0,P|155:156|203:168,1,99.0000030212403,10|8,2:2|2:1,0:0:0:0:
402,18,133518,6,0,P|353:29|305:40,1,99.0000030212403,14|0,2:1|0:0,0:0:0:0:
225,250,133871,1,10,2:2:0:0:
355,128,134048,1,10,2:1:0:0:
355,128,134136,1,8,2:2:0:0:
355,128,134224,1,10,2:1:0:0:
164,34,134401,1,10,2:1:0:0:
305,210,134577,1,10,2:2:0:0:
53,287,134753,6,0,P|112:235|235:258,1,198.000006042481,10|8,2:1|2:1,0:0:0:0:
46,73,135283,1,10,2:2:0:0:
281,14,135459,1,8,2:1:0:0:
281,14,135548,1,8,2:2:0:0:
281,14,135636,1,10,2:1:0:0:
150,141,135813,1,8,2:1:0:0:
332,224,135989,2,0,P|343:175|354:127,1,99.0000030212403,10|0,2:2|0:0,0:0:0:0:
143,275,136342,6,0,P|154:323|165:371,1,99.0000030212403,14|0,2:1|0:0,0:0:0:0:
372,321,136695,2,0,P|323:309|275:298,1,99.0000030212403,10|8,2:2|2:1,0:0:0:0:
249,296,136960,1,8,2:2:0:0:
249,296,137048,1,10,2:1:0:0:
386,118,137224,1,8,2:1:0:0:
189,56,137401,1,10,2:2:0:0:
332,224,137577,6,0,P|391:172|514:195,1,198.000006042481,12|8,2:1|2:1,0:0:0:0:
303,34,138106,5,10,2:2:0:0:
503,186,138283,1,8,2:1:0:0:
249,296,138460,1,10,2:2:0:0:
386,118,138636,5,8,2:2:0:0:
340,137,138724,1,8,2:2:0:0:
290,135,138813,1,10,2:2:0:0:
244,115,138901,1,8,2:2:0:0:
210,78,138989,2,0,P|215:53|221:29,1,49.5000015106202,8|8,2:2|2:2,0:0:0:0:
42,0,139165,6,0,P|53:48|64:96,1,99.0000030212403,14|0,2:1|0:0,0:0:0:0:
229,206,139518,1,10,2:2:0:0:
21,309,139695,1,10,2:1:0:0:
21,309,139783,1,8,2:2:0:0:
21,309,139871,1,10,2:1:0:0:
148,150,140048,2,0,P|136:198|125:246,1,99.0000030212403,10|10,2:1|2:2,0:0:0:0:
310,381,140400,6,0,P|367:319|493:341,1,198.000006042481,14|8,2:1|2:1,0:0:0:0:
399,103,140930,2,0,P|387:151|376:199,1,99.0000030212403,10|8,2:2|2:1,0:0:0:0:
374,229,141195,1,8,2:2:0:0:
374,229,141283,1,10,2:1:0:0:
205,346,141460,1,8,2:1:0:0:
148,150,141636,1,10,2:2:0:0:
321,310,141813,1,2,2:2:0:0:
399,103,141989,6,0,P|447:90|495:79,1,99.0000030212403,14|2,2:1|2:2,0:0:0:0:
274,0,142342,1,10,2:2:0:0:
374,229,142518,1,10,2:1:0:0:
374,229,142607,1,8,2:2:0:0:
374,229,142695,1,10,2:1:0:0:
130,266,142871,1,10,2:1:0:0:
303,122,143048,1,10,2:2:0:0:
136,0,143224,6,0,P|158:96|179:193,1,198.000006042481,14|8,2:1|2:1,0:0:0:0:
4,361,143753,2,0,P|37:294|141:274,1,148.50000453186,10|8,2:2|2:2,0:0:0:0:
130,266,144106,1,10,2:2:0:0:
187,320,144283,1,8,2:1:0:0:
266,313,144460,1,10,2:1:0:0:
398,199,144636,5,8,0:0:0:0:
398,199,144724,1,8,0:0:0:0:
398,199,144812,2,0,B|353:183|339:135|339:135|302:171|247:162,1,180,14|2,2:1|2:2,0:0:0:0:
135,78,145342,2,0,P|178:72|224:64,1,90,10|8,2:1|2:2,0:0:0:0:
366,20,145695,1,10,2:1:0:0:
257,163,145871,1,0,0:0:0:0:
465,245,146048,6,0,P|389:233|334:281,1,135,14|0,2:1|0:0,0:0:0:0:
330,286,146400,1,8,2:1:0:0:
279,349,146577,1,10,2:2:0:0:
197,347,146754,1,8,2:1:0:0:
236,248,146930,1,10,2:2:0:0:
61,214,147106,5,8,2:1:0:0:
93,221,147194,1,8,2:2:0:0:
126,218,147282,1,10,2:2:0:0:
157,203,147371,1,8,2:2:0:0:
180,178,147458,1,8,2:2:0:0:
262,34,147636,5,10,2:2:0:0:
406,269,147813,1,10,2:2:0:0:
403,295,148165,5,10,2:2:0:0:
97,132,148342,1,8,2:2:0:0:
83,114,148695,5,8,2:2:0:0:
438,43,148871,1,10,2:2:0:0:
456,30,149224,5,8,2:2:0:0:
176,323,149400,1,10,2:2:0:0:
257,134,149576,1,10,2:2:0:0:
494,262,150106,5,8,2:2:0:0:
505,281,150195,1,8,2:2:0:0:
512,301,150283,1,8,2:2:0:0:
510,323,150371,1,8,2:2:0:0:
504,347,150459,2,0,P|431:331|358:317,1,148.50000453186,14|0,2:1|0:0,0:0:0:0:
287,384,150812,6,0,P|278:338|264:286,1,99.0000030212403,10|8,2:2|2:1,0:0:0:0:
258,264,151077,1,8,2:1:0:0:
258,264,151165,1,10,2:1:0:0:
165,88,151342,1,8,2:1:0:0:
352,183,151518,1,10,2:2:0:0:
149,319,151695,5,10,2:1:0:0:
149,319,151783,1,10,2:2:0:0:
149,319,151871,1,2,2:2:0:0:
241,184,152048,1,10,2:1:0:0:
419,376,152224,1,10,2:2:0:0:
512,118,152400,5,10,2:1:0:0:
512,118,152489,1,8,2:2:0:0:
512,118,152577,2,0,P|464:128|416:138,1,99.0000030212403,10|10,2:1|2:1,0:0:0:0:
191,20,152930,2,0,P|239:10|287:0,1,99.0000030212403,10|0,2:2|0:0,0:0:0:0:
224,206,153283,5,14,2:1:0:0:
459,260,153459,1,2,2:2:0:0:
326,95,153636,1,10,2:2:0:0:
245,303,153812,5,10,2:1:0:0:
245,303,153900,1,8,2:2:0:0:
245,303,153989,2,0,P|197:293|149:283,1,99.0000030212403,10|10,2:1|2:1,0:0:0:0:
13,140,154342,1,10,2:2:0:0:
191,20,154518,2,0,P|155:55|53:62,1,148.50000453186,10|0,2:1|0:0,0:0:0:0:
36,53,154871,5,10,2:1:0:0:
224,206,155048,1,10,2:2:0:0:
9,323,155224,1,2,2:1:0:0:
9,323,155312,1,8,2:2:0:0:
9,323,155400,1,10,2:1:0:0:
126,168,155577,5,10,2:2:0:0:
272,360,155753,1,10,2:1:0:0:
368,93,155930,1,10,2:2:0:0:
224,206,156106,5,14,2:1:0:0:
224,206,156195,1,2,2:2:0:0:
224,206,156283,2,0,P|248:210|272:216,1,49.5000015106202,2|2,2:2|2:2,0:0:0:0:
464,339,156459,5,10,2:2:0:0:
464,339,156548,1,2,2:2:0:0:
464,339,156636,2,0,P|439:343|415:349,1,49.5000015106202,10|10,2:1|2:2,0:0:0:0:
132,227,156812,5,10,2:1:0:0:
128,184,156900,1,2,2:2:0:0:
144,144,156988,1,10,2:1:0:0:
177,117,157076,1,2,2:2:0:0:
220,109,157165,2,0,P|244:113|268:119,1,49.5000015106202,10|2,2:2|2:2,0:0:0:0:
385,269,157342,2,0,P|408:262|433:258,1,49.5000015106202,14|2,2:1|2:2,0:0:0:0:
512,66,157518,5,2,2:2:0:0:
474,33,157606,1,2,2:2:0:0:
425,23,157695,1,10,2:1:0:0:
374,39,157783,1,2,2:2:0:0:
354,84,157871,1,10,2:2:0:0:
318,118,157959,1,2,2:2:0:0:
267,126,158048,1,10,2:1:0:0:
220,109,158136,1,10,2:2:0:0:
184,72,158224,6,0,P|180:47|173:23,1,49.5000015106202,10|2,2:1|2:2,0:0:0:0:
312,205,158400,2,0,P|304:228|300:253,1,49.5000015106202,10|2,2:1|2:2,0:0:0:0:
20,328,158577,5,10,2:2:0:0:
54,292,158665,1,2,2:2:0:0:
100,275,158753,1,2,2:2:0:0:
149,279,158841,1,2,2:2:0:0:
186,311,158930,6,0,P|209:303|234:299,1,49.5000015106202,14|2,2:1|2:2,0:0:0:0:
384,379,159106,1,2,2:2:0:0:
427,383,159194,1,2,2:2:0:0:
467,367,159282,1,10,2:2:0:0:
501,332,159370,1,2,2:2:0:0:
512,283,159459,1,10,2:1:0:0:
499,234,159548,1,10,2:2:0:0:
463,199,159636,2,0,P|467:175|473:151,3,49.5000015106202,10|2|10|2,2:1|2:2|2:1|2:2,0:0:0:0:
391,248,159989,2,0,P|395:272|401:296,1,49.5000015106202,10|2,2:2|2:2,0:0:0:0:
280,207,160165,5,14,2:1:0:0:
280,207,160253,1,2,2:2:0:0:
280,207,160342,2,0,P|284:183|290:159,1,49.5000015106202,2|2,2:2|2:2,0:0:0:0:
226,26,160518,5,10,2:1:0:0:
183,0,160606,1,2,2:2:0:0:
133,2,160695,1,10,2:2:0:0:
88,24,160783,1,2,2:2:0:0:
62,66,160871,1,10,2:1:0:0:
58,115,160959,1,10,2:2:0:0:
76,160,161048,6,0,P|82:183|86:208,1,49.5000015106202,10|2,2:1|2:2,0:0:0:0:
213,275,161224,1,10,2:1:0:0:
213,275,161312,1,2,2:2:0:0:
213,275,161400,2,0,P|206:298|202:323,1,49.5000015106202,10|2,2:2|2:2,0:0:0:0:
379,162,161577,1,2,2:2:0:0:
379,162,161665,1,2,2:2:0:0:
379,162,161753,1,10,2:1:0:0:
430,384,161930,6,0,P|382:371|317:357,1,90,14|10,2:2|2:1,0:0:0:0:
394,143,162283,1,10,2:1:0:0:
213,275,162459,2,0,P|256:264|300:253,1,90,14|10,2:2|2:1,0:0:0:0:
504,282,162812,1,10,2:1:0:0:
314,99,162989,5,14,2:1:0:0:
347,62,163077,1,0,0:0:0:0:
394,50,163165,1,0,0:0:0:0:
442,60,163253,1,0,0:0:0:0:
472,99,163342,1,8,2:1:0:0:
482,147,163430,1,0,0:0:0:0:
463,192,163518,1,10,2:2:0:0:
424,222,163606,1,0,0:0:0:0:
406,268,163695,1,8,2:1:0:0:
410,317,163783,1,0,0:0:0:0:
441,354,163871,5,10,2:2:0:0:
441,354,163959,1,0,0:0:0:0:
441,354,164048,2,0,P|417:360|392:364,1,49.5000015106202,8|0,2:2|0:0,0:0:0:0:
213,275,164224,6,0,P|201:272|188:270,6,24.7500007553101,10|0|0|0|4|0|0,2:3|0:0|0:0|0:0|2:3|0:0|0:0,0:0:0:0:
155,358,164577,6,0,P|219:316|292:336,1,144,14|2,2:1|2:3,0:0:0:0:
435,272,165106,1,8,2:1:0:0:
347,106,165283,2,0,B|334:152|334:152|351:195|351:195|338:251,1,144,10|2,2:2|2:2,0:0:0:0:
158,361,165812,2,0,P|150:325|142:290,1,72,10|2,2:1|2:3,0:0:0:0:
38,286,166165,1,10,2:1:0:0:
38,286,166342,2,0,P|52:226|62:192,1,72,10|2,2:1|2:2,0:0:0:0:
207,0,166695,1,10,2:2:0:0:
279,69,166871,2,0,P|231:85|196:96,1,72,10|2,2:1|2:3,0:0:0:0:
14,137,167224,6,0,P|86:127|147:199,1,144,14|10,2:1|2:1,0:0:0:0:
225,254,167753,2,0,P|233:219|243:184,1,72,2|10,2:3|2:1,0:0:0:0:
123,293,168106,1,10,2:2:0:0:
238,366,168283,2,0,P|203:374|168:384,1,72,2|2,2:2|2:3,0:0:0:0:
332,249,168636,6,0,P|414:275|503:296,1,144,10|10,2:1|2:2,0:0:0:0:
446,117,169165,2,0,P|435:156|423:195,1,72,10|2,2:1|2:2,0:0:0:0:
337,345,169518,1,10,2:2:0:0:
244,289,169695,2,0,P|233:250|221:211,1,72,10|2,2:1|2:3,0:0:0:0:
317,114,170048,6,0,P|249:118|176:50,1,144,14|2,2:1|2:2,0:0:0:0:
86,12,170577,1,10,2:1:0:0:
9,100,170753,1,10,2:1:0:0:
109,170,170930,1,10,2:2:0:0:
109,170,171106,2,0,L|83:252,1,72,10|2,2:1|2:3,0:0:0:0:
203,364,171459,6,0,P|298:342|368:321,1,144,14|10,2:1|2:2,0:0:0:0:
253,185,171989,2,0,P|244:219|237:255,1,72,10|2,2:1|2:2,0:0:0:0:
425,210,172342,1,10,2:2:0:0:
351,323,172518,2,0,P|344:287|335:252,1,72,10|2,2:1|2:3,0:0:0:0:
388,78,172871,5,10,2:2:0:0:
388,78,172959,1,8,0:0:0:0:
388,78,173048,2,0,P|448:67|519:127,1,144,14|2,2:1|2:2,0:0:0:0:
427,189,173577,1,8,2:1:0:0:
252,50,173753,5,10,2:2:0:0:
138,175,173930,1,8,2:1:0:0:
308,323,174106,1,10,2:2:0:0:
245,178,174283,1,0,0:0:0:0:
332,222,174459,5,14,2:1:0:0:
206,351,174636,2,0,P|151:339|124:332,1,72,8|10,2:2|2:1,0:0:0:0:
5,300,174989,1,0,0:0:0:0:
173,239,175165,1,10,2:2:0:0:
55,153,175342,1,10,2:2:0:0:
55,153,175430,1,8,2:2:0:0:
55,153,175518,1,10,2:2:0:0:
213,32,175695,6,0,P|295:24|346:84,1,161.999995056153,14|10,2:1|2:1,0:0:0:0:
512,221,176224,1,10,2:2:0:0:
447,84,176400,2,0,P|430:139|422:178,1,80.9999975280763,10|2,2:1|2:3,0:0:0:0:
366,367,176753,1,10,2:1:0:0:
289,188,176930,1,10,2:2:0:0:
406,274,177106,6,0,B|347:264|347:264|303:286|303:286|240:274,1,161.999995056153,10|8,2:1|2:1,0:0:0:0:
108,124,177636,2,0,P|122:183|130:221,1,80.9999975280763,10|8,2:2|2:1,0:0:0:0:
127,202,177900,1,8,2:2:0:0:
127,202,177989,1,10,2:1:0:0:
262,82,178165,1,10,2:1:0:0:
112,9,178342,1,10,2:2:0:0:
253,193,178518,6,0,P|293:181|360:167,1,80.9999975280763,14|0,2:1|0:0,0:0:0:0:
181,383,178871,2,0,P|189:338|197:303,1,80.9999975280763,10|10,2:1|2:2,0:0:0:0:
19,191,179224,1,10,2:1:0:0:
19,191,179312,1,8,2:1:0:0:
19,191,179400,2,0,P|29:230|35:270,1,80.9999975280763,2|10,2:3|2:1,0:0:0:0:
181,112,179753,1,10,2:2:0:0:
322,309,179930,6,0,P|382:323|467:240,1,161.999995056153,14|10,2:1|2:1,0:0:0:0:
246,200,180459,2,0,P|176:215|120:228,1,121.499996292114,10|8,2:2|2:2,0:0:0:0:
120,237,180812,1,10,2:1:0:0:
195,367,180989,1,8,2:1:0:0:
0,239,181165,2,0,L|10:199,1,40.4999987640381,10|0,2:2|0:0,0:0:0:0:
74,49,181342,5,8,2:2:0:0:
74,49,181430,1,8,2:2:0:0:
74,49,181518,2,0,P|83:97|94:154,1,80.9999975280763,14|0,2:1|0:0,0:0:0:0:
233,273,181871,2,0,P|240:233|249:193,1,80.9999975280763,10|0,2:2|0:0,0:0:0:0:
272,49,182224,6,0,P|232:56|192:65,1,80.9999975280763,10|8,2:1|2:1,0:0:0:0:
363,233,182577,2,0,P|402:240|442:249,1,80.9999975280763,10|0,2:2|0:0,0:0:0:0:
512,63,182930,6,0,P|434:50|373:101,1,161.999995056153,14|10,2:1|2:2,0:0:0:0:
242,215,183459,1,8,2:1:0:0:
242,215,183548,1,8,2:2:0:0:
242,215,183636,2,0,L|222:124,1,80.9999975280763,10|8,2:1|2:1,0:0:0:0:
376,224,183989,1,10,2:2:0:0:
213,355,184165,1,8,0:0:0:0:
213,355,184253,1,8,0:0:0:0:
213,355,184342,6,0,B|153:341|153:341|102:363|102:363|38:354,1,180,14|10,2:1|2:2,0:0:0:0:
325,133,184871,2,0,P|406:116|492:201,1,180,10|10,2:1|2:1,0:0:0:0:
224,56,185400,5,8,2:2:0:0:
306,298,185577,1,10,2:2:0:0:
320,316,185930,5,10,2:2:0:0:
395,10,186107,1,10,2:2:0:0:
1,173,186459,5,8,2:2:0:0:
11,164,186548,5,8,2:2:0:0:
24,156,186636,5,8,2:2:0:0:
41,148,186724,5,8,2:2:0:0:
65,141,186812,5,8,2:2:0:0:
94,138,186900,5,8,2:2:0:0:
125,144,186989,5,8,2:2:0:0:
160,163,187077,5,8,2:2:0:0:
192,189,187165,5,8,2:2:0:0:
230,213,187253,5,8,2:2:0:0:
280,207,187342,5,8,2:2:0:0:
326,175,187430,5,8,2:2:0:0:
343,125,187518,5,8,2:2:0:0:
322,70,187606,5,8,2:2:0:0:
266,22,187695,5,8,2:2:0:0:
80,239,187871,5,8,2:2:0:0:
445,128,188048,1,8,2:2:0:0:
445,128,188577,6,0,P|323:128|225:200,1,247.500007553101,14|0,2:1|0:0,0:0:0:0:
155,255,189106,6,0,P|149:222|135:185,1,67.5000025749208,14|0,2:1|0:0,0:0:0:0:
320,323,189459,6,0,P|326:290|340:253,1,67.5000025749208,14|0,2:1|0:0,0:0:0:0:
63,235,189812,6,0,P|197:226|325:334,1,297.000009063721,14|0,2:1|0:0,0:0:0:0:
319,322,190518,1,10,2:1:0:0:
494,226,190695,2,0,P|440:237|384:250,1,99.0000030212403,10|8,2:2|2:2,0:0:0:0:
318,175,190959,5,8,2:2:0:0:
295,133,191048,1,10,2:2:0:0:
295,88,191136,1,8,2:3:0:0:
312,46,191224,1,4,2:3:0:0:
348,19,191312,1,8,2:3:0:0:
396,11,191400,6,0,P|414:89|430:169,1,148.50000453186,14|0,2:1|0:0,0:0:0:0:
427,156,191753,1,10,2:2:0:0:
213,102,191930,1,8,2:1:0:0:
213,102,192018,1,8,2:2:0:0:
213,102,192106,1,10,2:1:0:0:
397,246,192282,1,8,2:1:0:0:
156,327,192459,1,10,2:2:0:0:
274,186,192636,6,0,P|306:124|255:12,1,198.000006042481,8|8,2:1|2:1,0:0:0:0:
25,120,193165,2,0,P|79:131|135:144,1,99.0000030212403,10|8,2:2|2:1,0:0:0:0:
146,150,193429,1,8,2:2:0:0:
146,150,193518,1,10,2:1:0:0:
285,296,193694,1,8,2:1:0:0:
75,384,193871,2,0,P|64:335|54:287,1,99.0000030212403,10|8,2:2|2:1,0:0:0:0:
254,112,194224,6,0,P|243:160|233:208,1,99.0000030212403,14|0,2:1|0:0,0:0:0:0:
154,36,194576,1,10,2:2:0:0:
349,199,194753,1,10,2:1:0:0:
349,199,194841,1,8,2:2:0:0:
349,199,194929,1,10,2:1:0:0:
142,309,195106,1,10,2:1:0:0:
259,106,195282,1,10,2:2:0:0:
418,341,195459,6,0,P|330:325|237:387,1,198.000006042481,10|8,2:1|2:1,0:0:0:0:
157,155,195988,1,10,2:2:0:0:
30,354,196165,1,8,2:1:0:0:
30,354,196253,1,8,2:2:0:0:
30,354,196341,1,10,2:1:0:0:
208,236,196518,1,8,2:1:0:0:
10,107,196695,2,0,P|58:96|106:86,1,99.0000030212403,10|0,2:2|0:0,0:0:0:0:
308,0,197048,6,0,P|296:48|286:96,1,99.0000030212403,14|0,2:1|0:0,0:0:0:0:
442,233,197400,2,0,P|431:184|420:136,1,99.0000030212403,10|8,2:2|2:1,0:0:0:0:
418,113,197665,1,8,2:2:0:0:
418,113,197753,1,10,2:1:0:0:
244,232,197929,1,8,2:1:0:0:
421,384,198106,5,10,2:2:0:0:
512,323,198283,2,0,P|434:265|340:283,1,198.000006042481,12|8,2:1|2:1,0:0:0:0:
114,153,198812,1,10,2:2:0:0:
286,373,198988,1,8,2:1:0:0:
400,68,199165,1,10,2:2:0:0:
196,318,199341,1,8,2:2:0:0:
66,48,199518,5,10,2:2:0:0:
113,35,199606,1,8,2:2:0:0:
162,41,199694,1,8,2:2:0:0:
200,73,199783,1,8,2:2:0:0:
219,118,199871,6,0,P|267:129|315:139,1,99.0000030212403,14|0,2:1|0:0,0:0:0:0:
506,254,200224,1,10,2:2:0:0:
416,38,200401,1,10,2:1:0:0:
416,38,200489,1,8,2:2:0:0:
416,38,200577,1,10,2:1:0:0:
288,319,200753,2,0,P|277:270|266:222,1,99.0000030212403,10|10,2:1|2:2,0:0:0:0:
40,91,201106,6,0,P|120:138|235:104,1,198.000006042481,14|8,2:1|2:1,0:0:0:0:
416,38,201636,2,0,P|404:86|394:134,1,99.0000030212403,10|8,2:2|2:1,0:0:0:0:
392,164,201900,1,8,2:2:0:0:
392,164,201989,1,10,2:1:0:0:
190,317,202166,1,8,2:1:0:0:
309,92,202342,1,10,2:2:0:0:
383,349,202519,1,2,2:2:0:0:
218,117,202695,6,0,P|169:127|121:138,1,99.0000030212403,14|0,2:1|0:0,0:0:0:0:
295,279,203048,1,10,2:2:0:0:
49,384,203224,1,10,2:1:0:0:
49,384,203313,1,8,2:2:0:0:
49,384,203401,1,10,2:1:0:0:
207,226,203577,1,10,2:1:0:0:
0,137,203754,1,10,2:2:0:0:
240,0,203930,6,0,P|262:96|282:193,1,198.000006042481,14|8,2:1|2:1,0:0:0:0:
445,21,204459,2,0,P|433:69|423:117,1,99.0000030212403,10|0,2:2|2:1,0:0:0:0:
476,351,204812,1,10,2:2:0:0:
282,193,204989,1,8,2:1:0:0:
282,193,205077,1,8,0:0:0:0:
282,193,205166,1,10,2:2:0:0:
503,95,205342,5,8,2:2:0:0:
503,95,205430,1,8,2:2:0:0:
503,95,205518,2,0,P|441:105|357:33,1,148.50000453186,14|0,2:1|0:0,0:0:0:0:
476,234,205871,1,10,2:2:0:0:
341,326,206048,2,0,P|352:277|362:229,1,99.0000030212403,2|10,2:1|2:1,0:0:0:0:
372,207,206312,1,8,0:0:0:0:
372,207,206401,1,10,2:1:0:0:
476,351,206577,1,10,2:2:0:0:
252,281,206753,6,0,B|186:295|186:295|145:332|145:332|64:353,1,198.000006042481,14|8,2:1|2:1,0:0:0:0:
0,186,207283,2,0,P|49:197|97:207,1,99.0000030212403,10|8,2:2|2:1,0:0:0:0:
128,216,207547,1,8,2:2:0:0:
128,216,207636,1,10,2:1:0:0:
344,72,207812,5,8,2:2:0:0:
344,72,207900,1,8,0:0:0:0:
344,72,207988,1,10,2:2:0:0:
100,0,208164,1,8,2:1:0:0:
287,160,208342,5,14,2:2:0:0:
28,280,208519,1,10,2:2:0:0:
243,77,208695,1,10,2:1:0:0:
291,360,208871,5,14,2:2:0:0:
150,120,209048,1,10,2:2:0:0:
391,292,209224,1,10,2:1:0:0:
425,4,209400,5,14,2:2:0:0:
223,230,209577,1,10,2:2:0:0:
482,151,209753,1,2,2:3:0:0:
58,0,209930,6,0,L|71:62,1,49.5000015106202,8|0,2:1|0:0,0:0:0:0:
124,315,210106,1,10,2:2:0:0:
238,66,210283,1,10,2:1:0:0:
238,66,210371,1,8,2:1:0:0:
238,66,210459,1,10,2:2:0:0:
74,189,210636,5,8,2:2:0:0:
115,173,210724,1,8,2:2:0:0:
159,174,210812,1,10,2:2:0:0:
198,194,210900,1,8,2:2:0:0:
229,225,210989,2,0,L|290:212,1,49.5000015106202,8|8,2:2|2:2,0:0:0:0:
486,30,211165,6,0,P|412:47|325:62,1,148.50000453186,14|0,2:1|0:0,0:0:0:0:
330,74,211518,1,10,2:2:0:0:
147,290,211695,1,10,2:1:0:0:
147,290,211783,1,8,2:2:0:0:
147,290,211871,1,10,2:1:0:0:
389,171,212048,5,10,2:1:0:0:
162,67,212224,1,10,2:2:0:0:
335,273,212400,2,0,P|406:285|497:208,1,198.000006042481,10|8,2:1|2:1,0:0:0:0:
296,122,212930,5,10,2:2:0:0:
213,334,213106,1,10,2:1:0:0:
213,334,213195,1,8,2:2:0:0:
213,334,213283,2,0,P|164:314|117:308,1,99.0000030212403,10|8,2:1|2:1,0:0:0:0:
14,95,213636,2,0,P|66:54|158:69,1,148.50000453186,10|0,2:2|0:0,0:0:0:0:
197,131,213989,6,0,P|184:178|174:227,1,99.0000030212403,14|0,2:1|0:0,0:0:0:0:
70,384,214342,1,10,2:2:0:0:
285,248,214518,1,8,2:1:0:0:
285,248,214606,1,8,2:2:0:0:
285,248,214695,1,10,2:1:0:0:
88,136,214871,1,8,2:1:0:0:
253,383,215048,5,10,2:2:0:0:
399,304,215224,2,0,P|416:208|339:137,1,198.000006042481,8|8,2:1|2:1,0:0:0:0:
228,29,215753,1,10,2:2:0:0:
301,244,215930,1,8,2:1:0:0:
301,244,216018,1,8,2:2:0:0:
301,244,216106,1,10,2:1:0:0:
221,10,216283,1,8,2:1:0:0:
76,228,216459,2,0,P|122:206|173:196,1,99.0000030212403,10|8,2:2|2:1,0:0:0:0:
512,71,216812,6,0,P|441:134|339:124,1,198.000006042481,14|10,2:1|2:2,0:0:0:0:
121,4,217342,2,0,P|134:52|139:102,1,99.0000030212403,2|10,2:1|2:1,0:0:0:0:
300,272,217695,1,10,2:1:0:0:
245,41,217871,1,10,2:2:0:0:
0,201,218048,6,0,B|111:176|93:264|210:230,1,198.000006042481,10|8,2:1|2:1,0:0:0:0:
436,138,218577,1,10,2:2:0:0:
304,369,218753,1,8,2:1:0:0:
304,369,218842,1,8,2:2:0:0:
304,369,218930,1,10,2:1:0:0:
239,121,219106,1,8,2:1:0:0:
512,290,219283,2,0,P|456:250|361:268,1,148.50000453186,10|0,2:2|0:0,0:0:0:0:
349,278,219636,6,0,P|335:207|328:171,1,99.0000030212403,14|0,2:1|0:0,0:0:0:0:
264,11,219989,1,10,2:2:0:0:
451,119,220165,1,8,2:1:0:0:
451,119,220253,1,8,2:2:0:0:
451,119,220342,1,10,2:1:0:0:
237,257,220518,1,8,2:1:0:0:
0,122,220695,6,0,P|93:135|172:63,1,198.000006042481,14|2,2:2|2:3,0:0:0:0:
297,139,221224,1,8,2:1:0:0:
128,303,221400,5,10,2:2:0:0:
59,26,221577,1,8,2:1:0:0:
269,263,221753,1,10,2:2:0:0:
397,19,221930,1,8,2:1:0:0:
440,9,222018,1,8,0:0:0:0:
479,29,222106,1,10,2:2:0:0:
507,63,222195,1,8,2:2:0:0:
512,107,222283,1,8,2:2:0:0:
493,147,222371,1,8,2:2:0:0:
461,177,222459,6,0,B|424:175|392:155|392:155|338:180|338:180|301:161|257:163,1,198.000006042481,14|10,2:1|2:2,0:0:0:0:
103,109,222989,1,10,2:1:0:0:
103,109,223077,1,8,2:2:0:0:
103,109,223165,1,10,2:1:0:0:
189,296,223342,2,0,P|234:279|312:271,1,99.0000030212403,10|10,2:1|2:2,0:0:0:0:
163,28,223695,6,0,P|34:31|-1:111,1,198.000006042481,14|8,2:1|2:1,0:0:0:0:
169,198,224224,1,10,2:2:0:0:
39,299,224400,1,8,2:1:0:0:
39,299,224489,1,8,2:2:0:0:
39,299,224577,2,0,P|27:228|12:178,1,99.0000030212403,10|8,2:1|2:1,0:0:0:0:
192,355,224930,1,10,2:2:0:0:
269,141,225106,1,2,2:2:0:0:
416,322,225283,6,0,P|365:303|312:294,1,99.0000030212403,14|0,2:1|0:0,0:0:0:0:
201,63,225636,1,10,2:2:0:0:
387,210,225812,1,10,2:1:0:0:
387,210,225900,1,8,2:2:0:0:
387,210,225989,1,10,2:1:0:0:
486,29,226165,1,10,2:1:0:0:
266,163,226342,1,10,2:2:0:0:
442,320,226518,6,0,P|508:227|484:142,1,198.000006042481,14|8,2:1|2:1,0:0:0:0:
205,6,227048,2,0,P|272:42|366:57,1,148.50000453186,10|8,2:2|2:2,0:0:0:0:
354,53,227400,5,10,2:2:0:0:
404,201,227577,1,8,2:1:0:0:
211,353,227753,1,10,2:1:0:0:
183,323,227842,1,8,0:0:0:0:
146,308,227930,1,8,0:0:0:0:
105,315,228018,1,8,0:0:0:0:
76,337,228106,6,0,P|35:299|55:174,1,180,14|2,2:1|2:2,0:0:0:0:
45,52,228636,2,0,P|87:65|131:77,1,90,10|8,2:1|2:2,0:0:0:0:
268,209,228989,2,0,P|224:220|181:234,1,90,10|0,2:1|0:0,0:0:0:0:
362,31,229342,6,0,P|435:18|510:97,1,180,14|8,2:1|2:1,0:0:0:0:
368,244,229871,1,10,2:2:0:0:
408,118,230048,1,0,0:0:0:0:
207,223,230224,5,10,2:2:0:0:
313,330,230400,1,8,2:1:0:0:
348,350,230489,1,8,0:0:0:0:
389,350,230577,1,10,2:2:0:0:
432,337,230665,1,8,2:2:0:0:
457,303,230753,1,8,2:2:0:0:
296,101,230930,5,10,2:2:0:0:
211,376,231106,1,10,2:2:0:0:
221,364,231459,5,10,2:2:0:0:
101,57,231636,1,8,2:2:0:0:
90,70,231989,5,8,2:2:0:0:
434,182,232165,1,10,2:2:0:0:
434,182,233753,6,0,P|375:202|277:149,1,180,14|10,2:1|2:2,0:0:0:0:
155,46,234282,1,10,2:1:0:0:
155,46,234371,1,8,2:1:0:0:
154,46,234458,2,0,P|163:89|174:133,1,90,10|10,2:1|2:1,0:0:0:0:
151,327,234812,1,10,2:2:0:0:
0,187,234989,6,0,P|65:180|119:218,1,135,10|0,2:1|0:0,0:0:0:0:
132,235,235341,1,10,2:1:0:0:
286,137,235517,1,10,2:2:0:0:
318,365,235694,1,10,2:1:0:0:
318,365,235782,1,8,2:2:0:0:
318,365,235871,1,10,2:1:0:0:
217,208,236047,1,10,2:1:0:0:
437,299,236224,1,10,2:2:0:0:
485,58,236401,5,10,2:1:0:0:
485,58,236489,1,8,2:1:0:0:
485,58,236576,2,0,P|436:101|354:93,1,135,14|0,2:1|0:0,0:0:0:0:
347,90,236929,1,10,2:2:0:0:
437,299,237106,1,10,2:1:0:0:
437,299,237194,1,8,2:2:0:0:
437,299,237282,2,0,P|446:255|457:211,1,90,10|10,2:1|2:1,0:0:0:0:
222,307,237635,1,10,2:2:0:0:
253,61,237812,6,0,P|268:126|282:192,1,135,10|0,2:1|0:0,0:0:0:0:
288,214,238165,1,10,2:1:0:0:
95,162,238342,1,10,2:2:0:0:
242,330,238518,1,10,2:1:0:0:
242,330,238606,1,8,2:2:0:0:
242,330,238694,5,10,2:1:0:0:
28,383,238871,1,10,2:1:0:0:
202,238,239047,1,10,2:2:0:0:
0,166,239223,1,10,2:1:0:0:
210,19,239400,6,0,P|169:64|47:59,1,180,14|10,2:1|2:2,0:0:0:0:
202,238,239930,1,10,2:1:0:0:
202,238,240018,1,8,2:1:0:0:
202,238,240106,2,0,P|211:194|222:150,1,90,10|10,2:1|2:1,0:0:0:0:
81,273,240459,1,14,2:2:0:0:
297,384,240636,6,0,P|342:342|419:342,1,135,10|0,2:1|0:0,0:0:0:0:
440,353,240989,1,10,2:1:0:0:
483,160,241165,2,0,P|493:203|503:247,1,90,10|10,2:2|2:1,0:0:0:0:
512,272,241430,1,8,2:2:0:0:
512,272,241518,1,10,2:1:0:0:
307,213,241694,5,10,2:1:0:0:
453,31,241871,1,10,2:2:0:0:
408,222,242047,1,10,2:1:0:0:
269,105,242223,1,8,2:1:0:0:
185,290,242400,6,0,P|141:279|97:269,1,90,14|8,2:2|2:1,0:0:0:0:
169,67,242753,1,10,2:1:0:0:
0,184,242930,2,0,P|43:174|87:163,1,90,14|8,2:2|2:2,0:0:0:0:
0,70,243282,1,10,2:2:0:0:
264,244,243459,6,0,B|280:180|236:139|232:143|226:148|147:116|137:-12|295:-48|332:74|332:74|420:1|530:112|454:212|372:195|369:191|368:184|330:189|303:215,1,738,14|0,2:1|0:0,0:0:0:0:
