osu file format v14

[General]
AudioFilename: audio.mp3
AudioLeadIn: 0
PreviewTime: 188348
Countdown: 0
SampleSet: Soft
StackLeniency: 0.6
Mode: 0
LetterboxInBreaks: 0
WidescreenStoryboard: 1

[Editor]
Bookmarks: 26260,48848,82731,105319,127907,150495,164613,188613,211201,233789,243495,250731
DistanceSpacing: 0.8
BeatDivisor: 4
GridSize: 32
TimelineZoom: 3.5

[Metadata]
Title:CHASE!
TitleUnicode:CHASE!
Artist:Yuki Setsuna (CV: Kusunoki Tomori)
ArtistUnicode:優木せつ菜 (CV: 楠木ともり)
Creator:Liyuu
Version:NEWYUU'S EXTRA!
Source:ラブライブ!虹ヶ咲学園スクールアイドル同好会
Tags:-rielle- aquivery pile asagi ayamemymommy big sis shiwakaze kyairie red crewmate vaporfly newton- ifinixe wen wendle anime video game japanese rock love live! nijigasaki high school idol club gakuen doukoukai doukou kai nijigaku ニジガク 鈴木エレカ・JOE pop jpop jrock
BeatmapID:4004203
BeatmapSetID:1822739

[Difficulty]
HPDrainRate:5.5
CircleSize:4
OverallDifficulty:8.5
ApproachRate:9.1
SliderMultiplier:1.8
SliderTickRate:1

[Events]
//Background and Video events
0,0,"bgg.jpg",0,0
//Break Periods
//Storyboard Layer 0 (Background)
//Storyboard Layer 1 (Fail)
//Storyboard Layer 2 (Pass)
//Storyboard Layer 3 (Foreground)
//Storyboard Layer 4 (Overlay)
//Storyboard Sound Samples

[TimingPoints]
-599,352.941176470588,4,2,0,100,1,0
105,-100,4,2,0,100,0,0
634,-100,4,2,1,50,0,0
810,-142.857142857143,4,2,2,50,0,0
1163,-142.857142857143,4,2,3,50,0,0
1340,-142.857142857143,4,2,4,50,0,0
1693,-142.857142857143,4,2,5,50,0,0
2046,-142.857142857143,4,2,6,50,0,0
2575,-142.857142857143,4,2,7,50,0,0
2751,-142.857142857143,4,2,1,50,0,0
2928,-142.857142857143,4,2,5,50,0,0
3281,-142.857142857143,4,2,8,50,0,0
3634,-142.857142857143,4,2,9,50,0,0
3987,-142.857142857143,4,2,8,50,0,0
4163,-142.857142857143,4,2,7,50,0,0
4340,-142.857142857143,4,2,1,50,0,0
4516,-142.857142857143,4,2,10,50,0,0
4693,-142.857142857143,4,2,1,50,0,0
4869,-142.857142857143,4,2,11,50,0,0
5398,-142.857142857143,4,2,12,50,0,0
5751,-142.857142857143,4,2,4,50,0,0
6104,-142.857142857143,4,2,7,50,0,0
6457,-142.857142857143,4,2,13,50,0,0
6810,-142.857142857143,4,2,3,50,0,0
6987,-142.857142857143,4,2,4,50,0,0
7340,-142.857142857143,4,2,5,50,0,0
7693,-142.857142857143,4,2,14,50,0,0
8222,-142.857142857143,4,2,7,50,0,0
8575,-142.857142857143,4,2,5,50,0,0
8928,-142.857142857143,4,2,8,50,0,0
9281,-142.857142857143,4,2,15,50,0,0
9634,-142.857142857143,4,2,1,50,0,0
10340,-250.000000000001,4,2,16,50,0,0
11046,-250.000000000001,4,2,1,50,0,0
14928,-100,4,2,1,65,0,0
15104,-100,4,2,17,65,0,0
15281,-100,4,2,18,65,0,0
15457,-100,4,2,2,65,0,0
15634,-100,4,2,3,65,0,0
15810,-100,4,2,2,65,0,0
15987,-100,4,2,19,65,0,0
16163,-100,4,2,4,65,0,0
16340,-100,4,2,2,65,0,0
16428,-100,4,2,2,65,0,0
16516,-100,4,2,5,65,0,0
16693,-100,4,2,20,65,0,0
16869,-100,4,2,5,65,0,0
16957,-100,4,2,1,65,0,0
17046,-100,4,2,6,65,0,0
17222,-100,4,2,5,65,0,0
17398,-100,4,2,20,65,0,0
17575,-100,4,2,5,65,0,0
17751,-100,4,2,7,65,0,0
17928,-100,4,2,17,65,0,0
18016,-100,4,2,17,65,0,0
18104,-100,4,2,18,65,0,0
18281,-100,4,2,2,65,0,0
18369,-100,4,2,1,65,0,0
18457,-100,4,2,3,65,0,0
18634,-100,4,2,2,65,0,0
18810,-100,4,2,19,65,0,0
18987,-100,4,2,4,65,0,0
19163,-100,4,2,2,65,0,0
19251,-100,4,2,2,65,0,0
19340,-100,4,2,8,65,0,0
19516,-100,4,2,21,65,0,0
19693,-100,4,2,8,65,0,0
19781,-100,4,2,1,65,0,0
19869,-100,4,2,9,65,0,0
20046,-100,4,2,8,65,0,0
20222,-100,4,2,21,65,0,0
20398,-100,4,2,8,65,0,0
20575,-100,4,2,7,65,0,0
20751,-100,4,2,17,65,0,0
20928,-100,4,2,18,65,0,0
21104,-100,4,2,2,65,0,0
21281,-100,4,2,3,65,0,0
21457,-100,4,2,2,65,0,0
21634,-100,4,2,19,65,0,0
21810,-100,4,2,4,65,0,0
21987,-100,4,2,2,65,0,0
22075,-100,4,2,2,65,0,0
22163,-100,4,2,5,65,0,0
22340,-100,4,2,20,65,0,0
22516,-100,4,2,5,65,0,0
22604,-100,4,2,1,65,0,0
22693,-100,4,2,6,65,0,0
22869,-100,4,2,5,65,0,0
23046,-100,4,2,20,65,0,0
23222,-100,4,2,5,65,0,0
23575,-100,4,2,22,65,0,0
23928,-100,4,2,5,65,0,0
24104,-100,4,2,22,65,0,0
24457,-100,4,2,10,65,0,0
24634,-125,4,2,11,65,0,0
24986,-125,4,2,23,65,0,0
26222,-200,4,2,12,50,0,0
26575,-200,4,2,3,50,0,0
27281,-200,4,2,24,50,0,0
27457,-200,4,2,1,50,0,0
27634,-200,4,2,13,50,0,0
27987,-200,4,2,3,50,0,0
28516,-200,4,2,1,50,0,0
28693,-200,4,2,24,50,0,0
28869,-200,4,2,1,50,0,0
29046,-200,4,2,13,50,0,0
29222,-200,4,2,1,50,0,0
29398,-200,4,2,24,50,0,0
29575,-200,4,2,1,50,0,0
29751,-200,4,2,3,50,0,0
29928,-200,4,2,1,50,0,0
30104,-200,4,2,3,50,0,0
30281,-200,4,2,1,50,0,0
30457,-200,4,2,13,50,0,0
30634,-200,4,2,1,50,0,0
30810,-200,4,2,3,50,0,0
30987,-200,4,2,1,50,0,0
31163,-200,4,2,3,50,0,0
31340,-200,4,2,1,50,0,0
31516,-200,4,2,24,50,0,0
31693,-200,4,2,1,50,0,0
31869,-200,4,2,14,50,0,0
32222,-200,4,2,3,50,0,0
32928,-200,4,2,24,50,0,0
33104,-200,4,2,1,50,0,0
33281,-200,4,2,13,50,0,0
33634,-200,4,2,3,50,0,0
34163,-200,4,2,1,50,0,0
34340,-200,4,2,24,50,0,0
34516,-200,4,2,1,50,0,0
34693,-200,4,2,13,50,0,0
34869,-200,4,2,1,50,0,0
35046,-200,4,2,24,50,0,0
35222,-125,4,2,1,50,0,0
35398,-125,4,2,3,50,0,0
35575,-125,4,2,1,50,0,0
35751,-125,4,2,3,50,0,0
35928,-125,4,2,12,50,0,0
36281,-125,4,2,1,50,0,0
36634,-125,4,2,1,50,0,0
36987,-125,4,2,12,50,0,0
37163,-125,4,2,1,50,0,0
37428,-125,4,2,2,50,0,0
37516,-100,4,2,12,60,0,0
37693,-100,4,2,25,60,0,0
37869,-100,4,2,1,60,0,0
38046,-100,4,2,25,60,0,0
38222,-100,4,2,12,60,0,0
38398,-100,4,2,25,60,0,0
38575,-100,4,2,25,60,0,0
38751,-100,4,2,25,60,0,0
38928,-100,4,2,1,60,0,0
39104,-100,4,2,25,60,0,0
39281,-100,4,2,1,60,0,0
39457,-100,4,2,15,60,0,0
39546,-100,4,2,1,60,0,0
39634,-100,4,2,12,60,0,0
39810,-100,4,2,15,60,0,0
39987,-100,4,2,25,60,0,0
40163,-100,4,2,25,60,0,0
40340,-100,4,2,1,60,0,0
40516,-100,4,2,25,60,0,0
40693,-100,4,2,1,60,0,0
40869,-100,4,2,25,60,0,0
41046,-100,4,2,12,60,0,0
41222,-100,4,2,25,60,0,0
41398,-100,4,2,25,60,0,0
41575,-100,4,2,25,60,0,0
41751,-100,4,2,1,60,0,0
41928,-100,4,2,25,60,0,0
42104,-100,4,2,25,60,0,0
42281,-100,4,2,15,60,0,0
42369,-100,4,2,1,60,0,0
42634,-100,4,2,15,60,0,0
42810,-100,4,2,1,60,0,0
42987,-100,4,2,15,60,0,0
43163,-100,4,2,12,60,0,0
43340,-100,4,2,1,60,0,0
44398,-100,4,2,25,60,0,0
44575,-100,4,2,1,60,0,0
45104,-100,4,2,16,60,0,0
45193,-100,4,2,1,60,0,0
45457,-100,4,2,15,60,0,0
45634,-100,4,2,1,60,0,0
45810,-100,4,2,12,60,0,0
45987,-100,4,2,12,60,0,0
46163,-100,4,2,1,60,0,0
46340,-100,4,2,25,60,0,0
46516,-100,4,2,1,60,0,0
46693,-100,4,2,16,60,0,0
46869,-100,4,2,12,60,0,0
47046,-100,4,2,26,60,0,0
47222,-100,4,2,12,60,0,0
47575,-100,4,2,1,60,0,0
48810,-125,4,2,14,55,0,0
49163,-125,4,2,24,55,0,0
49340,-125,4,2,12,55,0,0
49516,-125,4,2,27,55,0,0
49693,-125,4,2,1,55,0,0
49869,-125,4,2,3,55,0,0
50046,-125,4,2,12,55,0,0
50222,-125,4,2,3,55,0,0
50398,-125,4,2,12,55,0,0
50575,-125,4,2,14,55,0,0
50928,-125,4,2,28,55,0,0
51104,-125,4,2,24,55,0,0
51457,-125,4,2,12,55,0,0
51634,-125,4,2,13,55,0,0
51810,-125,4,2,1,55,0,0
51987,-125,4,2,3,55,0,0
52163,-125,4,2,12,55,0,0
52340,-125,4,2,27,55,0,0
52516,-125,4,2,1,55,0,0
52693,-125,4,2,13,55,0,0
52869,-125,4,2,12,55,0,0
53222,-125,4,2,1,55,0,0
53398,-125,4,2,14,55,0,0
53751,-125,4,2,28,55,0,0
53928,-125,4,2,1,55,0,0
54457,-111.111111111111,4,2,12,55,0,0
54810,-111.111111111111,4,2,24,55,0,0
55163,-111.111111111111,4,2,14,55,0,0
55516,-111.111111111111,4,2,24,55,0,0
55869,-111.111111111111,4,2,12,55,0,0
56222,-111.111111111111,4,2,27,55,0,0
56398,-111.111111111111,4,2,24,55,0,0
56575,-111.111111111111,4,2,24,55,0,0
56928,-111.111111111111,4,2,24,55,0,0
57104,-111.111111111111,4,2,24,55,0,0
57281,-111.111111111111,4,2,12,55,0,0
57634,-111.111111111111,4,2,1,55,0,0
57810,-111.111111111111,4,2,12,55,0,0
58163,-111.111111111111,4,2,12,55,0,0
58340,-111.111111111111,4,2,27,55,0,0
58516,-111.111111111111,4,2,29,55,0,0
58869,-111.111111111111,4,2,1,55,0,0
60104,-90.9090909090908,4,2,17,70,0,0
60457,-90.9090909090908,4,2,30,70,0,0
60634,-90.9090909090908,4,2,12,70,0,0
60722,-90.9090909090908,4,2,18,70,0,0
60987,-90.9090909090908,4,2,12,70,0,0
61163,-90.9090909090908,4,2,31,70,0,0
61340,-90.9090909090908,4,2,12,70,0,0
61516,-90.9090909090908,4,2,4,70,0,0
61693,-90.9090909090908,4,2,4,70,0,0
61869,-90.9090909090908,4,2,31,70,0,0
62046,-90.9090909090908,4,2,12,70,0,0
62134,-90.9090909090908,4,2,19,70,0,0
62398,-90.9090909090908,4,2,19,70,0,0
62575,-90.9090909090908,4,2,30,70,0,0
62928,-90.9090909090908,4,2,19,70,0,0
63281,-90.9090909090908,4,2,30,70,0,0
63457,-90.9090909090908,4,2,19,70,0,0
63634,-90.9090909090908,4,2,19,70,0,0
63810,-90.9090909090908,4,2,19,70,0,0
63987,-90.9090909090908,4,2,30,70,0,0
64163,-90.9090909090908,4,2,4,70,0,0
64340,-90.9090909090908,4,2,4,70,0,0
64516,-90.9090909090908,4,2,4,70,0,0
64693,-90.9090909090908,4,2,30,70,0,0
64869,-90.9090909090908,4,2,19,70,0,0
65046,-90.9090909090908,4,2,19,70,0,0
65222,-90.9090909090908,4,2,19,70,0,0
65398,-90.9090909090908,4,2,31,70,0,0
65575,-90.9090909090908,4,2,19,70,0,0
65751,-90.9090909090908,4,2,19,70,0,0
66104,-90.9090909090908,4,2,30,70,0,0
66281,-90.9090909090908,4,2,12,70,0,0
66369,-90.9090909090908,4,2,18,70,0,0
66634,-90.9090909090908,4,2,12,70,0,0
66810,-90.9090909090908,4,2,31,70,0,0
66987,-90.9090909090908,4,2,12,70,0,0
67163,-90.9090909090908,4,2,4,70,0,0
67340,-90.9090909090908,4,2,4,70,0,0
67516,-90.9090909090908,4,2,31,70,0,0
67693,-90.9090909090908,4,2,19,70,0,0
67869,-90.9090909090908,4,2,19,70,0,0
68046,-90.9090909090908,4,2,19,70,0,0
68222,-90.9090909090908,4,2,30,70,0,0
68575,-90.9090909090908,4,2,19,70,0,0
68928,-90.9090909090908,4,2,30,70,0,0
69104,-90.9090909090908,4,2,19,70,0,0
69281,-90.9090909090908,4,2,19,70,0,0
69457,-90.9090909090908,4,2,19,70,0,0
69634,-90.9090909090908,4,2,30,70,0,0
69810,-90.9090909090908,4,2,1,70,0,0
69987,-90.9090909090908,4,2,4,70,0,0
70163,-90.9090909090908,4,2,4,70,0,0
70340,-90.9090909090908,4,2,30,70,0,0
70516,-90.9090909090908,4,2,1,70,0,0
70693,-90.9090909090908,4,2,30,70,0,0
70869,-90.9090909090908,4,2,1,70,0,0
71046,-90.9090909090908,4,2,31,70,0,0
71134,-90.9090909090908,4,2,31,70,0,0
71398,-90.9090909090908,4,2,19,70,0,0
71751,-90.9090909090908,4,2,30,70,0,0
71928,-90.9090909090908,4,2,12,70,0,0
72016,-90.9090909090908,4,2,18,70,0,0
72281,-90.9090909090908,4,2,12,70,0,0
72457,-90.9090909090908,4,2,31,70,0,0
72634,-90.9090909090908,4,2,12,70,0,0
72810,-90.9090909090908,4,2,4,70,0,0
72987,-90.9090909090908,4,2,4,70,0,0
73163,-90.9090909090908,4,2,30,70,0,0
73340,-90.9090909090908,4,2,19,70,0,0
73516,-90.9090909090908,4,2,19,70,0,0
73693,-90.9090909090908,4,2,19,70,0,0
73869,-90.9090909090908,4,2,31,70,0,0
74046,-90.9090909090908,4,2,1,70,0,0
74222,-90.9090909090908,4,2,19,70,0,0
74575,-90.9090909090908,4,2,30,70,0,0
74751,-90.9090909090908,4,2,12,70,0,0
74840,-90.9090909090908,4,2,18,70,0,0
75104,-90.9090909090908,4,2,12,70,0,0
75281,-90.9090909090908,4,2,31,70,0,0
75457,-90.9090909090908,4,2,12,70,0,0
75634,-90.9090909090908,4,2,4,70,0,0
75810,-90.9090909090908,4,2,4,70,0,0
75987,-90.9090909090908,4,2,30,70,0,0
76163,-90.9090909090908,4,2,1,70,0,0
76340,-90.9090909090908,4,2,32,70,0,0
76516,-90.9090909090908,4,2,18,70,0,0
76693,-90.9090909090908,4,2,18,70,0,0
77046,-100,4,2,20,70,0,0
77398,-100,4,2,24,70,0,0
77575,-100,4,2,12,70,0,0
77751,-100,4,2,1,70,0,0
77928,-100,4,2,12,70,0,0
78281,-100,4,2,12,70,0,0
78634,-100,4,2,12,70,0,0
78810,-100,4,2,27,70,0,0
79163,-100,4,2,1,70,0,0
79869,-100,4,2,29,70,0,0
80222,-100,4,2,29,70,0,0
80398,-100,4,2,29,70,0,0
80751,-100,4,2,29,70,0,0
80928,-100,4,2,29,70,0,0
81634,-100,4,2,29,70,0,0
82693,-100,4,2,1,65,0,0
82869,-100,4,2,17,65,0,0
83046,-100,4,2,18,65,0,0
83222,-100,4,2,2,65,0,0
83398,-100,4,2,3,65,0,0
83575,-100,4,2,2,65,0,0
83751,-100,4,2,19,65,0,0
83928,-100,4,2,4,65,0,0
84104,-100,4,2,2,65,0,0
84281,-100,4,2,5,65,0,0
84457,-100,4,2,20,65,0,0
84634,-100,4,2,5,65,0,0
84722,-100,4,2,1,65,0,0
84810,-100,4,2,6,65,0,0
84987,-100,4,2,5,65,0,0
85163,-100,4,2,20,65,0,0
85340,-100,4,2,5,65,0,0
85516,-100,4,2,7,65,0,0
85692,-100,4,2,17,65,0,0
85869,-100,4,2,18,65,0,0
86046,-100,4,2,2,65,0,0
86134,-100,4,2,1,65,0,0
86222,-100,4,2,3,65,0,0
86398,-100,4,2,2,65,0,0
86575,-100,4,2,19,65,0,0
86751,-100,4,2,4,65,0,0
86928,-100,4,2,2,65,0,0
87104,-100,4,2,8,65,0,0
87281,-100,4,2,21,65,0,0
87457,-100,4,2,8,65,0,0
87546,-100,4,2,1,65,0,0
87634,-100,4,2,9,65,0,0
87810,-100,4,2,8,65,0,0
87987,-100,4,2,21,65,0,0
88163,-100,4,2,8,65,0,0
88340,-100,4,2,7,65,0,0
88516,-100,4,2,17,65,0,0
88693,-100,4,2,18,65,0,0
88869,-100,4,2,2,65,0,0
89046,-100,4,2,3,65,0,0
89222,-100,4,2,2,65,0,0
89398,-100,4,2,19,65,0,0
89575,-100,4,2,4,65,0,0
89751,-100,4,2,2,65,0,0
89928,-100,4,2,5,65,0,0
90104,-100,4,2,20,65,0,0
90281,-100,4,2,5,65,0,0
90369,-100,4,2,1,65,0,0
90457,-100,4,2,6,65,0,0
90634,-100,4,2,5,65,0,0
90810,-100,4,2,20,65,0,0
90987,-100,4,2,5,65,0,0
91340,-100,4,2,22,65,0,0
91693,-100,4,2,5,65,0,0
91869,-100,4,2,22,65,0,0
92222,-100,4,2,10,65,0,0
92398,-142.857142857143,4,2,11,65,0,0
92751,-142.857142857143,4,2,23,65,0,0
93281,-285.714285714286,4,2,23,65,0,0
93987,-200,4,2,12,50,0,0
95046,-200,4,2,1,50,0,0
102281,-200,4,2,12,50,0,0
102457,-100,4,2,29,60,0,0
102634,-100,4,2,29,40,0,0
102810,-100,4,2,29,45,0,0
102987,-100,4,2,29,50,0,0
103163,-100,4,2,29,55,0,0
103340,-100,4,2,29,60,0,0
103516,-100,4,2,29,65,0,0
103693,-200,4,2,14,50,0,0
104046,-200,4,2,1,50,0,0
104751,-200,4,2,12,50,0,0
104928,-200,4,2,1,50,0,0
105193,-200,4,2,2,50,0,0
105281,-100,4,2,12,60,0,0
105457,-100,4,2,25,60,0,0
105634,-100,4,2,1,60,0,0
105810,-100,4,2,25,60,0,0
105987,-100,4,2,12,60,0,0
106163,-100,4,2,25,60,0,0
106340,-100,4,2,25,60,0,0
106516,-100,4,2,25,60,0,0
106693,-100,4,2,1,60,0,0
106869,-100,4,2,25,60,0,0
107046,-100,4,2,1,60,0,0
107222,-100,4,2,15,60,0,0
107310,-100,4,2,1,60,0,0
107398,-100,4,2,12,60,0,0
107575,-100,4,2,15,60,0,0
107751,-100,4,2,25,60,0,0
107928,-100,4,2,25,60,0,0
108104,-100,4,2,1,60,0,0
108281,-100,4,2,25,60,0,0
108457,-100,4,2,1,60,0,0
108634,-100,4,2,25,60,0,0
108722,-100,4,2,1,60,0,0
108810,-100,4,2,12,60,0,0
108987,-100,4,2,25,60,0,0
109163,-100,4,2,25,60,0,0
109340,-100,4,2,25,60,0,0
109516,-100,4,2,1,60,0,0
109693,-100,4,2,25,60,0,0
109869,-100,4,2,25,60,0,0
110046,-100,4,2,15,60,0,0
110134,-100,4,2,1,60,0,0
110398,-100,4,2,15,60,0,0
110575,-100,4,2,1,60,0,0
110751,-100,4,2,15,60,0,0
110928,-100,4,2,12,60,0,0
111104,-100,4,2,1,60,0,0
112163,-100,4,2,25,60,0,0
112340,-100,4,2,1,60,0,0
112869,-100,4,2,16,60,0,0
112957,-100,4,2,1,60,0,0
113222,-100,4,2,15,60,0,0
113398,-100,4,2,1,60,0,0
113575,-100,4,2,12,60,0,0
113663,-100,4,2,12,60,0,0
113751,-100,4,2,12,60,0,0
113928,-100,4,2,1,60,0,0
114104,-100,4,2,25,60,0,0
114281,-100,4,2,1,60,0,0
114457,-100,4,2,16,60,0,0
114634,-100,4,2,12,60,0,0
114810,-100,4,2,26,60,0,0
114987,-100,4,2,12,60,0,0
115340,-100,4,2,1,60,0,0
116575,-125,4,2,14,55,0,0
116928,-125,4,2,24,55,0,0
117104,-125,4,2,12,55,0,0
117281,-125,4,2,27,55,0,0
117457,-125,4,2,1,55,0,0
117634,-125,4,2,3,55,0,0
117810,-125,4,2,12,55,0,0
117987,-125,4,2,3,55,0,0
118163,-125,4,2,12,55,0,0
118340,-125,4,2,14,55,0,0
118693,-125,4,2,28,55,0,0
118869,-125,4,2,24,55,0,0
119222,-125,4,2,12,55,0,0
119310,-125,4,2,12,55,0,0
119398,-125,4,2,13,55,0,0
119575,-125,4,2,1,55,0,0
119751,-125,4,2,3,55,0,0
119928,-125,4,2,12,55,0,0
120104,-125,4,2,27,55,0,0
120281,-125,4,2,1,55,0,0
120457,-125,4,2,14,55,0,0
120634,-125,4,2,12,55,0,0
120987,-125,4,2,1,55,0,0
121163,-125,4,2,14,55,0,0
121516,-125,4,2,28,55,0,0
121693,-125,4,2,1,55,0,0
122222,-111.111111111111,4,2,12,55,0,0
122575,-111.111111111111,4,2,24,55,0,0
122928,-111.111111111111,4,2,14,55,0,0
123281,-111.111111111111,4,2,24,55,0,0
123634,-111.111111111111,4,2,12,55,0,0
123987,-111.111111111111,4,2,27,55,0,0
124163,-111.111111111111,4,2,24,55,0,0
124340,-111.111111111111,4,2,24,55,0,0
124693,-111.111111111111,4,2,24,55,0,0
124869,-111.111111111111,4,2,24,55,0,0
125046,-111.111111111111,4,2,12,55,0,0
125398,-111.111111111111,4,2,1,55,0,0
125575,-111.111111111111,4,2,12,55,0,0
125928,-111.111111111111,4,2,12,55,0,0
126104,-111.111111111111,4,2,27,55,0,0
126281,-111.111111111111,4,2,29,55,0,0
126634,-111.111111111111,4,2,1,55,0,0
127869,-90.9090909090909,4,2,17,70,0,0
128222,-90.9090909090909,4,2,30,70,0,0
128398,-90.9090909090909,4,2,12,70,0,0
128487,-90.9090909090909,4,2,18,70,0,0
128751,-90.9090909090909,4,2,12,70,0,0
128928,-90.9090909090909,4,2,31,70,0,0
129104,-90.9090909090909,4,2,12,70,0,0
129281,-90.9090909090909,4,2,4,70,0,0
129457,-90.9090909090909,4,2,4,70,0,0
129634,-90.9090909090909,4,2,31,70,0,0
129810,-90.9090909090909,4,2,12,70,0,0
129898,-90.9090909090909,4,2,19,70,0,0
130163,-90.9090909090909,4,2,19,70,0,0
130340,-90.9090909090909,4,2,30,70,0,0
130693,-90.9090909090909,4,2,19,70,0,0
131046,-90.9090909090909,4,2,30,70,0,0
131222,-90.9090909090909,4,2,19,70,0,0
131398,-90.9090909090909,4,2,19,70,0,0
131575,-90.9090909090909,4,2,19,70,0,0
131751,-90.9090909090909,4,2,30,70,0,0
131928,-90.9090909090909,4,2,4,70,0,0
132104,-90.9090909090909,4,2,4,70,0,0
132281,-90.9090909090909,4,2,4,70,0,0
132457,-90.9090909090909,4,2,30,70,0,0
132634,-90.9090909090909,4,2,19,70,0,0
132810,-90.9090909090909,4,2,19,70,0,0
132987,-90.9090909090909,4,2,19,70,0,0
133163,-90.9090909090909,4,2,31,70,0,0
133340,-90.9090909090909,4,2,19,70,0,0
133516,-90.9090909090909,4,2,19,70,0,0
133869,-90.9090909090909,4,2,30,70,0,0
134046,-90.9090909090909,4,2,12,70,0,0
134134,-90.9090909090909,4,2,18,70,0,0
134398,-90.9090909090909,4,2,12,70,0,0
134575,-90.9090909090909,4,2,31,70,0,0
134751,-90.9090909090909,4,2,12,70,0,0
134928,-90.9090909090909,4,2,4,70,0,0
135104,-90.9090909090909,4,2,4,70,0,0
135281,-90.9090909090909,4,2,31,70,0,0
135457,-90.9090909090909,4,2,19,70,0,0
135634,-90.9090909090909,4,2,19,70,0,0
135810,-90.9090909090909,4,2,19,70,0,0
135987,-90.9090909090909,4,2,30,70,0,0
136340,-90.9090909090909,4,2,19,70,0,0
136693,-90.9090909090909,4,2,30,70,0,0
136869,-90.9090909090909,4,2,19,70,0,0
137046,-90.9090909090909,4,2,19,70,0,0
137222,-90.9090909090909,4,2,19,70,0,0
137398,-90.9090909090909,4,2,30,70,0,0
137575,-90.9090909090909,4,2,1,70,0,0
137751,-90.9090909090909,4,2,4,70,0,0
137928,-90.9090909090909,4,2,4,70,0,0
138104,-90.9090909090909,4,2,30,70,0,0
138281,-90.9090909090909,4,2,1,70,0,0
138457,-90.9090909090909,4,2,30,70,0,0
138634,-90.9090909090909,4,2,2,70,0,0
138722,-90.9090909090909,4,2,31,70,0,0
138810,-90.9090909090909,4,2,31,70,0,0
138898,-90.9090909090909,4,2,31,70,0,0
139163,-90.9090909090909,4,2,19,70,0,0
139516,-90.9090909090909,4,2,30,70,0,0
139693,-90.9090909090909,4,2,12,70,0,0
139781,-90.9090909090909,4,2,18,70,0,0
140046,-90.9090909090909,4,2,12,70,0,0
140222,-90.9090909090909,4,2,31,70,0,0
140398,-90.9090909090909,4,2,12,70,0,0
140575,-90.9090909090909,4,2,4,70,0,0
140751,-90.9090909090909,4,2,4,70,0,0
140928,-90.9090909090909,4,2,30,70,0,0
141104,-90.9090909090909,4,2,19,70,0,0
141281,-90.9090909090909,4,2,19,70,0,0
141457,-90.9090909090909,4,2,19,70,0,0
141634,-90.9090909090909,4,2,31,70,0,0
141810,-90.9090909090909,4,2,1,70,0,0
141987,-90.9090909090909,4,2,19,70,0,0
142163,-90.9090909090909,4,2,1,70,0,0
142340,-90.9090909090909,4,2,30,70,0,0
142516,-90.9090909090909,4,2,12,70,0,0
142604,-90.9090909090909,4,2,18,70,0,0
142869,-90.9090909090909,4,2,12,70,0,0
143046,-90.9090909090909,4,2,31,70,0,0
143222,-90.9090909090909,4,2,12,70,0,0
143398,-90.9090909090909,4,2,4,70,0,0
143575,-90.9090909090909,4,2,4,70,0,0
143751,-90.9090909090909,4,2,30,70,0,0
143928,-90.9090909090909,4,2,1,70,0,0
144104,-90.9090909090909,4,2,32,70,0,0
144281,-90.9090909090909,4,2,18,70,0,0
144457,-90.9090909090909,4,2,18,70,0,0
144634,-90.9090909090909,4,2,18,70,0,0
144810,-125,4,2,20,70,0,0
145163,-125,4,2,24,70,0,0
145340,-125,4,2,12,70,0,0
145516,-125,4,2,1,70,0,0
145693,-125,4,2,12,70,0,0
146046,-125,4,2,12,70,0,0
146398,-125,4,2,12,70,0,0
146575,-125,4,2,27,70,0,0
146751,-125,4,2,1,70,0,0
147634,-125,4,2,29,70,0,0
147987,-125,4,2,29,70,0,0
148163,-125,4,2,29,70,0,0
148516,-125,4,2,29,70,0,0
148693,-125,4,2,29,70,0,0
149575,-250,4,2,29,70,0,0
150104,-250,4,2,21,70,0,0
150457,-100,4,2,21,65,0,0
150810,-100,4,2,31,65,0,0
150987,-100,4,2,18,65,0,0
151163,-100,4,2,18,65,0,0
151340,-100,4,2,18,65,0,0
151516,-100,4,2,30,65,0,0
151604,-100,4,2,1,65,0,0
151693,-100,4,2,12,65,0,0
151781,-100,4,2,1,65,0,0
151869,-100,4,2,30,65,0,0
152046,-100,4,2,12,65,0,0
152222,-100,4,2,30,65,0,0
152398,-100,4,2,12,65,0,0
152487,-100,4,2,18,65,0,0
152751,-100,4,2,12,65,0,0
152928,-100,4,2,31,65,0,0
153281,-100,4,2,19,65,0,0
153457,-100,4,2,1,65,0,0
153634,-100,4,2,30,65,0,0
153810,-100,4,2,12,65,0,0
153898,-100,4,2,19,65,0,0
154163,-100,4,2,12,65,0,0
154340,-100,4,2,30,65,0,0
154516,-100,4,2,12,65,0,0
154693,-100,4,2,4,65,0,0
154869,-100,4,2,12,65,0,0
155046,-100,4,2,30,65,0,0
155222,-100,4,2,12,65,0,0
155310,-100,4,2,19,65,0,0
155575,-100,4,2,1,65,0,0
155751,-100,4,2,19,65,0,0
155928,-100,4,2,1,65,0,0
156104,-100,4,2,19,65,0,0
156193,-100,4,2,1,65,0,0
156457,-100,4,2,30,65,0,0
156546,-100,4,2,1,65,0,0
156634,-100,4,2,12,65,0,0
156722,-100,4,2,1,65,0,0
156810,-100,4,2,19,65,0,0
156898,-100,4,2,1,65,0,0
156987,-100,4,2,12,65,0,0
157075,-100,4,2,1,65,0,0
157163,-100,4,2,30,65,0,0
157251,-100,4,2,1,65,0,0
157340,-100,4,2,12,65,0,0
157428,-100,4,2,1,65,0,0
157516,-100,4,2,30,65,0,0
157604,-100,4,2,1,65,0,0
157693,-100,4,2,12,65,0,0
157781,-100,4,2,1,65,0,0
157869,-100,4,2,30,65,0,0
157957,-100,4,2,1,65,0,0
158046,-100,4,2,12,65,0,0
158134,-100,4,2,1,65,0,0
158222,-100,4,2,19,65,0,0
158310,-100,4,2,1,65,0,0
158398,-100,4,2,12,65,0,0
158487,-100,4,2,1,65,0,0
158575,-100,4,2,30,65,0,0
158663,-100,4,2,1,65,0,0
158928,-100,4,2,19,65,0,0
159016,-100,4,2,1,65,0,0
159281,-100,4,2,30,65,0,0
159369,-100,4,2,1,65,0,0
159457,-100,4,2,12,65,0,0
159546,-100,4,2,1,65,0,0
159634,-100,4,2,19,65,0,0
159722,-100,4,2,1,65,0,0
159810,-100,4,2,12,65,0,0
159898,-100,4,2,1,65,0,0
159987,-100,4,2,30,65,0,0
160075,-100,4,2,1,65,0,0
160163,-100,4,2,12,65,0,0
160251,-100,4,2,1,65,0,0
160340,-100,4,2,30,65,0,0
160428,-100,4,2,1,65,0,0
160516,-100,4,2,12,65,0,0
160604,-100,4,2,1,65,0,0
160693,-100,4,2,30,65,0,0
160781,-100,4,2,1,65,0,0
160869,-100,4,2,12,65,0,0
160957,-100,4,2,1,65,0,0
161046,-100,4,2,19,65,0,0
161134,-100,4,2,1,65,0,0
161222,-100,4,2,12,65,0,0
161310,-100,4,2,1,65,0,0
161398,-100,4,2,30,65,0,0
161487,-100,4,2,1,65,0,0
161751,-100,4,2,12,65,0,0
161928,-100,4,2,29,65,0,0
162104,-100,4,2,12,65,0,0
162457,-100,4,2,29,65,0,0
162634,-100,4,2,12,65,0,0
162987,-100,4,2,20,65,0,0
163340,-100,4,2,20,65,0,0
163516,-100,4,2,1,65,0,0
164222,-100,4,2,5,65,0,0
164398,-100,4,2,1,65,0,0
164575,-125,4,2,13,55,0,0
164928,-125,4,2,3,55,0,0
165104,-125,4,2,3,55,0,0
165281,-125,4,2,24,55,0,0
165457,-125,4,2,1,55,0,0
165634,-125,4,2,24,55,0,0
165810,-125,4,2,12,55,0,0
165987,-125,4,2,3,55,0,0
166163,-125,4,2,12,55,0,0
166340,-125,4,2,14,55,0,0
166516,-125,4,2,1,55,0,0
166693,-125,4,2,28,55,0,0
166869,-125,4,2,12,55,0,0
167046,-125,4,2,3,55,0,0
167222,-125,4,2,12,55,0,0
167575,-125,4,2,12,55,0,0
167751,-125,4,2,3,55,0,0
167928,-125,4,2,12,55,0,0
168104,-125,4,2,27,55,0,0
168281,-125,4,2,1,55,0,0
168457,-125,4,2,3,55,0,0
168634,-125,4,2,12,55,0,0
168810,-125,4,2,3,55,0,0
168987,-125,4,2,1,55,0,0
169163,-125,4,2,14,55,0,0
169340,-125,4,2,1,55,0,0
169516,-125,4,2,28,55,0,0
169693,-125,4,2,12,55,0,0
169869,-125,4,2,3,55,0,0
170046,-125,4,2,12,55,0,0
170398,-125,4,2,1,55,0,0
170575,-125,4,2,14,55,0,0
170751,-125,4,2,12,55,0,0
170928,-125,4,2,24,55,0,0
171104,-125,4,2,12,55,0,0
171281,-125,4,2,3,55,0,0
171457,-125,4,2,12,55,0,0
171810,-125,4,2,1,55,0,0
171987,-125,4,2,14,55,0,0
172163,-125,4,2,1,55,0,0
172340,-125,4,2,33,55,0,0
172516,-125,4,2,12,55,0,0
172693,-125,4,2,3,55,0,0
172869,-125,4,2,1,55,0,0
173046,-125,4,2,12,55,0,0
173398,-125,4,2,24,55,0,0
173751,-125,4,2,24,55,0,0
173928,-125,4,2,24,55,0,0
174104,-125,4,2,24,55,0,0
174457,-125,4,2,12,55,0,0
174634,-125,4,2,1,55,0,0
174810,-125,4,2,13,55,0,0
175163,-100,4,2,33,55,0,0
175340,-100,4,2,1,55,0,0
175693,-100,4,2,12,60,0,0
176046,-100,4,2,12,60,0,0
176222,-100,4,2,24,60,0,0
176398,-100,4,2,12,60,0,0
176575,-100,4,2,3,60,0,0
176751,-100,4,2,12,60,0,0
176928,-100,4,2,27,60,0,0
177104,-100,4,2,12,60,0,0
177281,-100,4,2,3,60,0,0
177457,-100,4,2,3,60,0,0
177634,-100,4,2,27,60,0,0
177810,-100,4,2,1,60,0,0
177987,-100,4,2,14,60,0,0
178163,-100,4,2,12,60,0,0
178340,-100,4,2,24,60,0,0
178516,-100,4,2,12,60,0,0
178869,-100,4,2,12,60,0,0
179046,-100,4,2,27,60,0,0
179222,-100,4,2,12,60,0,0
179310,-100,4,2,12,60,0,0
179398,-100,4,2,3,60,0,0
179575,-100,4,2,12,60,0,0
179751,-100,4,2,27,60,0,0
179928,-100,4,2,12,60,0,0
180281,-100,4,2,12,60,0,0
180457,-100,4,2,24,60,0,0
180634,-100,4,2,24,60,0,0
180810,-100,4,2,13,60,0,0
180987,-100,4,2,13,60,0,0
181163,-100,4,2,24,60,0,0
181340,-100,4,2,24,60,0,0
181516,-100,4,2,12,60,0,0
181869,-100,4,2,24,60,0,0
182222,-100,4,2,14,60,0,0
182575,-100,4,2,24,60,0,0
182928,-100,4,2,12,60,0,0
183281,-100,4,2,27,60,0,0
183457,-100,4,2,1,60,0,0
183634,-100,4,2,14,60,0,0
183987,-100,4,2,24,60,0,0
184163,-100,4,2,24,60,0,0
184340,-100,4,2,12,60,0,0
184693,-100,4,2,29,60,0,0
184869,-100,4,2,12,60,0,0
185398,-100,4,2,29,60,0,0
186104,-200,4,2,29,60,0,0
186457,-200,4,2,1,30,0,0
186810,-200,4,2,1,40,0,0
187163,-200,4,2,1,45,0,0
187340,-200,4,2,1,50,0,0
187516,-200,4,2,1,55,0,0
187693,-100,4,2,1,60,0,0
187869,-100,4,2,29,60,0,0
188398,-100,4,2,29,60,0,0
188575,-100,4,2,12,60,0,0
188928,-100,4,2,1,60,0,0
189104,-100,4,2,12,60,0,0
189810,-139.86013986014,4,2,12,60,0,0
190516,-139.86013986014,4,2,12,60,0,0
190693,-139.86013986014,4,2,1,60,0,0
190869,-90.9090909090909,4,2,1,60,0,0
191310,-90.9090909090909,4,2,2,60,0,0
191398,-90.9090909090909,4,2,17,70,0,0
191751,-90.9090909090909,4,2,30,70,0,0
191928,-90.9090909090909,4,2,19,70,0,0
192104,-90.9090909090909,4,2,19,70,0,0
192281,-90.9090909090909,4,2,19,70,0,0
192457,-90.9090909090909,4,2,30,70,0,0
192634,-90.9090909090909,4,2,4,70,0,0
192810,-90.9090909090909,4,2,4,70,0,0
192987,-90.9090909090909,4,2,4,70,0,0
193163,-90.9090909090909,4,2,30,70,0,0
193340,-90.9090909090909,4,2,19,70,0,0
193516,-90.9090909090909,4,2,19,70,0,0
193693,-90.9090909090909,4,2,19,70,0,0
193869,-90.9090909090909,4,2,31,70,0,0
194046,-90.9090909090909,4,2,19,70,0,0
194222,-90.9090909090909,4,2,19,70,0,0
194575,-90.9090909090909,4,2,30,70,0,0
194751,-90.9090909090909,4,2,12,70,0,0
194840,-90.9090909090909,4,2,18,70,0,0
195104,-90.9090909090909,4,2,12,70,0,0
195281,-90.9090909090909,4,2,31,70,0,0
195457,-90.9090909090909,4,2,12,70,0,0
195634,-90.9090909090909,4,2,4,70,0,0
195810,-90.9090909090909,4,2,4,70,0,0
195987,-90.9090909090909,4,2,31,70,0,0
196163,-90.9090909090909,4,2,19,70,0,0
196340,-90.9090909090909,4,2,19,70,0,0
196516,-90.9090909090909,4,2,19,70,0,0
196693,-90.9090909090909,4,2,30,70,0,0
197046,-90.9090909090909,4,2,19,70,0,0
197398,-90.9090909090909,4,2,30,70,0,0
197575,-90.9090909090909,4,2,19,70,0,0
197751,-90.9090909090909,4,2,19,70,0,0
197928,-90.9090909090909,4,2,19,70,0,0
198104,-90.9090909090909,4,2,30,70,0,0
198281,-90.9090909090909,4,2,1,70,0,0
198457,-90.9090909090909,4,2,4,70,0,0
198634,-90.9090909090909,4,2,4,70,0,0
198810,-90.9090909090909,4,2,30,70,0,0
198987,-90.9090909090909,4,2,1,70,0,0
199163,-90.9090909090909,4,2,30,70,0,0
199340,-90.9090909090909,4,2,2,70,0,0
199516,-90.9090909090909,4,2,31,70,0,0
199604,-90.9090909090909,4,2,31,70,0,0
199869,-90.9090909090909,4,2,19,70,0,0
200222,-90.9090909090909,4,2,30,70,0,0
200398,-90.9090909090909,4,2,12,70,0,0
200487,-90.9090909090909,4,2,18,70,0,0
200751,-90.9090909090909,4,2,12,70,0,0
200928,-90.9090909090909,4,2,31,70,0,0
201104,-90.9090909090909,4,2,12,70,0,0
201281,-90.9090909090909,4,2,4,70,0,0
201457,-90.9090909090909,4,2,4,70,0,0
201634,-90.9090909090909,4,2,30,70,0,0
201810,-90.9090909090909,4,2,19,70,0,0
201987,-90.9090909090909,4,2,19,70,0,0
202163,-90.9090909090909,4,2,19,70,0,0
202340,-90.9090909090909,4,2,31,70,0,0
202516,-90.9090909090909,4,2,1,70,0,0
202693,-90.9090909090909,4,2,19,70,0,0
203046,-90.9090909090909,4,2,30,70,0,0
203222,-90.9090909090909,4,2,12,70,0,0
203310,-90.9090909090909,4,2,18,70,0,0
203575,-90.9090909090909,4,2,12,70,0,0
203751,-90.9090909090909,4,2,31,70,0,0
203928,-90.9090909090909,4,2,12,70,0,0
204104,-90.9090909090909,4,2,4,70,0,0
204281,-90.9090909090909,4,2,4,70,0,0
204457,-90.9090909090909,4,2,30,70,0,0
204634,-90.9090909090909,4,2,1,70,0,0
204810,-90.9090909090909,4,2,32,70,0,0
204987,-90.9090909090909,4,2,1,70,0,0
205163,-90.9090909090909,4,2,34,70,0,0
205340,-90.9090909090909,4,2,19,70,0,0
205516,-90.9090909090909,4,2,19,70,0,0
205869,-90.9090909090909,4,2,30,70,0,0
206046,-90.9090909090909,4,2,12,70,0,0
206134,-90.9090909090909,4,2,18,70,0,0
206398,-90.9090909090909,4,2,12,70,0,0
206575,-90.9090909090909,4,2,31,70,0,0
206751,-90.9090909090909,4,2,12,70,0,0
206928,-90.9090909090909,4,2,4,70,0,0
207104,-90.9090909090909,4,2,4,70,0,0
207281,-90.9090909090909,4,2,31,70,0,0
207457,-90.9090909090909,4,2,19,70,0,0
207634,-90.9090909090909,4,2,19,70,0,0
207898,-90.9090909090909,4,2,19,70,0,0
207987,-90.9090909090909,4,2,30,70,0,0
208075,-90.9090909090909,4,2,30,70,0,0
208163,-90.9090909090909,4,2,1,70,0,0
208340,-90.9090909090909,4,2,35,70,0,0
208516,-90.9090909090909,4,2,29,70,0,0
208693,-90.9090909090909,4,2,22,70,0,0
208869,-90.9090909090909,4,2,29,70,0,0
209046,-90.9090909090909,4,2,36,70,0,0
209222,-90.9090909090909,4,2,12,70,0,0
209398,-90.9090909090909,4,2,36,70,0,0
209575,-90.9090909090909,4,2,29,70,0,0
209663,-90.9090909090909,4,2,29,70,0,0
209751,-90.9090909090909,4,2,6,70,0,0
209928,-90.9090909090909,4,2,6,70,0,0
210104,-90.9090909090909,4,2,37,70,0,0
210281,-90.9090909090909,4,2,12,70,0,0
210369,-90.9090909090909,4,2,12,70,0,0
210457,-90.9090909090909,4,2,38,70,0,0
210634,-90.9090909090909,4,2,38,70,0,0
210810,-90.9090909090909,4,2,37,70,0,0
210898,-90.9090909090909,4,2,37,70,0,0
211163,-90.9090909090909,4,2,17,70,0,0
211516,-90.9090909090909,4,2,30,70,0,0
211693,-90.9090909090909,4,2,12,70,0,0
211781,-90.9090909090909,4,2,18,70,0,0
212046,-90.9090909090909,4,2,12,70,0,0
212222,-90.9090909090909,4,2,31,70,0,0
212398,-90.9090909090909,4,2,12,70,0,0
212575,-90.9090909090909,4,2,4,70,0,0
212751,-90.9090909090909,4,2,4,70,0,0
212928,-90.9090909090909,4,2,31,70,0,0
213104,-90.9090909090909,4,2,12,70,0,0
213193,-90.9090909090909,4,2,19,70,0,0
213457,-90.9090909090909,4,2,19,70,0,0
213634,-90.9090909090909,4,2,30,70,0,0
213987,-90.9090909090909,4,2,19,70,0,0
214340,-90.9090909090909,4,2,30,70,0,0
214516,-90.9090909090909,4,2,19,70,0,0
214693,-90.9090909090909,4,2,19,70,0,0
214869,-90.9090909090909,4,2,19,70,0,0
215046,-90.9090909090909,4,2,30,70,0,0
215222,-90.9090909090909,4,2,4,70,0,0
215398,-90.9090909090909,4,2,4,70,0,0
215575,-90.9090909090909,4,2,4,70,0,0
215751,-90.9090909090909,4,2,30,70,0,0
215928,-90.9090909090909,4,2,19,70,0,0
216104,-90.9090909090909,4,2,19,70,0,0
216281,-90.9090909090909,4,2,19,70,0,0
216457,-90.9090909090909,4,2,31,70,0,0
216634,-90.9090909090909,4,2,19,70,0,0
216810,-90.9090909090909,4,2,19,70,0,0
217163,-90.9090909090909,4,2,30,70,0,0
217340,-90.9090909090909,4,2,12,70,0,0
217428,-90.9090909090909,4,2,18,70,0,0
217693,-90.9090909090909,4,2,12,70,0,0
217869,-90.9090909090909,4,2,31,70,0,0
218046,-90.9090909090909,4,2,12,70,0,0
218222,-90.9090909090909,4,2,4,70,0,0
218398,-90.9090909090909,4,2,4,70,0,0
218575,-90.9090909090909,4,2,31,70,0,0
218751,-90.9090909090909,4,2,19,70,0,0
218928,-90.9090909090909,4,2,19,70,0,0
219104,-90.9090909090909,4,2,19,70,0,0
219281,-90.9090909090909,4,2,30,70,0,0
219634,-90.9090909090909,4,2,19,70,0,0
219987,-90.9090909090909,4,2,30,70,0,0
220163,-90.9090909090909,4,2,19,70,0,0
220340,-90.9090909090909,4,2,19,70,0,0
220516,-90.9090909090909,4,2,19,70,0,0
220693,-90.9090909090909,4,2,30,70,0,0
220869,-90.9090909090909,4,2,4,70,0,0
221046,-90.9090909090909,4,2,4,70,0,0
221222,-90.9090909090909,4,2,4,70,0,0
221398,-90.9090909090909,4,2,30,70,0,0
221575,-90.9090909090909,4,2,1,70,0,0
221751,-90.9090909090909,4,2,30,70,0,0
221928,-90.9090909090909,4,2,1,70,0,0
222104,-90.9090909090909,4,2,31,70,0,0
222193,-90.9090909090909,4,2,31,70,0,0
222457,-90.9090909090909,4,2,19,70,0,0
222810,-90.9090909090909,4,2,30,70,0,0
222987,-90.9090909090909,4,2,12,70,0,0
223075,-90.9090909090909,4,2,18,70,0,0
223340,-90.9090909090909,4,2,12,70,0,0
223516,-90.9090909090909,4,2,31,70,0,0
223693,-90.9090909090909,4,2,12,70,0,0
223869,-90.9090909090909,4,2,4,70,0,0
224046,-90.9090909090909,4,2,4,70,0,0
224222,-90.9090909090909,4,2,30,70,0,0
224398,-90.9090909090909,4,2,19,70,0,0
224575,-90.9090909090909,4,2,19,70,0,0
224751,-90.9090909090909,4,2,19,70,0,0
224928,-90.9090909090909,4,2,31,70,0,0
225104,-90.9090909090909,4,2,1,70,0,0
225281,-90.9090909090909,4,2,19,70,0,0
225634,-90.9090909090909,4,2,30,70,0,0
225810,-90.9090909090909,4,2,12,70,0,0
225898,-90.9090909090909,4,2,18,70,0,0
226163,-90.9090909090909,4,2,12,70,0,0
226340,-90.9090909090909,4,2,31,70,0,0
226516,-90.9090909090909,4,2,12,70,0,0
226693,-90.9090909090909,4,2,4,70,0,0
226869,-90.9090909090909,4,2,4,70,0,0
227046,-90.9090909090909,4,2,30,70,0,0
227222,-90.9090909090909,4,2,1,70,0,0
227398,-90.9090909090909,4,2,32,70,0,0
227575,-90.9090909090909,4,2,18,70,0,0
227751,-90.9090909090909,4,2,18,70,0,0
227840,-90.9090909090909,4,2,18,70,0,0
228104,-125,4,2,20,70,0,0
228457,-125,4,2,24,70,0,0
228634,-125,4,2,12,70,0,0
228810,-125,4,2,1,70,0,0
228987,-125,4,2,12,70,0,0
229340,-125,4,2,12,70,0,0
229693,-125,4,2,12,70,0,0
229869,-125,4,2,27,70,0,0
230222,-125,4,2,1,70,0,0
230928,-125,4,2,29,70,0,0
231281,-125,4,2,29,70,0,0
231457,-125,4,2,29,70,0,0
231810,-125,4,2,29,70,0,0
231987,-125,4,2,29,70,0,0
232693,-125,4,2,29,70,0,0
233751,-100,4,2,1,65,0,0
233928,-100,4,2,17,65,0,0
234104,-100,4,2,18,65,0,0
234281,-100,4,2,2,65,0,0
234457,-100,4,2,3,65,0,0
234634,-100,4,2,2,65,0,0
234810,-100,4,2,19,65,0,0
234987,-100,4,2,4,65,0,0
235163,-100,4,2,2,65,0,0
235340,-100,4,2,5,65,0,0
235516,-100,4,2,20,65,0,0
235693,-100,4,2,5,65,0,0
235781,-100,4,2,1,65,0,0
235869,-100,4,2,6,65,0,0
236046,-100,4,2,5,65,0,0
236222,-100,4,2,20,65,0,0
236398,-100,4,2,5,65,0,0
236575,-100,4,2,7,65,0,0
236751,-100,4,2,17,65,0,0
236928,-100,4,2,18,65,0,0
237104,-100,4,2,2,65,0,0
237193,-100,4,2,1,65,0,0
237281,-100,4,2,3,65,0,0
237457,-100,4,2,2,65,0,0
237634,-100,4,2,19,65,0,0
237810,-100,4,2,4,65,0,0
237987,-100,4,2,2,65,0,0
238163,-100,4,2,8,65,0,0
238340,-100,4,2,21,65,0,0
238516,-100,4,2,8,65,0,0
238604,-100,4,2,1,65,0,0
238693,-100,4,2,9,65,0,0
238869,-100,4,2,8,65,0,0
239046,-100,4,2,21,65,0,0
239222,-100,4,2,8,65,0,0
239398,-100,4,2,7,65,0,0
239575,-100,4,2,17,65,0,0
239751,-100,4,2,18,65,0,0
239928,-100,4,2,2,65,0,0
240104,-100,4,2,3,65,0,0
240281,-100,4,2,2,65,0,0
240457,-100,4,2,19,65,0,0
240634,-100,4,2,4,65,0,0
240810,-100,4,2,2,65,0,0
240987,-100,4,2,5,65,0,0
241163,-100,4,2,20,65,0,0
241340,-100,4,2,5,65,0,0
241428,-100,4,2,1,65,0,0
241516,-100,4,2,6,65,0,0
241693,-100,4,2,5,65,0,0
241869,-100,4,2,20,65,0,0
242046,-100,4,2,5,65,0,0
242398,-100,4,2,17,65,0,0
242575,-100,4,2,17,65,0,0
242751,-100,4,2,23,65,0,0
242928,-100,4,2,39,65,0,0
243104,-100,4,2,40,65,0,0
243457,-100,4,2,24,45,0,0

[Colours]
Combo1 : 247,247,51
Combo2 : 237,61,61
Combo3 : 255,128,0

[HitObjects]
425,50,812,6,0,P|411:107|394:187,1,125.999996154785,2|2,2:2|2:2,0:0:0:0:
467,276,1342,2,0,P|480:218|497:138,1,125.999996154785,2|2,2:2|2:2,0:0:0:0:
330,85,2048,6,0,P|272:71|192:54,1,125.999996154785,2|0,2:2|0:0,0:0:0:0:
26,0,2753,1,2,2:2:0:0:
26,0,2930,2,0,P|-11:75|0:112,1,125.999996154785,2|2,2:2|2:2,0:0:0:0:
207,112,3636,6,0,P|268:98|329:84,2,125.999996154785,2|2|2,2:2|2:2|2:2,0:0:0:0:
38,221,4695,2,0,B|140:200|115:275|231:247,1,188.999994232178,2|0,2:2|0:0,0:0:0:0:
283,180,5400,1,2,2:2:0:0:
405,29,5753,2,0,P|330:-8|293:3,1,125.999996154785,2|2,2:2|2:2,0:0:0:0:
398,240,6459,6,0,P|412:179|426:118,1,125.999996154785,2|2,2:2|2:2,0:0:0:0:
283,180,6989,2,0,P|297:241|311:302,1,125.999996154785,2|2,2:2|2:2,0:0:0:0:
508,358,7695,2,0,P|433:321|396:332,1,125.999996154785,2|0,2:2|0:0,0:0:0:0:
328,384,8224,1,2,2:2:0:0:
171,206,8577,2,0,P|231:214|282:179,1,125.999996154785,2|2,2:2|2:2,0:0:0:0:
155,371,9283,6,0,P|104:336|43:344,2,125.999996154785,2|2|2,2:2|2:2|2:2,0:0:0:0:
351,246,10342,6,0,P|367:173|384:101,1,144,2|2,2:2|2:2,0:0:0:0:
256,192,11400,1,2,2:2:0:0:
256,192,11577,12,0,14224,0:0:0:0:
28,212,14930,6,0,P|81:161|195:189,1,180,14|10,2:1|2:2,0:0:0:0:
316,173,15459,1,10,2:1:0:0:
316,173,15548,1,8,2:1:0:0:
316,173,15636,2,0,P|303:219|292:269,1,90,10|10,2:1|2:1,0:0:0:0:
222,378,15989,5,10,2:2:0:0:
222,378,16165,2,0,P|314:353|415:330,1,180,10|10,2:1|2:1,0:0:0:0:
503,310,16695,5,10,2:2:0:0:
440,205,16871,1,10,2:1:0:0:
440,205,16959,1,8,2:2:0:0:
440,205,17048,1,10,2:1:0:0:
508,319,17224,1,10,2:1:0:0:
440,205,17400,2,0,P|449:161|462:117,1,90,10|10,2:2|2:1,0:0:0:0:
372,12,17753,6,0,P|288:22|276:105,1,180,14|10,2:1|2:2,0:0:0:0:
349,214,18283,1,10,2:1:0:0:
349,214,18371,1,8,2:2:0:0:
349,214,18459,2,0,P|305:223|261:236,1,90,10|10,2:1|2:1,0:0:0:0:
141,184,18812,5,10,2:2:0:0:
141,184,18989,2,0,P|166:276|189:377,1,180,10|10,2:1|2:1,0:0:0:0:
75,270,19518,1,10,2:2:0:0:
22,384,19695,1,10,2:1:0:0:
22,384,19783,1,8,2:2:0:0:
22,384,19871,2,0,P|12:340|0:296,1,90,10|10,2:1|2:1,0:0:0:0:
30,122,20224,1,10,2:2:0:0:
141,184,20400,1,10,2:1:0:0:
305,35,20577,6,0,P|220:55|154:0,1,180,14|10,2:1|2:2,0:0:0:0:
30,122,21106,1,10,2:1:0:0:
30,122,21195,1,8,2:1:0:0:
30,122,21283,2,0,P|73:109|117:99,1,90,10|10,2:1|2:1,0:0:0:0:
245,106,21636,5,14,2:2:0:0:
260,209,21812,2,0,P|280:121|304:34,1,180,10|10,2:1|2:1,0:0:0:0:
457,8,22342,2,0,P|447:51|434:95,1,90,10|10,2:2|2:1,0:0:0:0:
420,120,22606,1,8,2:2:0:0:
419,119,22695,2,0,P|431:162|441:206,1,90,10|10,2:1|2:1,0:0:0:0:
512,285,23048,1,10,2:2:0:0:
377,367,23224,1,10,2:1:0:0:
425,290,23400,1,8,2:1:0:0:
347,186,23577,6,0,P|303:195|259:208,1,90,14|0,2:2|0:0,0:0:0:0:
153,309,23930,1,10,2:1:0:0:
333,178,24106,2,0,P|289:187|245:200,1,90,14|0,2:2|0:0,0:0:0:0:
145,317,24459,1,10,2:1:0:0:
193,107,24636,6,0,P|138:127|134:233,1,144,14|2,2:1|2:2,0:0:0:0:
315,247,25165,2,0,P|323:212|333:178,2,72,2|2|2,2:2|2:2|2:2,0:0:0:0:
315,247,26224,6,0,P|271:257|228:269,2,90,14|0|0,2:1|0:0|0:0,0:0:0:0:
280,378,27106,1,0,0:0:0:0:
280,378,27283,2,0,P|287:356|292:334,1,45,2|2,2:2|2:2,0:0:0:0:
251,182,27636,6,0,P|240:225|228:268,1,90,10|0,2:1|0:0,0:0:0:0:
201,348,28165,2,0,P|157:359|114:371,1,90,0|2,0:0|2:2,0:0:0:0:
114,371,28695,1,2,2:2:0:0:
369,302,28871,6,0,P|391:295|413:290,1,45,2|10,2:2|2:1,0:0:0:0:
291,334,29224,1,2,2:2:0:0:
291,334,29400,1,2,2:2:0:0:
209,224,29577,2,0,P|187:217|165:212,1,45,2|2,2:2|2:3,0:0:0:0:
375,192,29930,2,0,P|396:198|418:203,1,45,2|0,2:2|0:0,0:0:0:0:
303,250,30283,6,0,P|291:206|279:163,1,90,2|2,2:2|2:2,0:0:0:0:
279,163,30812,1,2,2:3:0:0:
467,136,30989,6,0,P|455:92|443:49,1,90,2|2,2:2|2:2,0:0:0:0:
353,26,31518,2,0,P|359:47|364:69,1,45,2|2,2:2|2:2,0:0:0:0:
279,163,31871,6,0,P|235:174|192:186,2,90,10|0|0,2:1|0:0|0:0,0:0:0:0:
306,265,32753,1,0,0:0:0:0:
306,265,32930,2,0,P|284:258|262:253,1,45,2|2,2:2|2:2,0:0:0:0:
108,166,33283,6,0,P|96:209|84:252,1,90,10|0,2:1|0:0,0:0:0:0:
9,205,33812,2,0,P|21:161|32:118,1,90,0|2,0:0|2:2,0:0:0:0:
32,118,34342,1,2,2:2:0:0:
192,186,34518,6,0,P|214:179|236:174,1,45,2|10,2:2|2:1,0:0:0:0:
318,157,34871,1,2,2:2:0:0:
318,157,35048,1,2,2:2:0:0:
444,238,35224,6,0,P|410:224|374:223,1,72,2|2,2:2|2:3,0:0:0:0:
161,101,35577,2,0,P|196:99|230:86,1,72,2|2,2:2|2:3,0:0:0:0:
343,7,35930,5,14,2:1:0:0:
343,7,36636,5,10,2:2:0:0:
343,7,36724,1,8,2:2:0:0:
343,7,36812,1,8,2:2:0:0:
313,83,36989,1,10,2:1:0:0:
484,179,37165,5,8,2:2:0:0:
463,153,37253,1,8,2:3:0:0:
433,138,37341,1,4,2:3:0:0:
400,137,37429,1,8,2:3:0:0:
370,152,37518,6,0,P|359:195|347:238,1,90,14|2,2:1|2:2,0:0:0:0:
373,375,37871,2,0,P|344:331|261:321,1,135,10|2,2:2|0:0,0:0:0:0:
249,329,38224,1,10,2:1:0:0:
420,286,38400,2,0,P|463:273|506:262,1,90,2|8,2:2|2:2,0:0:0:0:
257,233,38753,6,0,P|169:255|83:279,1,180,2|2,2:2|2:2,0:0:0:0:
39,83,39283,1,10,2:2:0:0:
2,163,39459,1,10,2:1:0:0:
2,163,39548,1,8,2:2:0:0:
2,163,39636,2,0,P|46:172|90:185,1,90,10|10,2:1|2:1,0:0:0:0:
234,55,39989,2,0,P|283:39|353:85,1,135,8|0,2:2|0:0,0:0:0:0:
361,98,40342,5,0,0:0:0:0:
441,76,40518,1,2,2:2:0:0:
282,126,40695,2,0,P|294:169|305:212,1,90,10|10,2:2|2:2,0:0:0:0:
390,259,40960,1,8,0:0:0:0:
390,259,41048,2,0,P|377:302|366:345,1,90,10|2,2:1|2:2,0:0:0:0:
472,237,41400,1,8,2:2:0:0:
291,296,41577,6,0,P|204:272|117:249,1,180,2|2,2:2|2:2,0:0:0:0:
47,296,42106,1,8,2:2:0:0:
167,178,42283,1,10,2:1:0:0:
167,178,42371,1,8,2:2:0:0:
167,178,42459,2,0,P|161:156|155:134,1,45,8|0,2:1|0:0,0:0:0:0:
47,296,42635,2,0,P|52:317|58:339,1,45,10|0,2:1|0:0,0:0:0:0:
143,357,42812,1,10,2:2:0:0:
251,198,42989,5,10,2:1:0:0:
251,198,43077,1,8,2:1:0:0:
251,198,43165,2,0,P|336:179|403:235,1,180,10|8,2:1|2:2,0:0:0:0:
512,99,43695,1,8,0:0:0:0:
512,99,43783,1,8,0:0:0:0:
512,99,43871,2,0,P|468:111|425:122,1,90,8|2,2:1|2:3,0:0:0:0:
345,89,44224,1,10,2:2:0:0:
315,269,44400,6,0,P|228:292|141:315,1,180,2|2,2:2|2:3,0:0:0:0:
18,209,44930,1,8,2:2:0:0:
10,328,45106,1,10,2:1:0:0:
10,328,45194,1,8,2:2:0:0:
10,328,45282,2,0,P|31:333|53:339,1,45,8|0,2:1|0:0,0:0:0:0:
140,189,45459,2,0,P|118:182|96:177,1,45,10|0,2:1|0:0,0:0:0:0:
52,339,45636,2,0,P|35:274|18:209,1,135,8|8,2:2|2:1,0:0:0:0:
122,271,45989,6,0,P|165:283|208:294,1,90,12|2,2:1|2:2,0:0:0:0:
396,332,46342,1,10,2:2:0:0:
317,364,46518,5,10,2:2:0:0:
317,364,46606,1,8,2:1:0:0:
317,364,46695,2,0,P|304:320|293:277,1,90,10|10,2:1|2:1,0:0:0:0:
359,115,47048,1,10,2:2:0:0:
498,238,47224,2,0,P|412:256|345:200,1,180,14|10,2:1|2:2,0:0:0:0:
188,166,47753,6,0,P|231:154|274:142,1,90,10|8,2:2|2:1,0:0:0:0:
451,121,48106,6,0,P|444:143|439:165,1,45,8|0,2:2|0:0,0:0:0:0:
285,98,48283,2,0,P|278:120|274:142,1,45,8|0,2:1|0:0,0:0:0:0:
344,200,48459,1,8,2:1:0:0:
382,61,48636,5,8,2:1:0:0:
382,61,48724,1,8,2:1:0:0:
382,61,48812,2,0,P|361:138|340:217,1,144,14|2,2:1|2:2,0:0:0:0:
301,350,49342,2,0,P|252:336|203:324,1,72,10|10,2:1|2:2,0:0:0:0:
207,239,49695,2,0,P|241:248|276:257,1,72,2|2,2:2|2:3,0:0:0:0:
422,296,50048,6,0,P|465:241|452:173,1,144,10|10,2:1|2:1,0:0:0:0:
512,26,50577,2,0,P|435:47|355:67,1,144,10|10,2:1|2:2,0:0:0:0:
309,0,51106,1,8,2:1:0:0:
163,89,51283,1,2,2:2:0:0:
210,15,51459,5,10,2:1:0:0:
210,15,51548,1,8,2:1:0:0:
210,15,51636,2,0,P|252:70|239:138,1,144,14|2,2:1|2:3,0:0:0:0:
75,209,52165,2,0,P|26:195|-22:183,1,72,10|10,2:1|2:2,0:0:0:0:
163,89,52518,2,0,P|149:137|137:186,1,72,10|10,2:2|2:1,0:0:0:0:
52,309,52871,6,0,P|129:288|208:267,1,144,14|10,2:1|2:2,0:0:0:0:
300,384,53400,2,0,P|352:369|407:355,1,108,10|0,2:1|0:0,0:0:0:0:
423,332,53753,2,0,P|436:283|448:234,1,72,10|8,2:2|2:1,0:0:0:0:
315,217,54106,5,10,2:2:0:0:
315,217,54195,1,8,2:2:0:0:
315,217,54283,2,0,L|296:281,1,36,8|8,2:2|2:2,0:0:0:0:
501,204,54459,6,0,P|450:179|417:184,1,80.9999975280763,14|0,2:1|0:0,0:0:0:0:
220,110,54812,2,0,P|260:108|293:87,1,80.9999975280763,10|0,2:2|0:0,0:0:0:0:
421,0,55165,1,10,2:1:0:0:
236,30,55342,1,8,2:1:0:0:
356,140,55518,2,0,P|374:104|373:64,1,80.9999975280763,10|0,2:2|0:0,0:0:0:0:
148,9,55871,6,0,P|110:79|113:158,1,161.999995056153,14|10,2:1|2:2,0:0:0:0:
236,195,56400,1,8,2:1:0:0:
236,195,56489,1,8,2:2:0:0:
236,195,56577,2,0,P|284:208|343:224,1,80.9999975280763,10|8,2:2|2:1,0:0:0:0:
395,244,56930,1,10,2:2:0:0:
113,158,57106,5,8,2:1:0:0:
113,158,57195,1,8,2:1:0:0:
113,158,57283,2,0,P|73:147|34:136,1,80.9999975280763,14|0,2:1|0:0,0:0:0:0:
153,235,57636,1,10,2:2:0:0:
0,364,57812,6,0,P|78:342|156:321,1,161.999995056153,14|10,2:1|2:1,0:0:0:0:
236,195,58342,1,10,2:2:0:0:
29,126,58518,5,10,2:2:0:0:
29,126,58871,5,10,2:2:0:0:
238,286,59048,1,10,2:2:0:0:
238,286,59930,5,2,2:2:0:0:
238,286,60018,1,8,2:1:0:0:
238,286,60106,2,0,P|258:186|278:97,1,148.50000453186,14|0,2:1|0:0,0:0:0:0:
276,114,60459,1,10,2:2:0:0:
395,18,60636,2,0,P|449:8|507:-4,1,99.0000030212403,2|10,2:1|2:1,0:0:0:0:
310,32,60989,1,10,2:1:0:0:
403,136,61165,1,10,2:2:0:0:
238,286,61342,6,0,P|137:253|110:142,1,198.000006042481,10|8,2:1|2:1,0:0:0:0:
234,57,61871,2,0,P|223:105|215:154,1,99.0000030212403,10|10,2:2|2:1,0:0:0:0:
215,181,62136,1,8,2:2:0:0:
215,181,62224,1,10,2:1:0:0:
60,101,62400,1,8,2:1:0:0:
87,270,62577,2,0,P|97:221|105:172,1,99.0000030212403,10|0,2:2|0:0,0:0:0:0:
258,36,62930,6,0,P|319:73|391:59,1,148.50000453186,14|0,2:1|0:0,0:0:0:0:
413,40,63283,2,0,P|402:88|394:137,1,99.0000030212403,10|8,2:2|2:1,0:0:0:0:
327,188,63548,1,8,2:2:0:0:
327,188,63636,2,0,P|337:236|345:285,1,99.0000030212403,10|8,2:1|2:1,0:0:0:0:
498,384,63989,5,10,2:2:0:0:
446,269,64165,2,0,P|406:356|314:382,1,198.000006042481,8|8,2:1|2:1,0:0:0:0:
133,275,64695,2,0,P|181:264|230:256,1,99.0000030212403,10|8,2:2|2:1,0:0:0:0:
261,258,64959,1,8,2:2:0:0:
261,258,65048,1,10,2:1:0:0:
176,168,65224,1,8,2:1:0:0:
55,354,65400,2,0,P|103:362|152:372,1,99.0000030212403,10|8,2:2|2:1,0:0:0:0:
345,285,65753,6,0,P|353:236|363:187,1,99.0000030212403,14|0,2:1|0:0,0:0:0:0:
256,5,66106,2,0,P|247:53|237:102,1,99.0000030212403,10|10,2:2|2:1,0:0:0:0:
176,168,66371,1,8,2:2:0:0:
176,168,66459,2,0,P|127:176|78:186,1,99.0000030212403,10|10,2:1|2:1,0:0:0:0:
0,131,66812,1,10,2:2:0:0:
250,264,66989,6,0,P|153:281|56:301,1,198.000006042481,10|8,2:1|2:1,0:0:0:0:
163,318,67518,1,10,2:2:0:0:
0,130,67695,1,8,2:1:0:0:
0,130,67783,1,8,2:2:0:0:
0,130,67871,2,0,P|9:179|18:228,1,99.0000030212403,10|8,2:1|2:1,0:0:0:0:
176,168,68224,2,0,P|165:119|157:70,1,99.0000030212403,10|0,2:2|0:0,0:0:0:0:
345,0,68577,6,0,P|416:-14|478:22,1,148.50000453186,14|0,2:1|0:0,0:0:0:0:
494,50,68930,2,0,P|483:98|475:147,1,99.0000030212403,10|8,2:2|2:1,0:0:0:0:
401,184,69195,1,8,2:2:0:0:
401,184,69283,2,0,P|411:232|419:281,1,99.0000030212403,10|8,2:1|2:1,0:0:0:0:
235,380,69636,5,10,2:2:0:0:
360,343,69812,2,0,P|263:352|181:300,1,198.000006042481,12|8,2:1|2:1,0:0:0:0:
116,145,70342,5,10,2:2:0:0:
49,346,70518,1,8,2:1:0:0:
121,135,70695,1,10,2:2:0:0:
47,355,70871,1,8,2:1:0:0:
129,127,71048,5,10,2:2:0:0:
155,101,71136,1,8,2:2:0:0:
189,87,71224,1,8,2:2:0:0:
225,80,71312,1,8,2:2:0:0:
261,86,71400,6,0,P|310:102|358:104,1,99.0000030212403,14|0,2:1|0:0,0:0:0:0:
463,41,71753,1,10,2:2:0:0:
301,194,71930,1,2,2:1:0:0:
301,194,72018,1,8,2:2:0:0:
301,194,72106,1,10,2:1:0:0:
505,239,72283,2,0,P|455:242|408:257,1,99.0000030212403,10|10,2:1|2:2,0:0:0:0:
235,380,72636,6,0,P|144:361|135:269,1,198.000006042481,14|8,2:1|2:1,0:0:0:0:
301,194,73165,2,0,P|290:242|282:291,1,99.0000030212403,10|8,2:2|2:1,0:0:0:0:
283,310,73430,1,8,2:2:0:0:
283,310,73518,1,10,2:1:0:0:
202,200,73695,1,8,2:1:0:0:
98,354,73871,1,10,2:2:0:0:
208,194,74048,1,2,2:2:0:0:
97,49,74224,6,0,P|48:38|0:30,1,99.0000030212403,14|0,2:1|0:0,0:0:0:0:
260,77,74577,2,0,P|308:85|357:95,1,99.0000030212403,10|10,2:2|2:1,0:0:0:0:
392,105,74842,1,8,2:2:0:0:
392,105,74930,1,10,2:1:0:0:
178,69,75106,1,10,2:1:0:0:
298,189,75283,1,10,2:2:0:0:
178,69,75459,6,0,P|160:165|140:262,1,198.000006042481,14|8,2:1|2:1,0:0:0:0:
260,361,75989,2,0,P|280:261|300:172,1,148.50000453186,10|8,2:2|2:2,0:0:0:0:
298,189,76342,5,10,2:2:0:0:
375,146,76518,1,8,2:1:0:0:
446,198,76695,1,10,2:1:0:0:
370,139,76871,1,0,0:0:0:0:
512,55,77048,6,0,P|457:75|343:0,1,180,14|2,2:1|2:2,0:0:0:0:
191,79,77577,2,0,P|239:87|288:97,1,90,10|8,2:1|2:2,0:0:0:0:
174,164,77930,2,0,P|125:153|76:145,1,90,10|0,2:1|0:0,0:0:0:0:
0,33,78283,6,0,P|88:15|176:0,1,180,14|8,2:1|2:1,0:0:0:0:
279,95,78812,1,10,2:2:0:0:
174,164,78989,1,0,0:0:0:0:
0,33,79165,6,0,P|8:77|16:121,1,90,10|8,2:2|2:1,0:0:0:0:
111,237,79518,1,10,2:2:0:0:
111,237,79606,1,8,2:2:0:0:
111,237,79695,1,8,2:2:0:0:
16,121,79871,5,10,2:2:0:0:
201,248,80048,1,10,2:2:0:0:
348,34,80400,5,10,2:2:0:0:
163,161,80577,1,8,2:2:0:0:
78,40,80930,5,8,2:2:0:0:
263,167,81107,1,10,2:2:0:0:
263,167,82695,6,0,P|182:198|165:283,1,180,14|10,2:1|2:2,0:0:0:0:
0,199,83224,1,10,2:1:0:0:
0,199,83312,1,8,2:1:0:0:
0,199,83400,2,0,P|43:187|86:176,1,90,10|10,2:1|2:1,0:0:0:0:
151,107,83753,1,10,2:2:0:0:
249,251,83930,6,0,P|336:273|422:297,1,180,10|10,2:1|2:1,0:0:0:0:
486,231,84459,2,0,P|474:188|463:145,1,90,10|10,2:2|2:1,0:0:0:0:
347,188,84724,1,8,2:2:0:0:
347,188,84812,2,0,P|368:193|390:199,1,45,10|0,2:1|0:0,0:0:0:0:
506,155,84989,2,0,P|484:149|462:143,1,45,10|0,2:1|0:0,0:0:0:0:
308,92,85165,2,0,P|255:132|190:125,1,135,10|8,2:2|1:1,0:0:0:0:
143,55,85518,6,0,P|167:141|189:228,1,180,14|10,2:1|2:2,0:0:0:0:
11,190,86048,1,10,2:1:0:0:
11,190,86136,1,8,2:2:0:0:
11,190,86224,2,0,P|54:202|97:213,1,90,10|10,2:1|2:1,0:0:0:0:
73,116,86577,1,10,2:2:0:0:
139,320,86753,6,0,P|196:255|281:267,1,180,10|10,2:1|2:1,0:0:0:0:
436,351,87283,2,0,P|448:308|459:265,1,90,10|10,2:2|2:1,0:0:0:0:
370,267,87548,1,8,2:2:0:0:
370,267,87636,2,0,P|363:288|358:310,1,45,10|0,2:1|0:0,0:0:0:0:
281,267,87812,1,10,2:1:0:0:
413,187,87989,2,0,P|396:121|377:56,1,135,10|0,2:2|0:0,0:0:0:0:
298,10,88342,6,0,P|384:34|471:56,1,180,14|10,2:1|2:2,0:0:0:0:
299,105,88872,1,10,2:1:0:0:
299,105,88960,1,8,2:1:0:0:
299,105,89048,2,0,P|256:93|213:82,1,90,10|10,2:1|2:1,0:0:0:0:
29,48,89400,1,14,2:2:0:0:
116,30,89577,6,0,P|180:87|168:172,1,180,10|10,2:1|2:1,0:0:0:0:
5,142,90106,2,0,P|48:130|91:119,1,90,10|10,2:2|2:1,0:0:0:0:
260,179,90371,1,8,2:2:0:0:
260,179,90459,2,0,P|281:185|303:190,1,45,10|0,2:1|0:0,0:0:0:0:
375,143,90636,2,0,P|396:136|418:131,1,45,10|0,2:1|0:0,0:0:0:0:
503,265,90812,2,0,P|450:224|385:231,1,135,10|0,2:2|0:0,0:0:0:0:
363,250,91165,1,8,2:1:0:0:
202,204,91342,6,0,P|246:195|290:182,1,90,14|0,2:2|0:0,0:0:0:0:
374,61,91695,1,10,2:1:0:0:
216,212,91871,2,0,P|260:203|304:190,1,90,14|0,2:2|0:0,0:0:0:0:
382,53,92224,1,10,2:1:0:0:
463,215,92400,6,0,P|422:260|363:250,1,125.999996154785,14|2,2:1|2:2,0:0:0:0:
287,288,92930,2,0,P|293:318|302:349,1,62.9999980773926,2|2,2:2|2:2,0:0:0:0:
206,306,93283,2,0,P|212:336|221:367,1,62.9999980773926,2|0,2:2|0:0,0:0:0:0:
58,252,93989,6,0,B|110:268|148:242|141:235|173:205|230:219,1,180,10|0,2:1|0:0,0:0:0:0:
228,218,95048,2,0,P|234:188|243:157,1,45,2|2,2:2|2:2,0:0:0:0:
186,19,95400,2,0,P|145:71|155:136,2,135,0|0|2,0:0|0:0|2:2,0:0:0:0:
304,114,96812,6,0,P|347:101|391:91,1,90,0|2,0:0|2:2,0:0:0:0:
491,48,97342,2,0,P|472:112|456:178,1,135,2|2,2:2|2:2,0:0:0:0:
396,356,98224,2,0,P|447:315|512:325,2,135,0|2|2,0:0|2:2|2:2,0:0:0:0:
321,310,99636,6,0,B|269:326|231:300|238:293|206:263|149:277,1,180,2|0,2:2|0:0,0:0:0:0:
151,276,100695,2,0,P|157:306|166:337,1,45,2|2,2:2|2:2,0:0:0:0:
84,377,101048,2,0,P|69:311|57:245,2,135,0|0|2,0:0|0:0|2:2,0:0:0:0:
134,194,102282,5,10,2:1:0:0:
134,194,102371,1,8,2:1:0:0:
134,194,102459,2,0,P|146:150|156:106,1,90,12|0,2:2|0:0,0:0:0:0:
58,129,102812,5,10,2:2:0:0:
283,70,102989,1,10,2:2:0:0:
45,133,103165,5,8,2:2:0:0:
298,158,103342,1,10,2:2:0:0:
36,136,103518,5,8,2:2:0:0:
313,246,103695,6,0,B|261:230|223:256|230:263|198:293|141:279,1,180,10|10,2:1|2:2,0:0:0:0:
142,279,104489,1,8,2:2:0:0:
142,279,104577,1,8,2:2:0:0:
283,331,104753,1,10,2:1:0:0:
168,192,104930,5,8,2:2:0:0:
131,185,105019,1,8,2:3:0:0:
97,196,105107,1,4,2:3:0:0:
70,221,105195,1,8,2:3:0:0:
57,254,105283,6,0,P|68:298|73:341,1,90,14|2,2:1|2:2,0:0:0:0:
0,384,105636,1,10,2:2:0:0:
151,288,105812,1,2,2:2:0:0:
0,171,105989,5,10,2:1:0:0:
154,83,106165,2,0,P|143:127|137:170,1,90,2|8,2:2|2:2,0:0:0:0:
252,301,106518,6,0,P|296:290|339:284,1,90,2|8,2:2|2:1,0:0:0:0:
452,286,106871,1,2,2:2:0:0:
357,194,107048,1,10,2:2:0:0:
512,115,107224,1,10,2:1:0:0:
512,115,107312,1,8,2:2:0:0:
512,115,107400,5,10,2:1:0:0:
442,201,107577,2,0,P|436:156|425:112,1,90,10|8,2:1|2:2,0:0:0:0:
239,0,107930,6,0,P|250:89|272:176,1,180,2|2,2:2|2:2,0:0:0:0:
340,284,108459,1,10,2:2:0:0:
442,201,108636,1,10,2:2:0:0:
442,201,108724,1,8,2:1:0:0:
442,201,108812,1,10,2:1:0:0:
244,261,108989,2,0,P|199:266|155:277,1,90,2|8,2:2|2:2,0:0:0:0:
284,91,109342,6,0,P|328:85|372:74,1,90,2|8,2:2|2:1,0:0:0:0:
110,119,109695,2,0,P|65:124|21:135,1,90,2|8,2:2|2:2,0:0:0:0:
177,0,110048,2,0,P|187:43|193:88,1,90,10|8,2:1|2:1,0:0:0:0:
153,285,110400,5,10,2:1:0:0:
290,175,110577,1,10,2:2:0:0:
102,113,110753,1,10,2:1:0:0:
270,276,110930,6,0,P|321:219|427:224,1,180,10|8,2:1|2:2,0:0:0:0:
491,334,111459,1,10,2:3:0:0:
491,334,111548,1,8,2:1:0:0:
491,334,111636,2,0,P|446:339|402:350,1,90,8|2,2:1|2:3,0:0:0:0:
273,266,111989,5,10,2:2:0:0:
172,384,112165,2,0,P|166:339|155:295,1,90,2|8,2:2|2:1,0:0:0:0:
243,157,112518,2,0,P|248:201|259:245,1,90,2|8,2:3|2:2,0:0:0:0:
83,219,112871,1,10,2:1:0:0:
83,219,112959,1,8,2:2:0:0:
83,219,113048,1,8,2:1:0:0:
260,354,113224,5,10,2:1:0:0:
351,197,113400,1,8,2:2:0:0:
260,354,113577,1,10,2:1:0:0:
260,354,113665,1,8,2:1:0:0:
260,354,113753,1,12,2:1:0:0:
168,88,113930,5,2,2:2:0:0:
259,245,114106,1,10,2:2:0:0:
168,88,114283,1,10,2:2:0:0:
168,88,114371,1,8,2:1:0:0:
168,88,114459,1,10,2:1:0:0:
439,180,114636,2,0,P|395:185|351:196,1,90,10|10,2:1|2:2,0:0:0:0:
171,0,114989,6,0,P|123:0|79:113,1,180,14|10,2:1|2:2,0:0:0:0:
135,162,115518,1,10,2:2:0:0:
74,224,115695,1,8,2:1:0:0:
205,330,115871,5,8,2:2:0:0:
165,245,116048,1,8,2:1:0:0:
4,369,116224,1,8,2:1:0:0:
14,354,116312,1,8,2:1:0:0:
31,348,116400,1,8,2:1:0:0:
49,349,116489,1,8,2:1:0:0:
62,352,116577,6,0,P|129:339|207:329,1,144,14|2,2:1|2:2,0:0:0:0:
356,382,117106,2,0,P|395:373|454:364,1,72,10|10,2:1|2:2,0:0:0:0:
270,245,117459,2,0,P|276:280|284:315,1,72,2|2,2:2|2:3,0:0:0:0:
512,349,117812,6,0,P|499:282|489:204,1,144,10|10,2:1|2:1,0:0:0:0:
417,142,118342,2,0,P|410:177|402:212,1,72,10|0,2:1|0:0,0:0:0:0:
365,291,118695,1,10,2:2:0:0:
270,245,118871,1,8,2:1:0:0:
270,245,119048,1,2,2:2:0:0:
137,376,119224,5,10,2:1:0:0:
137,376,119312,1,8,2:1:0:0:
137,376,119400,2,0,P|95:342|6:337,1,144,14|2,2:1|2:3,0:0:0:0:
147,229,119930,1,10,2:1:0:0:
0,163,120106,5,10,2:2:0:0:
57,248,120283,2,0,P|71:199|86:162,1,72,10|10,2:2|2:1,0:0:0:0:
269,119,120636,2,0,P|250:188|226:256,1,144,14|10,2:1|2:2,0:0:0:0:
112,101,121165,2,0,P|161:115|198:130,1,72,10|0,2:1|0:0,0:0:0:0:
323,241,121518,2,0,P|372:255|409:270,1,72,10|8,2:2|2:1,0:0:0:0:
512,109,121871,5,10,2:2:0:0:
497,79,121959,1,8,2:2:0:0:
467,65,122048,1,8,2:2:0:0:
434,66,122136,1,8,2:2:0:0:
407,91,122224,6,0,P|393:129|382:168,1,80.9999975280763,14|0,2:1|0:0,0:0:0:0:
460,334,122577,2,0,P|473:295|484:256,1,80.9999975280763,10|0,2:2|0:0,0:0:0:0:
318,101,122930,1,10,2:1:0:0:
463,180,123106,1,8,2:1:0:0:
323,241,123283,2,0,P|284:254|245:265,1,80.9999975280763,10|0,2:2|0:0,0:0:0:0:
75,371,123636,6,0,P|31:315|59:213,1,161.999995056153,14|10,2:1|2:2,0:0:0:0:
151,135,124165,1,8,2:1:0:0:
151,135,124253,1,8,2:2:0:0:
151,135,124342,2,0,P|161:174|175:212,1,80.9999975280763,2|8,2:2|2:1,0:0:0:0:
231,348,124695,1,10,2:2:0:0:
325,126,124871,5,8,2:1:0:0:
325,126,124959,1,8,2:1:0:0:
325,126,125048,2,0,P|285:136|247:150,1,80.9999975280763,14|0,2:1|0:0,0:0:0:0:
64,208,125400,1,10,2:2:0:0:
393,301,125577,6,0,P|335:280|277:264,1,121.499996292114,14|0,2:1|0:0,0:0:0:0:
255,261,125930,1,10,2:1:0:0:
433,180,126106,1,10,2:2:0:0:
459,379,126283,5,10,2:2:0:0:
459,379,126636,5,10,2:2:0:0:
175,212,126812,1,10,2:2:0:0:
415,86,127342,5,8,2:1:0:0:
93,176,127518,5,8,2:2:0:0:
114,141,127606,1,8,2:2:0:0:
150,122,127695,1,10,2:2:0:0:
190,120,127783,1,8,2:2:0:0:
225,139,127871,6,0,P|297:153|370:168,1,148.50000453186,14|0,2:1|0:0,0:0:0:0:
397,177,128224,1,10,2:2:0:0:
149,33,128401,1,10,2:1:0:0:
157,41,128489,1,8,0:0:0:0:
157,41,128577,1,10,2:1:0:0:
273,187,128753,2,0,P|321:177|370:168,1,99.0000030212403,10|10,2:1|2:2,0:0:0:0:
512,333,129106,6,0,P|443:265|347:274,1,198.000006042481,10|8,2:1|2:1,0:0:0:0:
178,314,129636,1,10,2:2:0:0:
259,361,129812,1,10,2:1:0:0:
259,361,129900,1,8,2:2:0:0:
259,361,129989,2,0,P|263:336|268:312,1,49.5000015106202,10|0,2:1|0:0,0:0:0:0:
114,257,130165,2,0,P|109:232|104:208,1,49.5000015106202,8|0,2:1|0:0,0:0:0:0:
286,108,130342,2,0,P|225:145|153:131,1,148.50000453186,10|0,2:2|0:0,0:0:0:0:
135,121,130695,6,0,P|86:116|42:137,1,99.0000030212403,14|0,2:1|0:0,0:0:0:0:
211,59,131048,1,10,2:2:0:0:
351,176,131224,1,8,2:1:0:0:
351,176,131312,1,8,2:2:0:0:
351,176,131400,2,0,P|399:184|448:194,1,99.0000030212403,10|8,2:1|2:1,0:0:0:0:
508,128,131753,1,10,2:2:0:0:
377,310,131930,6,0,P|279:329|183:350,1,198.000006042481,8|8,2:1|2:1,0:0:0:0:
95,260,132459,1,10,2:2:0:0:
279,120,132636,1,8,2:1:0:0:
277,129,132724,1,8,2:2:0:0:
275,138,132812,2,0,P|270:162|265:186,1,49.5000015106202,10|0,2:1|0:0,0:0:0:0:
183,350,132989,2,0,P|178:325|173:301,1,49.5000015106202,8|0,2:1|0:0,0:0:0:0:
91,83,133165,1,10,2:2:0:0:
91,83,133518,6,0,B|148:65|190:94|182:101|217:134|280:119,1,198.000006042481,14|10,2:1|2:2,0:0:0:0:
365,57,134048,1,10,2:1:0:0:
373,65,134137,1,8,2:2:0:0:
373,65,134225,1,10,2:1:0:0:
128,167,134400,2,0,P|79:176|30:185,1,99.0000030212403,10|10,2:1|2:2,0:0:0:0:
318,220,134753,6,0,P|301:127|372:65,1,198.000006042481,10|8,2:1|2:1,0:0:0:0:
512,124,135283,1,10,2:2:0:0:
435,165,135459,1,8,2:1:0:0:
435,165,135547,1,8,2:2:0:0:
435,165,135636,2,0,P|410:161|386:156,1,49.5000015106202,10|0,2:1|0:0,0:0:0:0:
269,229,135812,2,0,P|293:224|318:220,1,49.5000015106202,8|0,2:1|0:0,0:0:0:0:
476,337,135989,2,0,P|403:321|330:307,1,148.50000453186,10|0,2:2|0:0,0:0:0:0:
300,319,136342,6,0,P|251:324|207:303,1,99.0000030212403,14|0,2:1|0:0,0:0:0:0:
63,156,136695,1,10,2:2:0:0:
31,288,136871,1,8,2:1:0:0:
31,288,136959,1,8,2:2:0:0:
31,288,137047,2,0,P|79:280|128:270,1,99.0000030212403,10|8,2:1|2:1,0:0:0:0:
207,303,137400,1,10,2:2:0:0:
306,149,137577,6,0,B|363:131|405:160|397:167|432:200|493:185,1,198.000006042481,12|8,2:1|2:1,0:0:0:0:
485,1,138106,2,0,P|477:49|467:98,1,99.0000030212403,10|8,2:2|2:1,0:0:0:0:
340,233,138459,1,10,2:2:0:0:
271,64,138636,5,8,2:2:0:0:
242,47,138724,1,8,2:2:0:0:
210,40,138812,1,10,2:2:0:0:
178,46,138900,1,8,2:2:0:0:
149,61,138988,1,8,2:2:0:0:
127,86,139077,1,8,2:2:0:0:
115,117,139165,6,0,B|97:174|126:216|133:208|166:243|151:306,1,198.000006042481,14|10,2:1|2:2,0:0:0:0:
339,232,139695,1,10,2:1:0:0:
339,232,139783,1,8,2:2:0:0:
339,232,139871,2,0,P|290:222|242:214,1,99.0000030212403,10|10,2:1|2:1,0:0:0:0:
59,275,140224,1,10,2:2:0:0:
308,331,140400,6,0,P|404:309|501:291,1,198.000006042481,14|8,2:1|2:1,0:0:0:0:
376,131,140930,1,10,2:2:0:0:
339,232,141106,1,8,2:1:0:0:
339,232,141195,1,8,2:2:0:0:
339,232,141283,2,0,P|387:222|436:213,1,99.0000030212403,10|8,2:1|2:1,0:0:0:0:
394,34,141636,2,0,P|385:82|375:131,1,99.0000030212403,10|2,2:2|2:2,0:0:0:0:
247,257,141989,6,0,P|178:189|82:198,1,198.000006042481,14|10,2:1|2:2,0:0:0:0:
0,227,142518,1,10,2:1:0:0:
0,227,142606,1,8,2:2:0:0:
0,227,142695,1,10,2:1:0:0:
190,158,142871,2,0,P|198:109|208:60,1,99.0000030212403,10|10,2:1|2:2,0:0:0:0:
53,296,143224,6,0,P|149:274|246:256,1,198.000006042481,14|8,2:1|2:1,0:0:0:0:
410,176,143753,2,0,P|430:220|425:268,1,99.0000030212403,10|0,2:2|0:0,0:0:0:0:
336,263,144018,1,8,2:2:0:0:
336,263,144106,2,0,P|331:238|326:214,1,49.5000015106202,10|0,2:2|0:0,0:0:0:0:
499,154,144283,2,0,P|503:129|508:105,1,49.5000015106202,8|0,2:1|0:0,0:0:0:0:
447,51,144459,5,10,2:1:0:0:
425,76,144548,1,8,0:0:0:0:
397,94,144635,1,8,0:0:0:0:
365,99,144724,1,8,0:0:0:0:
333,95,144812,6,0,P|262:79|192:65,1,144,14|2,2:1|2:2,0:0:0:0:
11,30,145342,1,10,2:1:0:0:
114,35,145518,1,8,2:2:0:0:
114,35,145695,2,0,P|78:42|43:49,1,72,10|0,2:1|0:0,0:0:0:0:
0,144,146048,6,0,P|69:139|118:189,1,144,14|8,2:1|2:1,0:0:0:0:
195,241,146577,2,0,P|203:206|210:171,1,72,10|8,2:2|2:1,0:0:0:0:
38,221,146930,1,10,2:2:0:0:
178,331,147106,5,8,2:1:0:0:
201,325,147194,1,8,2:2:0:0:
224,320,147282,1,10,2:2:0:0:
248,315,147370,1,8,2:2:0:0:
271,310,147458,1,8,2:2:0:0:
295,306,147548,1,8,0:0:0:0:
318,301,147635,5,10,2:2:0:0:
110,272,147812,1,10,2:2:0:0:
110,272,148165,5,10,2:2:0:0:
375,212,148342,1,8,2:2:0:0:
375,212,148695,5,8,2:2:0:0:
77,134,148871,1,10,2:2:0:0:
77,134,149224,5,8,2:2:0:0:
403,68,149400,1,10,2:2:0:0:
169,22,149577,2,0,P|161:57|154:92,1,72,10|0,2:2|0:0,0:0:0:0:
30,295,150106,5,8,2:2:0:0:
51,330,150194,1,8,2:2:0:0:
87,349,150283,1,8,2:2:0:0:
127,351,150371,1,8,2:2:0:0:
162,332,150459,6,0,P|234:346|307:361,1,135,14|0,2:1|0:0,0:0:0:0:
319,340,150812,2,0,P|310:296|302:252,1,90,10|8,2:2|2:1,0:0:0:0:
301,234,151077,1,8,2:1:0:0:
301,234,151165,1,10,2:1:0:0:
259,22,151342,1,8,2:1:0:0:
285,147,151518,2,0,P|280:124|276:102,2,45,10|8|10,2:2|0:0|2:1,0:0:0:0:
394,283,151871,6,0,P|416:287|438:291,1,45,2|0,2:2|0:0,0:0:0:0:
165,250,152048,2,0,P|187:254|209:258,1,45,10|0,2:1|0:0,0:0:0:0:
319,340,152224,2,0,P|310:296|302:252,1,90,10|10,2:2|2:1,0:0:0:0:
301,234,152489,1,8,2:2:0:0:
301,234,152577,1,10,2:1:0:0:
416,35,152753,6,0,P|431:119|366:176,1,180,10|0,2:1|0:0,0:0:0:0:
198,78,153283,1,14,2:1:0:0:
301,234,153459,1,2,2:2:0:0:
416,35,153636,2,0,P|393:39|371:43,1,45,10|0,2:2|0:0,0:0:0:0:
217,183,153812,5,10,2:1:0:0:
217,183,153900,1,8,2:2:0:0:
217,183,153989,2,0,P|174:168|120:166,1,90,10|10,2:1|2:1,0:0:0:0:
51,196,154342,1,10,2:2:0:0:
248,369,154518,6,0,P|189:300|114:251,1,180,10|10,2:1|2:1,0:0:0:0:
65,116,155048,2,0,P|82:75|121:54,1,90,10|2,2:2|2:1,0:0:0:0:
198,78,155312,1,8,2:2:0:0:
198,78,155400,2,0,P|241:93|294:94,1,90,10|10,2:1|2:2,0:0:0:0:
424,17,155753,2,0,P|467:2|520:0,1,90,10|10,2:1|2:2,0:0:0:0:
369,105,156106,6,0,P|364:82|360:60,3,45,14|2|2|2,2:1|2:2|2:2|2:2,0:0:0:0:
388,188,156459,2,0,P|392:210|396:232,3,45,10|2|10|10,2:2|2:2|2:1|2:2,0:0:0:0:
512,115,156812,5,10,2:1:0:0:
503,117,156900,1,2,2:2:0:0:
494,119,156988,2,0,P|470:124|446:129,1,45,10|2,2:1|2:2,0:0:0:0:
264,206,157165,2,0,P|289:211|313:216,1,45,10|2,2:2|2:2,0:0:0:0:
492,242,157342,5,14,2:1:0:0:
510,283,157430,1,2,2:2:0:0:
495,325,157518,1,2,2:2:0:0:
457,349,157606,1,2,2:2:0:0:
410,338,157695,6,0,P|387:333|365:329,1,45,10|2,2:1|2:2,0:0:0:0:
242,304,157871,2,0,P|265:308|287:313,1,45,10|2,2:2|2:2,0:0:0:0:
163,346,158048,5,10,2:1:0:0:
161,337,158136,1,10,2:2:0:0:
159,328,158224,2,0,P|154:304|149:280,1,45,10|2,2:1|2:2,0:0:0:0:
254,161,158400,2,0,P|259:185|264:209,1,45,10|2,2:1|2:2,0:0:0:0:
26,311,158576,2,0,P|50:316|74:321,1,45,10|2,2:2|2:2,0:0:0:0:
287,313,158753,2,0,P|264:308|242:304,1,45,2|2,2:2|2:2,0:0:0:0:
191,218,158930,5,14,2:1:0:0:
173,177,159018,1,2,2:2:0:0:
188,135,159106,1,2,2:2:0:0:
226,111,159194,1,2,2:2:0:0:
273,121,159283,2,0,P|295:125|317:129,1,45,10|2,2:2|2:2,0:0:0:0:
398,197,159459,5,10,2:1:0:0:
439,215,159547,1,10,2:2:0:0:
481,200,159635,1,10,2:1:0:0:
505,162,159723,1,2,2:2:0:0:
511,117,159812,1,10,2:1:0:0:
478,85,159900,1,2,2:2:0:0:
433,75,159989,2,0,P|411:70|388:66,1,45,10|2,2:2|2:2,0:0:0:0:
104,36,160165,5,14,2:1:0:0:
64,67,160253,1,2,2:2:0:0:
55,119,160342,1,2,2:2:0:0:
81,170,160430,1,2,2:2:0:0:
126,190,160518,1,10,2:1:0:0:
173,177,160606,1,2,2:2:0:0:
217,200,160695,5,10,2:2:0:0:
231,247,160783,1,2,2:2:0:0:
211,292,160871,1,10,2:1:0:0:
168,316,160959,1,10,2:2:0:0:
122,294,161048,6,0,P|126:271|130:249,1,45,10|2,2:1|2:2,0:0:0:0:
148,167,161224,2,0,P|152:144|156:122,1,45,10|2,2:1|2:2,0:0:0:0:
183,0,161400,6,0,P|179:21|175:44,1,45,10|2,2:2|2:2,0:0:0:0:
122,294,161577,1,2,2:2:0:0:
122,294,161665,1,2,2:2:0:0:
122,294,161753,1,10,2:1:0:0:
0,253,161930,5,14,2:2:0:0:
217,200,162106,1,10,2:1:0:0:
115,381,162283,1,10,2:1:0:0:
55,119,162459,5,14,2:2:0:0:
235,327,162636,1,10,2:1:0:0:
310,248,162812,1,10,2:1:0:0:
183,0,162989,5,14,2:1:0:0:
181,9,163077,1,0,0:0:0:0:
179,18,163165,2,0,P|174:42|169:66,1,45
283,98,163342,2,0,P|288:122|293:146,1,45,8|0,2:1|0:0,0:0:0:0:
127,271,163518,6,0,P|132:247|137:223,1,45,10|0,2:2|0:0,0:0:0:0:
341,384,163695,2,0,P|336:360|331:336,1,45,8|0,2:1|0:0,0:0:0:0:
416,164,163871,6,0,P|395:168|373:172,1,45,10|0,2:2|0:0,0:0:0:0:
0,253,164048,2,0,P|22:248|44:244,1,45,8|0,2:2|0:0,0:0:0:0:
371,172,164224,1,10,2:3:0:0:
136,226,164400,1,4,2:3:0:0:
331,339,164577,6,0,P|406:359|482:376,1,144,14|2,2:1|2:3,0:0:0:0:
470,374,165106,1,8,2:1:0:0:
423,277,165283,2,0,P|414:241|405:207,1,72,10|0,2:2|0:0,0:0:0:0:
405,207,165636,1,2,2:2:0:0:
459,48,165812,6,0,P|501:103|488:171,1,144,10|10,2:1|2:1,0:0:0:0:
329,254,166342,1,10,2:1:0:0:
329,254,166518,2,0,P|293:262|259:271,1,72,2|10,2:2|2:2,0:0:0:0:
183,326,166871,2,0,P|174:290|165:256,1,72,10|2,2:1|2:3,0:0:0:0:
7,137,167224,6,0,P|76:156|146:172,2,144,14|10|10,2:1|2:1|2:1,0:0:0:0:
74,246,168106,1,10,2:2:0:0:
74,246,168283,2,0,P|83:280|91:315,1,72,2|2,2:2|2:3,0:0:0:0:
174,351,168636,6,0,P|229:309|297:322,1,144,10|10,2:1|2:2,0:0:0:0:
374,382,169165,1,10,2:1:0:0:
374,382,169342,2,0,P|382:346|391:312,1,72,2|10,2:2|2:2,0:0:0:0:
465,360,169695,2,0,P|473:324|482:290,1,72,10|2,2:1|2:3,0:0:0:0:
335,246,170048,6,0,P|318:175|299:106,1,144,14|2,2:1|2:2,0:0:0:0:
407,25,170577,2,0,P|397:59|389:94,1,72,10|10,2:1|2:1,0:0:0:0:
221,145,170930,2,0,P|152:159|96:116,1,144,10|2,2:2|2:3,0:0:0:0:
0,283,171459,6,0,P|69:263|139:247,1,144,14|10,2:1|2:2,0:0:0:0:
211,299,171989,2,0,P|201:333|193:368,1,72,10|2,2:1|2:2,0:0:0:0:
304,283,172342,1,10,2:2:0:0:
304,283,172518,2,0,P|294:317|286:352,1,72,10|2,2:1|2:3,0:0:0:0:
391,258,172871,5,10,2:2:0:0:
391,258,172959,1,8,0:0:0:0:
391,258,173048,2,0,P|405:189|362:133,1,144,14|2,2:1|2:2,0:0:0:0:
287,74,173577,1,8,2:1:0:0:
287,74,173753,2,0,P|278:109|269:143,1,72,10|8,2:2|2:1,0:0:0:0:
102,105,174106,2,0,P|110:69|119:35,1,72,10|0,2:2|0:0,0:0:0:0:
212,20,174459,5,14,2:1:0:0:
212,20,174636,2,0,P|195:90|176:159,1,144,8|0,2:2|0:0,0:0:0:0:
63,301,175165,5,10,2:2:0:0:
76,268,175253,1,8,0:0:0:0:
103,243,175341,1,10,2:2:0:0:
137,232,175429,1,8,2:2:0:0:
174,239,175518,2,0,P|178:260|184:282,1,45,10|0,2:2|0:0,0:0:0:0:
322,349,175695,6,0,B|373:365|410:339|403:332|435:303|491:316,1,180,14|10,2:1|2:1,0:0:0:0:
354,263,176224,1,10,2:2:0:0:
437,231,176400,2,0,P|447:187|458:143,1,90,10|2,2:1|2:3,0:0:0:0:
267,35,176753,2,0,P|277:78|288:122,1,90,10|10,2:1|2:2,0:0:0:0:
357,175,177106,6,0,P|272:156|205:212,1,180,10|8,2:1|2:1,0:0:0:0:
27,117,177636,1,10,2:2:0:0:
101,71,177812,1,8,2:1:0:0:
101,71,177900,1,8,2:2:0:0:
101,71,177989,2,0,P|144:82|188:92,1,90,10|10,2:1|2:1,0:0:0:0:
295,240,178342,1,10,2:2:0:0:
103,165,178518,6,0,P|123:252|146:339,1,180,14|10,2:1|2:1,0:0:0:0:
146,339,179048,1,10,2:2:0:0:
4,241,179224,2,0,P|47:251|91:262,1,90,10|2,2:1|2:3,0:0:0:0:
295,240,179577,2,0,P|251:228|207:218,1,90,10|10,2:1|2:2,0:0:0:0:
13,123,179930,6,0,P|79:67|164:86,1,180,14|10,2:1|2:1,0:0:0:0:
238,20,180459,2,0,P|248:63|259:107,1,90,10|8,2:2|0:0,0:0:0:0:
340,156,180724,1,8,2:2:0:0:
340,156,180812,2,0,P|345:134|350:112,1,45,10|0,2:1|0:0,0:0:0:0:
440,35,180989,2,0,P|434:56|429:78,1,45,8|0,2:1|0:0,0:0:0:0:
489,144,181165,1,10,2:2:0:0:
295,240,181342,1,8,2:2:0:0:
295,240,181430,1,8,2:2:0:0:
295,240,181518,6,0,B|346:223|383:249|376:256|408:285|464:272,2,180,14|10|10,2:1|2:2|2:1,0:0:0:0:
132,283,182400,1,8,2:1:0:0:
199,217,182577,2,0,P|210:261|220:305,1,90,10|0,2:2|0:0,0:0:0:0:
71,384,182930,6,0,P|47:297|27:209,1,180,14|10,2:1|2:2,0:0:0:0:
37,42,183459,1,8,2:1:0:0:
37,42,183548,1,8,2:2:0:0:
37,42,183636,2,0,P|47:85|58:129,1,90,10|8,2:1|2:1,0:0:0:0:
199,217,183989,6,0,P|245:170|311:165,1,135,10|8,2:2|0:0,0:0:0:0:
325,176,184342,2,0,P|368:186|412:197,1,90,14|0,2:1|0:0,0:0:0:0:
145,133,184695,1,10,2:2:0:0:
308,67,184871,6,0,P|264:77|220:88,1,90,10|0,2:1|0:0,0:0:0:0:
361,268,185224,2,0,P|404:278|448:289,1,90,10|8,2:1|2:2,0:0:0:0:
308,67,185577,5,10,2:2:0:0:
308,67,185930,5,10,2:2:0:0:
262,294,186106,2,0,P|240:299|218:304,1,45,10|0,2:2|0:0,0:0:0:0:
71,264,186459,5,8,2:2:0:0:
71,264,186548,5,8,2:2:0:0:
71,264,186636,5,8,2:2:0:0:
71,264,186724,5,8,2:2:0:0:
71,264,186812,5,8,2:2:0:0:
71,264,186900,5,8,2:2:0:0:
71,264,186989,5,8,2:2:0:0:
71,264,187077,5,8,2:2:0:0:
71,264,187165,5,8,2:2:0:0:
110,268,187253,5,8,2:2:0:0:
149,255,187341,5,8,2:2:0:0:
180,229,187429,5,8,2:2:0:0:
197,191,187517,5,8,2:2:0:0:
198,150,187606,5,8,2:2:0:0:
182,114,187695,6,0,P|160:108|138:103,1,45,8|0,2:2|0:0,0:0:0:0:
279,218,187871,5,8,2:2:0:0:
71,264,188048,1,8,2:2:0:0:
272,90,188577,6,0,B|292:154|259:202|251:193|213:233|230:303,1,225,14|0,2:1|0:0,0:0:0:0:
314,384,189106,6,0,L|301:341,1,45,14|0,2:1|0:0,0:0:0:0:
218,0,189459,2,0,L|205:43,1,45,14|0,2:1|0:0,0:0:0:0:
230,303,189812,6,0,B|213:233|251:193|259:202|292:154|272:90,1,225,14|0,2:1|0:0,0:0:0:0:
272,90,190518,1,10,2:1:0:0:
51,64,190695,1,10,2:2:0:0:
313,259,190871,6,0,L|364:243,1,49.5000015106202,8|8,2:2|2:2,0:0:0:0:
355,63,191047,1,10,2:2:0:0:
334,28,191135,1,8,2:3:0:0:
298,9,191224,1,4,2:3:0:0:
258,7,191312,1,8,2:3:0:0:
223,26,191400,6,0,P|151:40|78:55,1,148.50000453186,14|0,2:1|0:0,0:0:0:0:
51,64,191753,1,10,2:2:0:0:
262,126,191929,1,8,2:1:0:0:
270,134,192018,1,8,2:2:0:0:
270,134,192106,1,10,2:1:0:0:
93,263,192283,1,8,2:1:0:0:
223,26,192459,6,0,P|155:95|164:191,1,198.000006042481,10|0,2:2|0:0,0:0:0:0:
266,299,192989,1,8,2:1:0:0:
367,152,193165,2,0,P|318:142|269:133,1,99.0000030212403,10|8,2:2|2:1,0:0:0:0:
163,189,193429,1,8,2:2:0:0:
163,189,193518,2,0,P|188:193|212:198,1,49.5000015106202,10|0,2:1|0:0,0:0:0:0:
314,308,193694,2,0,P|289:302|265:298,1,49.5000015106202,8|0,2:1|0:0,0:0:0:0:
37,344,193871,2,0,P|0:283|14:211,1,148.50000453186,10|0,2:2|0:0,0:0:0:0:
38,190,194224,6,0,P|59:146|54:98,1,99.0000030212403,14|0,2:1|0:0,0:0:0:0:
0,0,194577,1,10,2:2:0:0:
163,189,194753,1,10,2:1:0:0:
163,189,194841,1,8,2:2:0:0:
163,189,194929,2,0,P|211:179|260:170,1,99.0000030212403,10|10,2:1|2:1,0:0:0:0:
180,356,195282,1,10,2:2:0:0:
363,227,195459,6,0,P|371:132|304:64,1,198.000006042481,10|8,2:1|2:1,0:0:0:0:
163,189,195988,1,10,2:2:0:0:
288,342,196165,1,8,2:1:0:0:
297,340,196253,1,8,2:2:0:0:
306,338,196341,2,0,P|330:333|354:328,1,49.5000015106202,10|0,2:1|0:0,0:0:0:0:
512,166,196518,2,0,P|487:161|463:156,1,49.5000015106202,8|0,2:1|0:0,0:0:0:0:
237,8,196695,2,0,P|216:52|221:100,1,99.0000030212403,10|0,2:2|0:0,0:0:0:0:
288,342,197047,6,0,B|231:360|189:331|197:324|162:291|99:306,1,198.000006042481,14|10,2:1|2:2,0:0:0:0:
251,255,197577,1,8,2:1:0:0:
259,263,197666,1,8,2:2:0:0:
259,263,197753,2,0,P|267:214|277:165,1,99.0000030212403,10|8,2:1|2:1,0:0:0:0:
100,305,198106,1,10,2:2:0:0:
43,32,198283,6,0,P|65:128|83:225,1,198.000006042481,12|8,2:1|2:1,0:0:0:0:
221,100,198812,1,10,2:2:0:0:
325,277,198989,5,8,2:1:0:0:
316,275,199077,1,8,0:0:0:0:
307,273,199165,2,0,P|283:268|259:263,1,49.5000015106202,10|0,2:2|0:0,0:0:0:0:
90,126,199342,2,0,P|114:121|138:116,1,49.5000015106202,8|0,2:2|0:0,0:0:0:0:
315,30,199518,5,10,2:2:0:0:
355,30,199606,1,8,2:2:0:0:
390,52,199695,1,8,2:2:0:0:
411,86,199783,1,8,2:2:0:0:
412,124,199871,6,0,P|402:172|393:221,1,99.0000030212403,14|0,2:1|0:0,0:0:0:0:
273,347,200224,1,10,2:2:0:0:
215,169,200400,1,10,2:1:0:0:
215,169,200488,1,8,2:2:0:0:
215,169,200576,2,0,P|263:177|312:187,1,99.0000030212403,10|10,2:1|2:1,0:0:0:0:
502,228,200929,1,10,2:2:0:0:
170,348,201106,6,0,P|266:326|363:308,1,198.000006042481,14|8,2:1|2:1,0:0:0:0:
502,228,201636,2,0,P|492:276|483:325,1,99.0000030212403,10|8,2:2|2:1,0:0:0:0:
312,187,201989,1,10,2:1:0:0:
314,178,202077,1,8,0:0:0:0:
316,169,202165,2,0,P|321:145|326:121,1,49.5000015106202,8|0,2:1|0:0,0:0:0:0:
509,138,202342,2,0,P|460:147|411:156,1,99.0000030212403,10|2,2:2|2:2,0:0:0:0:
215,0,202695,6,0,P|146:67|51:59,1,198.000006042481,14|10,2:1|2:2,0:0:0:0:
217,214,203224,1,10,2:1:0:0:
217,214,203312,1,8,2:2:0:0:
217,214,203400,2,0,P|226:165|235:116,1,99.0000030212403,10|10,2:1|2:1,0:0:0:0:
51,59,203753,1,10,2:2:0:0:
0,344,203929,6,0,P|96:322|193:304,1,198.000006042481,14|8,2:1|2:1,0:0:0:0:
68,144,204459,1,10,2:2:0:0:
31,245,204635,1,8,2:1:0:0:
31,245,204724,1,8,0:0:0:0:
31,245,204812,2,0,P|79:235|128:226,1,99.0000030212403,10|8,2:2|2:1,0:0:0:0:
193,303,205077,1,8,0:0:0:0:
193,303,205165,2,0,P|217:308|241:313,1,49.5000015106202,10|0,2:2|0:0,0:0:0:0:
332,104,205342,5,8,2:2:0:0:
332,104,205430,1,8,2:2:0:0:
333,104,205518,2,0,B|318:165|351:200|358:192|387:234|369:291,1,198.000006042481,14|10,2:1|2:2,0:0:0:0:
333,384,206047,1,10,2:1:0:0:
333,384,206135,1,8,0:0:0:0:
333,384,206224,1,10,2:1:0:0:
212,209,206400,2,0,P|260:199|309:190,1,99.0000030212403,10|10,2:1|2:2,0:0:0:0:
511,59,206753,6,0,P|416:67|348:0,1,198.000006042481,14|8,2:1|2:1,0:0:0:0:
222,115,207282,2,0,P|266:95|314:100,1,99.0000030212403,10|8,2:2|2:1,0:0:0:0:
309,189,207548,1,8,2:2:0:0:
309,189,207635,2,0,P|284:194|260:199,1,49.5000015106202,10|0,2:1|0:0,0:0:0:0:
125,225,207812,2,0,P|100:230|76:233,1,49.5000015106202,8|8,2:2|0:0,0:0:0:0:
198,31,207989,5,10,2:2:0:0:
235,21,208077,1,8,0:0:0:0:
274,33,208165,1,8,2:1:0:0:
303,61,208253,1,8,0:0:0:0:
315,100,208342,5,14,2:2:0:0:
197,278,208518,1,10,2:2:0:0:
76,83,208695,1,10,2:1:0:0:
308,189,208871,6,0,P|283:194|259:197,1,49.5000015106202,14|0,2:2|0:0,0:0:0:0:
0,245,209048,1,10,2:2:0:0:
248,367,209224,1,10,2:1:0:0:
76,83,209400,1,14,2:2:0:0:
300,282,209577,6,0,P|396:260|493:242,1,198.000006042481,10|8,2:2|2:1,0:0:0:0:
308,189,210106,1,10,2:2:0:0:
372,354,210283,2,0,P|420:343|468:333,1,99.0000030212403,10|10,2:1|2:2,0:0:0:0:
493,241,210548,1,8,0:0:0:0:
493,241,210636,2,0,P|488:217|483:193,1,49.5000015106202,8|8,2:2|2:2,0:0:0:0:
348,0,210812,5,10,2:2:0:0:
346,9,210900,1,8,2:2:0:0:
344,18,210988,2,0,P|339:42|334:66,1,49.5000015106202,8|8,2:2|2:2,0:0:0:0:
213,293,211165,6,0,P|144:225|48:234,1,198.000006042481,14|10,2:1|2:2,0:0:0:0:
227,114,211695,1,10,2:1:0:0:
227,114,211783,1,8,2:2:0:0:
227,114,211871,2,0,P|222:138|217:162,1,49.5000015106202,10|0,2:1|0:0,0:0:0:0:
128,188,212048,2,0,P|133:164|138:140,1,49.5000015106202,10|0,2:1|0:0,0:0:0:0:
278,230,212224,1,10,2:2:0:0:
25,328,212400,6,0,B|86:343|121:310|113:303|155:274|212:292,1,198.000006042481,10|8,2:1|2:1,0:0:0:0:
363,263,212930,2,0,P|353:311|344:360,1,99.0000030212403,10|10,2:2|2:1,0:0:0:0:
432,357,213195,1,8,2:2:0:0:
432,357,213283,2,0,P|437:333|442:309,1,49.5000015106202,10|0,2:1|0:0,0:0:0:0:
278,230,213459,2,0,P|273:206|268:182,1,49.5000015106202,8|0,2:1|0:0,0:0:0:0:
422,17,213636,6,0,P|424:89|380:147,1,148.50000453186,10|0,2:2|0:0,0:0:0:0:
364,160,213989,2,0,P|315:170|267:181,1,99.0000030212403,14|0,2:1|0:0,0:0:0:0:
10,130,214342,2,0,P|58:119|106:108,1,99.0000030212403,10|8,2:2|2:1,0:0:0:0:
175,51,214606,1,8,2:2:0:0:
175,51,214695,2,0,P|196:95|191:143,1,99.0000030212403,10|8,2:1|2:1,0:0:0:0:
48,208,215048,1,10,2:2:0:0:
106,108,215224,6,0,P|84:204|66:301,1,198.000006042481,8|8,2:1|2:1,0:0:0:0:
259,360,215753,2,0,P|247:311|237:263,1,99.0000030212403,10|8,2:2|2:1,0:0:0:0:
324,168,216018,1,8,2:2:0:0:
324,168,216106,2,0,P|319:192|314:216,1,49.5000015106202,10|0,2:1|0:0,0:0:0:0:
377,335,216283,2,0,P|372:311|367:287,1,49.5000015106202,8|0,2:1|0:0,0:0:0:0:
321,78,216459,1,10,2:2:0:0:
321,78,216812,6,0,B|260:63|225:96|233:103|191:132|134:114,1,198.000006042481,14|10,2:1|2:2,0:0:0:0:
44,35,217342,1,10,2:1:0:0:
44,35,217430,1,8,0:0:0:0:
44,35,217518,2,0,P|49:59|54:83,1,49.5000015106202,10|0,2:1|0:0,0:0:0:0:
143,162,217695,2,0,P|138:138|133:114,1,49.5000015106202,10|0,2:1|0:0,0:0:0:0:
172,33,217871,1,10,2:2:0:0:
0,220,218048,6,0,P|97:238|193:260,1,198.000006042481,10|8,2:1|2:1,0:0:0:0:
462,276,218577,2,0,P|418:297|370:292,1,99.0000030212403,10|8,2:2|2:1,0:0:0:0:
287,303,218842,1,8,2:2:0:0:
287,303,218930,2,0,P|282:279|277:255,1,49.5000015106202,10|0,2:1|0:0,0:0:0:0:
407,213,219106,2,0,P|412:189|417:165,1,49.5000015106202,8|0,2:1|0:0,0:0:0:0:
362,26,219283,2,0,P|345:98|332:170,1,148.50000453186,10|0,2:2|0:0,0:0:0:0:
319,179,219636,6,0,P|270:167|222:157,1,99.0000030212403,14|0,2:1|0:0,0:0:0:0:
0,299,219989,2,0,P|48:287|96:277,1,99.0000030212403,10|8,2:2|2:1,0:0:0:0:
212,77,220342,1,10,2:1:0:0:
212,77,220430,1,8,0:0:0:0:
212,77,220518,1,8,2:1:0:0:
174,314,220695,6,0,B|192:257|163:215|156:223|123:188|138:127,1,198.000006042481,14|2,2:2|2:3,0:0:0:0:
281,5,221224,1,8,2:1:0:0:
212,77,221400,2,0,P|260:87|308:98,1,99.0000030212403,10|8,2:2|2:1,0:0:0:0:
429,218,221753,1,10,2:2:0:0:
231,163,221930,5,8,2:1:0:0:
198,168,222018,1,8,0:0:0:0:
166,174,222106,1,10,2:2:0:0:
133,181,222194,1,8,2:2:0:0:
101,187,222282,1,8,2:2:0:0:
69,195,222371,1,8,2:2:0:0:
37,203,222459,6,0,P|16:247|21:295,1,99.0000030212403,14|0,2:1|0:0,0:0:0:0:
89,357,222812,1,10,2:2:0:0:
256,344,222989,1,10,2:1:0:0:
256,344,223077,1,8,2:2:0:0:
256,344,223165,2,0,P|304:354|352:365,1,99.0000030212403,10|10,2:1|2:1,0:0:0:0:
163,308,223518,1,10,2:2:0:0:
417,218,223695,6,0,B|360:200|318:229|326:236|291:269|230:254,1,198.000006042481,14|8,2:1|2:1,0:0:0:0:
240,71,224224,2,0,P|250:119|261:167,1,99.0000030212403,10|8,2:2|2:1,0:0:0:0:
341,126,224489,1,8,2:2:0:0:
341,126,224577,2,0,P|336:102|331:78,1,49.5000015106202,10|0,2:1|0:0,0:0:0:0:
161,11,224753,2,0,P|156:35|151:59,1,49.5000015106202,8|0,2:1|0:0,0:0:0:0:
72,165,224930,2,0,P|120:153|168:143,1,99.0000030212403,10|2,2:2|2:2,0:0:0:0:
338,277,225283,6,0,P|241:254|144:236,1,198.000006042481,14|10,2:1|2:2,0:0:0:0:
223,345,225812,1,10,2:1:0:0:
223,345,225900,1,8,2:2:0:0:
223,345,225989,1,10,2:1:0:0:
416,311,226165,2,0,P|422:262|401:218,1,99.0000030212403,10|10,2:1|2:2,0:0:0:0:
378,83,226518,6,0,P|360:180|338:277,1,198.000006042481,14|8,2:1|2:1,0:0:0:0:
456,152,227048,2,0,P|467:103|477:55,1,99.0000030212403,10|8,2:2|0:0,0:0:0:0:
484,37,227312,1,8,2:2:0:0:
484,37,227400,1,10,2:2:0:0:
284,106,227577,1,8,2:1:0:0:
206,64,227753,5,10,2:1:0:0:
183,71,227841,1,8,0:0:0:0:
158,76,227929,1,8,0:0:0:0:
134,82,228017,1,8,0:0:0:0:
110,86,228106,6,0,P|95:156|77:226,1,144,14|2,2:1|2:2,0:0:0:0:
186,154,228636,2,0,P|178:189|170:224,1,72,10|8,2:1|2:2,0:0:0:0:
250,269,228989,2,0,P|258:234|265:198,1,72,10|0,2:1|0:0,0:0:0:0:
318,337,229342,6,0,P|366:286|436:291,1,144,14|8,2:1|2:1,0:0:0:0:
505,239,229871,2,0,P|496:204|489:168,1,72,10|0,2:2|0:0,0:0:0:0:
426,10,230224,1,10,2:2:0:0:
371,108,230400,5,8,2:1:0:0:
394,102,230488,1,8,0:0:0:0:
417,97,230576,1,10,2:2:0:0:
441,92,230664,1,8,2:2:0:0:
464,87,230754,1,8,2:2:0:0:
488,83,230841,1,8,0:0:0:0:
511,78,230929,5,10,2:2:0:0:
303,49,231106,1,10,2:2:0:0:
511,78,231459,5,10,2:2:0:0:
235,108,231636,1,8,2:2:0:0:
511,78,231989,5,8,2:2:0:0:
169,166,232165,1,10,2:2:0:0:
160,70,233753,6,0,P|241:101|258:186,1,180,14|10,2:1|2:2,0:0:0:0:
435,140,234282,1,10,2:1:0:0:
435,140,234370,1,8,2:1:0:0:
435,140,234458,2,0,P|392:128|349:117,1,90,10|10,2:1|2:1,0:0:0:0:
258,185,234812,1,10,2:2:0:0:
333,23,234988,6,0,P|246:45|159:69,1,180,10|10,2:1|2:1,0:0:0:0:
20,112,235517,2,0,P|32:69|43:26,1,90,10|10,2:2|2:1,0:0:0:0:
159,69,235782,1,8,2:2:0:0:
159,69,235870,2,0,P|138:74|116:80,1,45,10|0,2:1|0:0,0:0:0:0:
0,36,236047,2,0,P|22:30|44:24,1,45,10|0,2:1|0:0,0:0:0:0:
139,217,236223,2,0,P|192:177|257:184,1,135,10|8,2:2|2:1,0:0:0:0:
276,204,236576,6,0,P|300:290|322:377,1,180,14|10,2:1|2:2,0:0:0:0:
476,329,237106,1,10,2:1:0:0:
476,329,237194,1,8,2:2:0:0:
476,329,237282,2,0,P|433:317|390:306,1,90,10|10,2:1|2:1,0:0:0:0:
215,260,237635,1,10,2:2:0:0:
0,384,237811,6,0,P|57:319|142:331,1,180,10|10,2:1|2:1,0:0:0:0:
322,377,238341,2,0,P|311:333|299:290,1,90,10|10,2:2|2:1,0:0:0:0:
228,217,238606,1,8,2:2:0:0:
228,217,238694,2,0,P|221:238|216:260,1,45,10|0,2:1|0:0,0:0:0:0:
139,217,238870,1,10,2:1:0:0:
322,377,239047,6,0,P|388:360|453:341,1,135,10|0,2:2|0:0,0:0:0:0:
474,325,239400,6,0,P|486:240|421:183,1,180,14|10,2:1|2:2,0:0:0:0:
204,130,239930,1,10,2:1:0:0:
204,130,240018,1,8,2:1:0:0:
204,130,240106,2,0,P|216:173|227:216,1,90,10|10,2:1|2:1,0:0:0:0:
324,101,240458,1,14,2:2:0:0:
420,182,240636,6,0,P|485:125|473:40,1,180,10|10,2:1|2:1,0:0:0:0:
204,130,241165,2,0,P|247:118|290:107,1,90,10|10,2:2|2:1,0:0:0:0:
377,1,241429,1,8,2:2:0:0:
377,0,241518,2,0,P|382:22|389:43,1,45,10|0,2:1|0:0,0:0:0:0:
342,234,241695,2,0,P|337:212|331:190,1,45,10|0,2:1|0:0,0:0:0:0:
150,56,241870,2,0,P|109:109|116:174,1,135,10|0,2:2|0:0,0:0:0:0:
130,193,242223,1,8,2:1:0:0:
269,270,242400,6,0,P|312:257|356:248,1,90,14|8,2:2|2:1,0:0:0:0:
213,342,242753,1,10,2:1:0:0:
129,193,242929,2,0,P|86:180|42:171,1,90,14|8,2:2|2:2,0:0:0:0:
205,350,243282,1,10,2:2:0:0:
256,192,243459,5,14,2:1:0:0:
256,192,243548,12,0,250695,0:0:0:0:
