osu file format v14

[General]
AudioFilename: audio.mp3
AudioLeadIn: 0
PreviewTime: 188348
Countdown: 0
SampleSet: Soft
StackLeniency: 0.5
Mode: 0
LetterboxInBreaks: 0
WidescreenStoryboard: 1

[Editor]
Bookmarks: 26260,48848,60142,82731,105319,127907,150495,164613,188613,211201,233789,243495,250731
DistanceSpacing: 1
BeatDivisor: 4
GridSize: 16
TimelineZoom: 1.500001

[Metadata]
Title:CHASE!
TitleUnicode:CHASE!
Artist:Yuki Setsuna (CV: Kusunoki Tomori)
ArtistUnicode:優木せつ菜 (CV: 楠木ともり)
Creator:Liyuu
Version:KYAIRIE'S HARD!
Source:ラブライブ!虹ヶ咲学園スクールアイドル同好会
Tags:-rielle- aquivery pile asagi ayamemymommy big sis shiwakaze kyairie red crewmate vaporfly newton- ifinixe wen wendle anime video game japanese rock love live! nijigasaki high school idol club gakuen doukoukai doukou kai nijigaku ニジガク 鈴木エレカ・JOE pop jpop jrock
BeatmapID:3816315
BeatmapSetID:1822739

[Difficulty]
HPDrainRate:5
CircleSize:3.6
OverallDifficulty:6
ApproachRate:8
SliderMultiplier:1.5
SliderTickRate:1

[Events]
//Background and Video events
0,0,"bgg.jpg",0,0
//Break Periods
2,94188,101533
//Storyboard Layer 0 (Background)
//Storyboard Layer 1 (Fail)
//Storyboard Layer 2 (Pass)
//Storyboard Layer 3 (Foreground)
//Storyboard Layer 4 (Overlay)
//Storyboard Sound Samples

[TimingPoints]
-599,352.941176470588,4,2,0,100,1,0
634,-100,4,2,1,50,0,0
810,-142.857142857143,4,2,2,50,0,0
1163,-142.857142857143,4,2,3,50,0,0
1340,-142.857142857143,4,2,4,50,0,0
1693,-142.857142857143,4,2,5,50,0,0
2046,-142.857142857143,4,2,6,50,0,0
2575,-142.857142857143,4,2,7,50,0,0
2751,-142.857142857143,4,2,1,50,0,0
2928,-142.857142857143,4,2,5,50,0,0
3281,-142.857142857143,4,2,8,50,0,0
3634,-142.857142857143,4,2,9,50,0,0
3987,-142.857142857143,4,2,8,50,0,0
4163,-142.857142857143,4,2,7,50,0,0
4340,-142.857142857143,4,2,1,50,0,0
4516,-142.857142857143,4,2,10,50,0,0
4693,-142.857142857143,4,2,1,50,0,0
4869,-142.857142857143,4,2,11,50,0,0
5398,-142.857142857143,4,2,12,50,0,0
5751,-142.857142857143,4,2,4,50,0,0
6104,-142.857142857143,4,2,7,50,0,0
6457,-142.857142857143,4,2,13,50,0,0
6810,-142.857142857143,4,2,3,50,0,0
6987,-142.857142857143,4,2,4,50,0,0
7340,-142.857142857143,4,2,5,50,0,0
7693,-142.857142857143,4,2,14,50,0,0
8222,-142.857142857143,4,2,7,50,0,0
8575,-142.857142857143,4,2,5,50,0,0
8928,-142.857142857143,4,2,8,50,0,0
9281,-142.857142857143,4,2,15,50,0,0
9634,-142.857142857143,4,2,1,50,0,0
10340,-142.857142857143,4,2,16,50,0,0
11046,-142.857142857143,4,2,1,50,0,0
14928,-100,4,2,1,65,0,0
15104,-100,4,2,17,65,0,0
15281,-100,4,2,18,65,0,0
15457,-100,4,2,2,65,0,0
15634,-100,4,2,3,65,0,0
15810,-100,4,2,2,65,0,0
15987,-100,4,2,19,65,0,0
16163,-100,4,2,4,65,0,0
16340,-100,4,2,2,65,0,0
16516,-100,4,2,5,65,0,0
16693,-100,4,2,20,65,0,0
16869,-100,4,2,5,65,0,0
16957,-100,4,2,1,65,0,0
17046,-100,4,2,6,65,0,0
17222,-100,4,2,5,65,0,0
17398,-100,4,2,20,65,0,0
17575,-100,4,2,5,65,0,0
17751,-100,4,2,7,65,0,0
17928,-100,4,2,17,65,0,0
18104,-100,4,2,18,65,0,0
18281,-100,4,2,2,65,0,0
18369,-100,4,2,1,65,0,0
18457,-100,4,2,3,65,0,0
18634,-100,4,2,2,65,0,0
18810,-100,4,2,19,65,0,0
18987,-100,4,2,4,65,0,0
19163,-100,4,2,2,65,0,0
19340,-100,4,2,8,65,0,0
19516,-100,4,2,21,65,0,0
19693,-100,4,2,8,65,0,0
19781,-100,4,2,1,65,0,0
19869,-100,4,2,9,65,0,0
20046,-100,4,2,8,65,0,0
20222,-100,4,2,21,65,0,0
20398,-100,4,2,8,65,0,0
20575,-100,4,2,7,65,0,0
20751,-100,4,2,17,65,0,0
20928,-100,4,2,18,65,0,0
21104,-100,4,2,2,65,0,0
21281,-100,4,2,3,65,0,0
21457,-100,4,2,2,65,0,0
21634,-100,4,2,19,65,0,0
21810,-100,4,2,4,65,0,0
21987,-100,4,2,2,65,0,0
22163,-100,4,2,5,65,0,0
22340,-100,4,2,20,65,0,0
22516,-100,4,2,5,65,0,0
22604,-100,4,2,1,65,0,0
22693,-100,4,2,6,65,0,0
22869,-100,4,2,5,65,0,0
23046,-100,4,2,20,65,0,0
23222,-100,4,2,5,65,0,0
23575,-100,4,2,22,65,0,0
23928,-100,4,2,5,65,0,0
24104,-100,4,2,22,65,0,0
24457,-100,4,2,10,65,0,0
24634,-166.666666666667,4,2,11,65,0,0
24986,-166.666666666667,4,2,23,65,0,0
26222,-142.857142857143,4,2,12,50,0,0
26575,-142.857142857143,4,2,3,50,0,0
27281,-142.857142857143,4,2,24,50,0,0
27457,-142.857142857143,4,2,1,50,0,0
27634,-142.857142857143,4,2,13,50,0,0
27987,-142.857142857143,4,2,3,50,0,0
28516,-142.857142857143,4,2,1,50,0,0
28693,-142.857142857143,4,2,24,50,0,0
28869,-142.857142857143,4,2,1,50,0,0
29046,-142.857142857143,4,2,13,50,0,0
29222,-142.857142857143,4,2,1,50,0,0
29398,-142.857142857143,4,2,24,50,0,0
29575,-142.857142857143,4,2,1,50,0,0
29751,-142.857142857143,4,2,3,50,0,0
29928,-142.857142857143,4,2,1,50,0,0
30104,-142.857142857143,4,2,3,50,0,0
30281,-142.857142857143,4,2,1,50,0,0
30457,-142.857142857143,4,2,13,50,0,0
30634,-142.857142857143,4,2,1,50,0,0
30810,-142.857142857143,4,2,3,50,0,0
30987,-142.857142857143,4,2,1,50,0,0
31163,-142.857142857143,4,2,3,50,0,0
31340,-142.857142857143,4,2,1,50,0,0
31516,-142.857142857143,4,2,24,50,0,0
31693,-142.857142857143,4,2,1,50,0,0
31869,-142.857142857143,4,2,14,50,0,0
32222,-142.857142857143,4,2,3,50,0,0
32928,-142.857142857143,4,2,24,50,0,0
33104,-142.857142857143,4,2,1,50,0,0
33281,-142.857142857143,4,2,13,50,0,0
33634,-142.857142857143,4,2,3,50,0,0
34163,-142.857142857143,4,2,1,50,0,0
34340,-142.857142857143,4,2,24,50,0,0
34516,-142.857142857143,4,2,1,50,0,0
34693,-142.857142857143,4,2,13,50,0,0
34869,-142.857142857143,4,2,1,50,0,0
35046,-142.857142857143,4,2,24,50,0,0
35222,-142.857142857143,4,2,1,50,0,0
35398,-142.857142857143,4,2,3,50,0,0
35575,-142.857142857143,4,2,1,50,0,0
35751,-142.857142857143,4,2,3,50,0,0
35928,-125,4,2,12,50,0,0
36281,-125,4,2,1,50,0,0
36634,-125,4,2,1,50,0,0
36987,-125,4,2,12,50,0,0
37163,-125,4,2,1,50,0,0
37428,-125,4,2,2,50,0,0
37516,-111.111111111111,4,2,12,60,0,0
37693,-111.111111111111,4,2,25,60,0,0
37869,-111.111111111111,4,2,1,60,0,0
38046,-111.111111111111,4,2,25,60,0,0
38222,-111.111111111111,4,2,12,60,0,0
38398,-111.111111111111,4,2,25,60,0,0
38575,-111.111111111111,4,2,25,60,0,0
38751,-111.111111111111,4,2,25,60,0,0
38928,-111.111111111111,4,2,1,60,0,0
39104,-111.111111111111,4,2,25,60,0,0
39281,-111.111111111111,4,2,1,60,0,0
39457,-111.111111111111,4,2,15,60,0,0
39546,-111.111111111111,4,2,1,60,0,0
39634,-111.111111111111,4,2,12,60,0,0
39810,-111.111111111111,4,2,15,60,0,0
39987,-111.111111111111,4,2,25,60,0,0
40163,-111.111111111111,4,2,25,60,0,0
40340,-111.111111111111,4,2,1,60,0,0
40516,-111.111111111111,4,2,25,60,0,0
40693,-111.111111111111,4,2,1,60,0,0
40869,-111.111111111111,4,2,25,60,0,0
41046,-111.111111111111,4,2,12,60,0,0
41222,-111.111111111111,4,2,25,60,0,0
41398,-111.111111111111,4,2,25,60,0,0
41575,-111.111111111111,4,2,25,60,0,0
41751,-111.111111111111,4,2,1,60,0,0
41928,-111.111111111111,4,2,25,60,0,0
42104,-111.111111111111,4,2,25,60,0,0
42281,-111.111111111111,4,2,15,60,0,0
42369,-111.111111111111,4,2,1,60,0,0
42634,-111.111111111111,4,2,15,60,0,0
42810,-111.111111111111,4,2,1,60,0,0
42987,-111.111111111111,4,2,15,60,0,0
43163,-111.111111111111,4,2,12,60,0,0
43340,-111.111111111111,4,2,1,60,0,0
44398,-111.111111111111,4,2,25,60,0,0
44575,-111.111111111111,4,2,1,60,0,0
45104,-111.111111111111,4,2,16,60,0,0
45193,-111.111111111111,4,2,1,60,0,0
45457,-111.111111111111,4,2,15,60,0,0
45634,-111.111111111111,4,2,1,60,0,0
45810,-111.111111111111,4,2,12,60,0,0
45987,-111.111111111111,4,2,12,60,0,0
46163,-111.111111111111,4,2,1,60,0,0
46340,-111.111111111111,4,2,25,60,0,0
46516,-111.111111111111,4,2,1,60,0,0
46693,-111.111111111111,4,2,16,60,0,0
46869,-111.111111111111,4,2,12,60,0,0
47046,-111.111111111111,4,2,26,60,0,0
47222,-111.111111111111,4,2,12,60,0,0
47575,-111.111111111111,4,2,1,60,0,0
48810,-125,4,2,14,55,0,0
49163,-125,4,2,24,55,0,0
49340,-125,4,2,12,55,0,0
49516,-125,4,2,27,55,0,0
49693,-125,4,2,1,55,0,0
49869,-125,4,2,3,55,0,0
50046,-125,4,2,12,55,0,0
50222,-125,4,2,3,55,0,0
50398,-125,4,2,12,55,0,0
50575,-125,4,2,14,55,0,0
50928,-125,4,2,28,55,0,0
51104,-125,4,2,24,55,0,0
51457,-125,4,2,12,55,0,0
51634,-125,4,2,13,55,0,0
51810,-125,4,2,1,55,0,0
51987,-125,4,2,3,55,0,0
52163,-125,4,2,12,55,0,0
52340,-125,4,2,27,55,0,0
52516,-125,4,2,1,55,0,0
52693,-125,4,2,13,55,0,0
52869,-125,4,2,12,55,0,0
53222,-125,4,2,1,55,0,0
53398,-125,4,2,14,55,0,0
53751,-125,4,2,28,55,0,0
53928,-125,4,2,1,55,0,0
54457,-111.111111111111,4,2,12,55,0,0
54810,-111.111111111111,4,2,24,55,0,0
55163,-111.111111111111,4,2,14,55,0,0
55516,-111.111111111111,4,2,24,55,0,0
55869,-111.111111111111,4,2,12,55,0,0
56222,-111.111111111111,4,2,27,55,0,0
56398,-111.111111111111,4,2,24,55,0,0
56575,-111.111111111111,4,2,24,55,0,0
56928,-111.111111111111,4,2,24,55,0,0
57104,-111.111111111111,4,2,24,55,0,0
57281,-99.9999999999999,4,2,12,55,0,0
57634,-99.9999999999999,4,2,1,55,0,0
57810,-99.9999999999999,4,2,12,55,0,0
58163,-99.9999999999999,4,2,12,55,0,0
58340,-99.9999999999999,4,2,27,55,0,0
58516,-99.9999999999999,4,2,29,55,0,0
58869,-99.9999999999999,4,2,1,55,0,0
60106,-83.3333333333333,4,2,17,70,0,1
60457,-83.3333333333333,4,2,30,70,0,1
60634,-90.9090909090909,4,2,12,70,0,1
60722,-90.9090909090909,4,2,18,70,0,1
60987,-90.9090909090909,4,2,12,70,0,1
61163,-90.9090909090909,4,2,31,70,0,1
61340,-90.9090909090909,4,2,12,70,0,1
61516,-90.9090909090909,4,2,4,70,0,1
61693,-90.9090909090909,4,2,4,70,0,1
61869,-90.9090909090909,4,2,31,70,0,1
62046,-90.9090909090909,4,2,12,70,0,1
62134,-90.9090909090909,4,2,19,70,0,1
62398,-90.9090909090909,4,2,19,70,0,1
62575,-90.9090909090909,4,2,30,70,0,1
62928,-90.9090909090909,4,2,19,70,0,1
63281,-90.9090909090909,4,2,30,70,0,1
63457,-90.9090909090909,4,2,19,70,0,1
63634,-90.9090909090909,4,2,19,70,0,1
63810,-90.9090909090909,4,2,19,70,0,1
63987,-90.9090909090909,4,2,30,70,0,1
64163,-90.9090909090909,4,2,4,70,0,1
64340,-90.9090909090909,4,2,4,70,0,1
64516,-90.9090909090909,4,2,4,70,0,1
64693,-90.9090909090909,4,2,30,70,0,1
64869,-90.9090909090909,4,2,19,70,0,1
65046,-90.9090909090909,4,2,19,70,0,1
65222,-90.9090909090909,4,2,19,70,0,1
65398,-90.9090909090909,4,2,31,70,0,1
65575,-90.9090909090909,4,2,19,70,0,1
65751,-90.9090909090909,4,2,19,70,0,1
66104,-90.9090909090909,4,2,30,70,0,1
66281,-90.9090909090909,4,2,12,70,0,1
66369,-90.9090909090909,4,2,18,70,0,1
66634,-90.9090909090909,4,2,12,70,0,1
66810,-90.9090909090909,4,2,31,70,0,1
66987,-90.9090909090909,4,2,12,70,0,1
67163,-90.9090909090909,4,2,4,70,0,1
67340,-90.9090909090909,4,2,4,70,0,1
67516,-90.9090909090909,4,2,31,70,0,1
67693,-90.9090909090909,4,2,19,70,0,1
67869,-90.9090909090909,4,2,19,70,0,1
68046,-90.9090909090909,4,2,19,70,0,1
68222,-90.9090909090909,4,2,30,70,0,1
68575,-90.9090909090909,4,2,19,70,0,1
68928,-90.9090909090909,4,2,30,70,0,1
69104,-90.9090909090909,4,2,19,70,0,1
69281,-90.9090909090909,4,2,19,70,0,1
69457,-90.9090909090909,4,2,19,70,0,1
69634,-90.9090909090909,4,2,30,70,0,1
69810,-90.9090909090909,4,2,1,70,0,1
69987,-90.9090909090909,4,2,4,70,0,1
70163,-90.9090909090909,4,2,4,70,0,1
70340,-90.9090909090909,4,2,30,70,0,1
70516,-90.9090909090909,4,2,1,70,0,1
70693,-90.9090909090909,4,2,30,70,0,1
70869,-90.9090909090909,4,2,1,70,0,1
71046,-90.9090909090909,4,2,31,70,0,1
71134,-90.9090909090909,4,2,31,70,0,1
71398,-90.9090909090909,4,2,19,70,0,1
71751,-90.9090909090909,4,2,30,70,0,1
71928,-90.9090909090909,4,2,12,70,0,1
72016,-90.9090909090909,4,2,18,70,0,1
72281,-90.9090909090909,4,2,12,70,0,1
72457,-90.9090909090909,4,2,31,70,0,1
72634,-90.9090909090909,4,2,12,70,0,1
72810,-90.9090909090909,4,2,4,70,0,1
72987,-90.9090909090909,4,2,4,70,0,1
73163,-90.9090909090909,4,2,30,70,0,1
73340,-90.9090909090909,4,2,19,70,0,1
73516,-90.9090909090909,4,2,19,70,0,1
73693,-90.9090909090909,4,2,19,70,0,1
73869,-90.9090909090909,4,2,31,70,0,1
74046,-90.9090909090909,4,2,1,70,0,1
74222,-90.9090909090909,4,2,19,70,0,1
74575,-90.9090909090909,4,2,30,70,0,1
74751,-90.9090909090909,4,2,12,70,0,1
74840,-90.9090909090909,4,2,18,70,0,1
75104,-90.9090909090909,4,2,12,70,0,1
75281,-90.9090909090909,4,2,31,70,0,1
75457,-90.9090909090909,4,2,12,70,0,1
75634,-90.9090909090909,4,2,4,70,0,1
75810,-90.9090909090909,4,2,4,70,0,1
75987,-90.9090909090909,4,2,30,70,0,1
76163,-90.9090909090909,4,2,1,70,0,1
76340,-90.9090909090909,4,2,32,70,0,1
76516,-90.9090909090909,4,2,18,70,0,1
76693,-90.9090909090909,4,2,18,70,0,1
77046,-90.9090909090909,4,2,20,70,0,1
77398,-90.9090909090909,4,2,24,70,0,1
77575,-90.9090909090909,4,2,12,70,0,1
77751,-90.9090909090909,4,2,1,70,0,1
77928,-90.9090909090909,4,2,12,70,0,1
78281,-90.9090909090909,4,2,12,70,0,1
78634,-90.9090909090909,4,2,12,70,0,1
78810,-90.9090909090909,4,2,27,70,0,1
79165,-90.9090909090909,4,2,1,70,0,1
79871,-90.9090909090909,4,2,29,70,0,0
80222,-90.9090909090909,4,2,29,70,0,0
80398,-90.9090909090909,4,2,29,70,0,0
80751,-90.9090909090909,4,2,29,70,0,0
80928,-90.9090909090909,4,2,29,70,0,0
81634,-90.9090909090909,4,2,29,70,0,0
82693,-100,4,2,1,65,0,0
82869,-100,4,2,17,65,0,0
83046,-100,4,2,18,65,0,0
83222,-100,4,2,2,65,0,0
83398,-100,4,2,3,65,0,0
83575,-100,4,2,2,65,0,0
83751,-100,4,2,19,65,0,0
83928,-100,4,2,4,65,0,0
84104,-100,4,2,2,65,0,0
84281,-100,4,2,5,65,0,0
84457,-100,4,2,20,65,0,0
84634,-100,4,2,5,65,0,0
84722,-100,4,2,1,65,0,0
84810,-100,4,2,6,65,0,0
84987,-100,4,2,5,65,0,0
85163,-100,4,2,20,65,0,0
85340,-100,4,2,5,65,0,0
85516,-100,4,2,7,65,0,0
85692,-100,4,2,17,65,0,0
85869,-100,4,2,18,65,0,0
86046,-100,4,2,2,65,0,0
86134,-100,4,2,1,65,0,0
86222,-100,4,2,3,65,0,0
86398,-100,4,2,2,65,0,0
86575,-100,4,2,19,65,0,0
86751,-100,4,2,4,65,0,0
86928,-100,4,2,2,65,0,0
87104,-100,4,2,8,65,0,0
87281,-100,4,2,21,65,0,0
87457,-100,4,2,8,65,0,0
87546,-100,4,2,1,65,0,0
87634,-100,4,2,9,65,0,0
87810,-100,4,2,8,65,0,0
87987,-100,4,2,21,65,0,0
88163,-100,4,2,8,65,0,0
88340,-100,4,2,7,65,0,0
88516,-100,4,2,17,65,0,0
88693,-100,4,2,18,65,0,0
88869,-100,4,2,2,65,0,0
89046,-100,4,2,3,65,0,0
89222,-100,4,2,2,65,0,0
89398,-100,4,2,19,65,0,0
89575,-100,4,2,4,65,0,0
89751,-100,4,2,2,65,0,0
89928,-100,4,2,5,65,0,0
90104,-100,4,2,20,65,0,0
90281,-100,4,2,5,65,0,0
90369,-100,4,2,1,65,0,0
90457,-100,4,2,6,65,0,0
90634,-100,4,2,5,65,0,0
90810,-100,4,2,20,65,0,0
90987,-100,4,2,5,65,0,0
91340,-100,4,2,22,65,0,0
91693,-100,4,2,5,65,0,0
91869,-100,4,2,22,65,0,0
92222,-100,4,2,10,65,0,0
92398,-166.666666666667,4,2,11,65,0,0
92751,-166.666666666667,4,2,23,65,0,0
93987,-166.666666666667,4,2,12,50,0,0
95046,-166.666666666667,4,2,1,50,0,0
102281,-125,4,2,12,50,0,0
102457,-125,4,2,29,60,0,0
102634,-125,4,2,29,40,0,0
102810,-125,4,2,29,45,0,0
102987,-125,4,2,29,50,0,0
103163,-125,4,2,29,55,0,0
103340,-125,4,2,29,60,0,0
103516,-125,4,2,29,65,0,0
103693,-125,4,2,14,50,0,0
104046,-125,4,2,1,50,0,0
104751,-125,4,2,12,50,0,0
104928,-125,4,2,1,50,0,0
105193,-125,4,2,2,50,0,0
105281,-111.111111111111,4,2,12,60,0,0
105457,-111.111111111111,4,2,25,60,0,0
105634,-111.111111111111,4,2,1,60,0,0
105810,-111.111111111111,4,2,25,60,0,0
105987,-111.111111111111,4,2,12,60,0,0
106163,-111.111111111111,4,2,25,60,0,0
106340,-111.111111111111,4,2,25,60,0,0
106516,-111.111111111111,4,2,25,60,0,0
106693,-111.111111111111,4,2,1,60,0,0
106869,-111.111111111111,4,2,25,60,0,0
107046,-111.111111111111,4,2,1,60,0,0
107222,-111.111111111111,4,2,15,60,0,0
107310,-111.111111111111,4,2,1,60,0,0
107398,-111.111111111111,4,2,12,60,0,0
107575,-111.111111111111,4,2,15,60,0,0
107751,-111.111111111111,4,2,25,60,0,0
107928,-111.111111111111,4,2,25,60,0,0
108104,-111.111111111111,4,2,1,60,0,0
108281,-111.111111111111,4,2,25,60,0,0
108457,-111.111111111111,4,2,1,60,0,0
108634,-111.111111111111,4,2,25,60,0,0
108722,-111.111111111111,4,2,1,60,0,0
108810,-111.111111111111,4,2,12,60,0,0
108987,-111.111111111111,4,2,25,60,0,0
109163,-111.111111111111,4,2,25,60,0,0
109340,-111.111111111111,4,2,25,60,0,0
109516,-111.111111111111,4,2,1,60,0,0
109693,-111.111111111111,4,2,25,60,0,0
109869,-111.111111111111,4,2,25,60,0,0
110046,-111.111111111111,4,2,15,60,0,0
110134,-111.111111111111,4,2,1,60,0,0
110398,-111.111111111111,4,2,15,60,0,0
110575,-111.111111111111,4,2,1,60,0,0
110751,-111.111111111111,4,2,15,60,0,0
110928,-111.111111111111,4,2,12,60,0,0
111104,-111.111111111111,4,2,1,60,0,0
112163,-111.111111111111,4,2,25,60,0,0
112340,-111.111111111111,4,2,1,60,0,0
112869,-111.111111111111,4,2,16,60,0,0
112957,-111.111111111111,4,2,1,60,0,0
113222,-111.111111111111,4,2,15,60,0,0
113398,-111.111111111111,4,2,1,60,0,0
113575,-111.111111111111,4,2,12,60,0,0
113663,-111.111111111111,4,2,12,60,0,0
113751,-111.111111111111,4,2,12,60,0,0
113928,-111.111111111111,4,2,1,60,0,0
114104,-111.111111111111,4,2,25,60,0,0
114281,-111.111111111111,4,2,1,60,0,0
114457,-111.111111111111,4,2,16,60,0,0
114634,-111.111111111111,4,2,12,60,0,0
114810,-111.111111111111,4,2,26,60,0,0
114987,-111.111111111111,4,2,12,60,0,0
115340,-111.111111111111,4,2,1,60,0,0
116575,-125,4,2,14,55,0,0
116928,-125,4,2,24,55,0,0
117104,-125,4,2,12,55,0,0
117281,-125,4,2,27,55,0,0
117457,-125,4,2,1,55,0,0
117634,-125,4,2,3,55,0,0
117810,-125,4,2,12,55,0,0
117987,-125,4,2,3,55,0,0
118163,-125,4,2,12,55,0,0
118340,-125,4,2,14,55,0,0
118693,-125,4,2,28,55,0,0
118869,-125,4,2,24,55,0,0
119222,-125,4,2,12,55,0,0
119310,-125,4,2,12,55,0,0
119398,-125,4,2,13,55,0,0
119575,-125,4,2,1,55,0,0
119751,-125,4,2,3,55,0,0
119928,-125,4,2,12,55,0,0
120104,-125,4,2,27,55,0,0
120281,-125,4,2,1,55,0,0
120457,-125,4,2,14,55,0,0
120634,-125,4,2,12,55,0,0
120987,-125,4,2,1,55,0,0
121163,-125,4,2,14,55,0,0
121516,-125,4,2,28,55,0,0
121693,-125,4,2,1,55,0,0
122222,-111.111111111111,4,2,12,55,0,0
122575,-111.111111111111,4,2,24,55,0,0
122928,-111.111111111111,4,2,14,55,0,0
123281,-111.111111111111,4,2,24,55,0,0
123634,-111.111111111111,4,2,12,55,0,0
123987,-111.111111111111,4,2,27,55,0,0
124163,-111.111111111111,4,2,24,55,0,0
124340,-111.111111111111,4,2,24,55,0,0
124693,-111.111111111111,4,2,24,55,0,0
124869,-111.111111111111,4,2,24,55,0,0
125046,-100,4,2,12,55,0,0
125398,-100,4,2,1,55,0,0
125575,-100,4,2,12,55,0,0
125928,-100,4,2,12,55,0,0
126104,-100,4,2,27,55,0,0
126281,-100,4,2,29,55,0,0
126634,-100,4,2,1,55,0,0
127871,-83.3333333333333,4,2,17,70,0,1
128222,-83.3333333333333,4,2,30,70,0,1
128398,-90.9090909090909,4,2,12,70,0,1
128487,-90.9090909090909,4,2,18,70,0,1
128751,-90.9090909090909,4,2,12,70,0,1
128928,-90.9090909090909,4,2,31,70,0,1
129104,-90.9090909090909,4,2,12,70,0,1
129281,-90.9090909090909,4,2,4,70,0,1
129457,-90.9090909090909,4,2,4,70,0,1
129634,-90.9090909090909,4,2,31,70,0,1
129810,-90.9090909090909,4,2,12,70,0,1
129898,-90.9090909090909,4,2,19,70,0,1
130163,-90.9090909090909,4,2,19,70,0,1
130340,-90.9090909090909,4,2,30,70,0,1
130693,-90.9090909090909,4,2,19,70,0,1
131046,-90.9090909090909,4,2,30,70,0,1
131222,-90.9090909090909,4,2,19,70,0,1
131398,-90.9090909090909,4,2,19,70,0,1
131575,-90.9090909090909,4,2,19,70,0,1
131751,-90.9090909090909,4,2,30,70,0,1
131928,-90.9090909090909,4,2,4,70,0,1
132104,-90.9090909090909,4,2,4,70,0,1
132281,-90.9090909090909,4,2,4,70,0,1
132457,-90.9090909090909,4,2,30,70,0,1
132634,-90.9090909090909,4,2,19,70,0,1
132810,-90.9090909090909,4,2,19,70,0,1
132987,-90.9090909090909,4,2,19,70,0,1
133163,-90.9090909090909,4,2,31,70,0,1
133340,-90.9090909090909,4,2,19,70,0,1
133516,-90.9090909090909,4,2,19,70,0,1
133869,-90.9090909090909,4,2,30,70,0,1
134046,-90.9090909090909,4,2,12,70,0,1
134134,-90.9090909090909,4,2,18,70,0,1
134398,-90.9090909090909,4,2,12,70,0,1
134575,-90.9090909090909,4,2,31,70,0,1
134751,-90.9090909090909,4,2,12,70,0,1
134928,-90.9090909090909,4,2,4,70,0,1
135104,-90.9090909090909,4,2,4,70,0,1
135281,-90.9090909090909,4,2,31,70,0,1
135457,-90.9090909090909,4,2,19,70,0,1
135634,-90.9090909090909,4,2,19,70,0,1
135810,-90.9090909090909,4,2,19,70,0,1
135987,-90.9090909090909,4,2,30,70,0,1
136340,-90.9090909090909,4,2,19,70,0,1
136693,-90.9090909090909,4,2,30,70,0,1
136869,-90.9090909090909,4,2,19,70,0,1
137046,-90.9090909090909,4,2,19,70,0,1
137222,-90.9090909090909,4,2,19,70,0,1
137398,-90.9090909090909,4,2,30,70,0,1
137575,-90.9090909090909,4,2,1,70,0,1
137751,-90.9090909090909,4,2,4,70,0,1
137928,-90.9090909090909,4,2,4,70,0,1
138104,-90.9090909090909,4,2,30,70,0,1
138281,-90.9090909090909,4,2,1,70,0,1
138457,-90.9090909090909,4,2,30,70,0,1
138634,-90.9090909090909,4,2,2,70,0,1
138722,-90.9090909090909,4,2,31,70,0,1
138810,-90.9090909090909,4,2,31,70,0,1
138898,-90.9090909090909,4,2,31,70,0,1
139163,-90.9090909090909,4,2,19,70,0,1
139516,-90.9090909090909,4,2,30,70,0,1
139693,-90.9090909090909,4,2,12,70,0,1
139781,-90.9090909090909,4,2,18,70,0,1
140046,-90.9090909090909,4,2,12,70,0,1
140222,-90.9090909090909,4,2,31,70,0,1
140398,-90.9090909090909,4,2,12,70,0,1
140575,-90.9090909090909,4,2,4,70,0,1
140751,-90.9090909090909,4,2,4,70,0,1
140928,-90.9090909090909,4,2,30,70,0,1
141104,-90.9090909090909,4,2,19,70,0,1
141281,-90.9090909090909,4,2,19,70,0,1
141457,-90.9090909090909,4,2,19,70,0,1
141634,-90.9090909090909,4,2,31,70,0,1
141810,-90.9090909090909,4,2,1,70,0,1
141987,-90.9090909090909,4,2,19,70,0,1
142163,-90.9090909090909,4,2,1,70,0,1
142340,-90.9090909090909,4,2,30,70,0,1
142516,-90.9090909090909,4,2,12,70,0,1
142604,-90.9090909090909,4,2,18,70,0,1
142869,-90.9090909090909,4,2,12,70,0,1
143046,-90.9090909090909,4,2,31,70,0,1
143222,-90.9090909090909,4,2,12,70,0,1
143398,-90.9090909090909,4,2,4,70,0,1
143575,-90.9090909090909,4,2,4,70,0,1
143751,-90.9090909090909,4,2,30,70,0,1
143928,-90.9090909090909,4,2,1,70,0,1
144104,-90.9090909090909,4,2,32,70,0,1
144281,-90.9090909090909,4,2,18,70,0,1
144457,-90.9090909090909,4,2,18,70,0,1
144634,-90.9090909090909,4,2,18,70,0,1
144810,-90.9090909090909,4,2,20,70,0,1
145163,-90.9090909090909,4,2,24,70,0,1
145340,-90.9090909090909,4,2,12,70,0,1
145516,-90.9090909090909,4,2,1,70,0,1
145693,-90.9090909090909,4,2,12,70,0,1
146046,-90.9090909090909,4,2,12,70,0,1
146398,-90.9090909090909,4,2,12,70,0,1
146575,-90.9090909090909,4,2,27,70,0,1
146753,-90.9090909090909,4,2,1,70,0,1
147636,-90.9090909090909,4,2,29,70,0,0
147987,-90.9090909090909,4,2,29,70,0,0
148163,-90.9090909090909,4,2,29,70,0,0
148516,-90.9090909090909,4,2,29,70,0,0
148693,-90.9090909090909,4,2,29,70,0,0
150104,-90.9090909090909,4,2,21,70,0,0
150457,-90.9090909090909,4,2,21,65,0,0
150810,-90.9090909090909,4,2,31,65,0,0
150987,-90.9090909090909,4,2,18,65,0,0
151163,-90.9090909090909,4,2,18,65,0,0
151340,-90.9090909090909,4,2,18,65,0,0
151516,-90.9090909090909,4,2,30,65,0,0
151604,-90.9090909090909,4,2,1,65,0,0
151693,-90.9090909090909,4,2,12,65,0,0
151781,-90.9090909090909,4,2,1,65,0,0
151869,-90.9090909090909,4,2,30,65,0,0
152046,-90.9090909090909,4,2,12,65,0,0
152222,-90.9090909090909,4,2,30,65,0,0
152398,-90.9090909090909,4,2,12,65,0,0
152487,-90.9090909090909,4,2,18,65,0,0
152751,-90.9090909090909,4,2,12,65,0,0
152928,-90.9090909090909,4,2,31,65,0,0
153281,-90.9090909090909,4,2,19,65,0,0
153457,-90.9090909090909,4,2,1,65,0,0
153634,-90.9090909090909,4,2,30,65,0,0
153810,-90.9090909090909,4,2,12,65,0,0
153898,-90.9090909090909,4,2,19,65,0,0
154163,-90.9090909090909,4,2,12,65,0,0
154340,-90.9090909090909,4,2,30,65,0,0
154516,-90.9090909090909,4,2,12,65,0,0
154693,-90.9090909090909,4,2,4,65,0,0
154869,-90.9090909090909,4,2,12,65,0,0
155046,-90.9090909090909,4,2,30,65,0,0
155222,-90.9090909090909,4,2,12,65,0,0
155310,-90.9090909090909,4,2,19,65,0,0
155575,-90.9090909090909,4,2,1,65,0,0
155751,-90.9090909090909,4,2,19,65,0,0
155928,-90.9090909090909,4,2,1,65,0,0
156104,-90.9090909090909,4,2,19,65,0,0
156193,-90.9090909090909,4,2,1,65,0,0
156457,-90.9090909090909,4,2,30,65,0,0
156546,-90.9090909090909,4,2,1,65,0,0
156634,-90.9090909090909,4,2,12,65,0,0
156722,-90.9090909090909,4,2,1,65,0,0
156810,-90.9090909090909,4,2,19,65,0,0
156898,-90.9090909090909,4,2,1,65,0,0
156987,-90.9090909090909,4,2,12,65,0,0
157075,-90.9090909090909,4,2,1,65,0,0
157163,-90.9090909090909,4,2,30,65,0,0
157251,-90.9090909090909,4,2,1,65,0,0
157340,-90.9090909090909,4,2,12,65,0,0
157428,-90.9090909090909,4,2,1,65,0,0
157516,-90.9090909090909,4,2,30,65,0,0
157604,-90.9090909090909,4,2,1,65,0,0
157693,-90.9090909090909,4,2,12,65,0,0
157781,-90.9090909090909,4,2,1,65,0,0
157869,-90.9090909090909,4,2,30,65,0,0
157957,-90.9090909090909,4,2,1,65,0,0
158046,-90.9090909090909,4,2,12,65,0,0
158134,-90.9090909090909,4,2,1,65,0,0
158222,-90.9090909090909,4,2,19,65,0,0
158310,-90.9090909090909,4,2,1,65,0,0
158398,-90.9090909090909,4,2,12,65,0,0
158487,-90.9090909090909,4,2,1,65,0,0
158575,-90.9090909090909,4,2,30,65,0,0
158663,-90.9090909090909,4,2,1,65,0,0
158928,-90.9090909090909,4,2,19,65,0,0
159016,-90.9090909090909,4,2,1,65,0,0
159281,-90.9090909090909,4,2,30,65,0,0
159369,-90.9090909090909,4,2,1,65,0,0
159457,-90.9090909090909,4,2,12,65,0,0
159546,-90.9090909090909,4,2,1,65,0,0
159634,-90.9090909090909,4,2,19,65,0,0
159722,-90.9090909090909,4,2,1,65,0,0
159810,-90.9090909090909,4,2,12,65,0,0
159898,-90.9090909090909,4,2,1,65,0,0
159987,-90.9090909090909,4,2,30,65,0,0
160075,-90.9090909090909,4,2,1,65,0,0
160163,-90.9090909090909,4,2,12,65,0,0
160251,-90.9090909090909,4,2,1,65,0,0
160340,-90.9090909090909,4,2,30,65,0,0
160428,-90.9090909090909,4,2,1,65,0,0
160516,-90.9090909090909,4,2,12,65,0,0
160604,-90.9090909090909,4,2,1,65,0,0
160693,-90.9090909090909,4,2,30,65,0,0
160781,-90.9090909090909,4,2,1,65,0,0
160869,-90.9090909090909,4,2,12,65,0,0
160957,-90.9090909090909,4,2,1,65,0,0
161046,-90.9090909090909,4,2,19,65,0,0
161134,-90.9090909090909,4,2,1,65,0,0
161222,-90.9090909090909,4,2,12,65,0,0
161310,-90.9090909090909,4,2,1,65,0,0
161398,-90.9090909090909,4,2,30,65,0,0
161487,-90.9090909090909,4,2,1,65,0,0
161751,-90.9090909090909,4,2,12,65,0,0
161928,-90.9090909090909,4,2,29,65,0,0
162104,-90.9090909090909,4,2,12,65,0,0
162457,-90.9090909090909,4,2,29,65,0,0
162634,-90.9090909090909,4,2,12,65,0,0
162987,-90.9090909090909,4,2,20,65,0,0
163340,-90.9090909090909,4,2,20,65,0,0
163516,-90.9090909090909,4,2,1,65,0,0
164222,-90.9090909090909,4,2,5,65,0,0
164398,-90.9090909090909,4,2,1,65,0,0
164575,-125,4,2,13,55,0,0
164928,-125,4,2,3,55,0,0
165104,-125,4,2,3,55,0,0
165281,-125,4,2,24,55,0,0
165457,-125,4,2,1,55,0,0
165634,-125,4,2,24,55,0,0
165810,-125,4,2,12,55,0,0
165987,-125,4,2,3,55,0,0
166163,-125,4,2,12,55,0,0
166340,-125,4,2,14,55,0,0
166516,-125,4,2,1,55,0,0
166693,-125,4,2,28,55,0,0
166869,-125,4,2,12,55,0,0
167046,-125,4,2,3,55,0,0
167222,-125,4,2,12,55,0,0
167575,-125,4,2,12,55,0,0
167751,-125,4,2,3,55,0,0
167928,-125,4,2,12,55,0,0
168104,-125,4,2,27,55,0,0
168281,-125,4,2,1,55,0,0
168457,-125,4,2,3,55,0,0
168634,-125,4,2,12,55,0,0
168810,-125,4,2,3,55,0,0
168987,-125,4,2,1,55,0,0
169163,-125,4,2,14,55,0,0
169340,-125,4,2,1,55,0,0
169516,-125,4,2,28,55,0,0
169693,-125,4,2,12,55,0,0
169869,-125,4,2,3,55,0,0
170046,-125,4,2,12,55,0,0
170398,-125,4,2,1,55,0,0
170575,-125,4,2,14,55,0,0
170751,-125,4,2,12,55,0,0
170928,-125,4,2,24,55,0,0
171104,-125,4,2,12,55,0,0
171281,-125,4,2,3,55,0,0
171457,-125,4,2,12,55,0,0
171810,-125,4,2,1,55,0,0
171987,-125,4,2,14,55,0,0
172163,-125,4,2,1,55,0,0
172340,-125,4,2,33,55,0,0
172516,-125,4,2,12,55,0,0
172693,-125,4,2,3,55,0,0
172869,-125,4,2,1,55,0,0
173046,-125,4,2,12,55,0,0
173398,-125,4,2,24,55,0,0
173751,-125,4,2,24,55,0,0
173928,-125,4,2,24,55,0,0
174104,-125,4,2,24,55,0,0
174457,-125,4,2,12,55,0,0
174634,-125,4,2,1,55,0,0
174810,-125,4,2,13,55,0,0
175163,-125,4,2,33,55,0,0
175340,-125,4,2,1,55,0,0
175693,-111.111111111111,4,2,12,60,0,0
176046,-111.111111111111,4,2,12,60,0,0
176222,-111.111111111111,4,2,24,60,0,0
176398,-111.111111111111,4,2,12,60,0,0
176575,-111.111111111111,4,2,3,60,0,0
176751,-111.111111111111,4,2,12,60,0,0
176928,-111.111111111111,4,2,27,60,0,0
177104,-111.111111111111,4,2,12,60,0,0
177281,-111.111111111111,4,2,3,60,0,0
177457,-111.111111111111,4,2,3,60,0,0
177634,-111.111111111111,4,2,27,60,0,0
177810,-111.111111111111,4,2,1,60,0,0
177987,-111.111111111111,4,2,14,60,0,0
178163,-111.111111111111,4,2,12,60,0,0
178340,-111.111111111111,4,2,24,60,0,0
178516,-111.111111111111,4,2,12,60,0,0
178869,-111.111111111111,4,2,12,60,0,0
179046,-111.111111111111,4,2,27,60,0,0
179222,-111.111111111111,4,2,12,60,0,0
179310,-111.111111111111,4,2,12,60,0,0
179398,-111.111111111111,4,2,3,60,0,0
179575,-111.111111111111,4,2,12,60,0,0
179751,-111.111111111111,4,2,27,60,0,0
179928,-111.111111111111,4,2,12,60,0,0
180281,-111.111111111111,4,2,12,60,0,0
180457,-111.111111111111,4,2,24,60,0,0
180634,-111.111111111111,4,2,24,60,0,0
180810,-111.111111111111,4,2,13,60,0,0
180987,-111.111111111111,4,2,13,60,0,0
181163,-111.111111111111,4,2,24,60,0,0
181340,-111.111111111111,4,2,24,60,0,0
181516,-111.111111111111,4,2,12,60,0,0
181869,-111.111111111111,4,2,24,60,0,0
182222,-111.111111111111,4,2,14,60,0,0
182575,-111.111111111111,4,2,24,60,0,0
182928,-111.111111111111,4,2,12,60,0,0
183281,-111.111111111111,4,2,27,60,0,0
183457,-111.111111111111,4,2,1,60,0,0
183634,-111.111111111111,4,2,14,60,0,0
183987,-111.111111111111,4,2,24,60,0,0
184163,-111.111111111111,4,2,24,60,0,0
184340,-100,4,2,12,60,0,0
184693,-100,4,2,29,60,0,0
184869,-100,4,2,12,60,0,0
185398,-100,4,2,29,60,0,0
186457,-125,4,2,1,30,0,0
186810,-111.111111111111,4,2,1,40,0,0
187163,-100,4,2,1,45,0,0
187340,-100,4,2,1,50,0,0
187516,-100,4,2,1,55,0,0
187693,-100,4,2,1,60,0,0
187869,-100,4,2,29,60,0,0
188398,-100,4,2,29,60,0,0
188575,-100,4,2,12,60,0,0
188928,-100,4,2,1,60,0,0
189104,-100,4,2,12,60,0,0
190516,-100,4,2,12,60,0,0
190693,-100,4,2,1,60,0,0
191310,-100,4,2,2,60,0,0
191400,-83.3333333333333,4,2,17,70,0,1
191751,-90.9090909090909,4,2,30,70,0,1
191928,-90.9090909090909,4,2,19,70,0,1
192104,-90.9090909090909,4,2,19,70,0,1
192281,-90.9090909090909,4,2,19,70,0,1
192457,-90.9090909090909,4,2,30,70,0,1
192634,-90.9090909090909,4,2,4,70,0,1
192810,-90.9090909090909,4,2,4,70,0,1
192987,-90.9090909090909,4,2,4,70,0,1
193163,-90.9090909090909,4,2,30,70,0,1
193340,-90.9090909090909,4,2,19,70,0,1
193516,-90.9090909090909,4,2,19,70,0,1
193693,-90.9090909090909,4,2,19,70,0,1
193869,-90.9090909090909,4,2,31,70,0,1
194046,-90.9090909090909,4,2,19,70,0,1
194222,-90.9090909090909,4,2,19,70,0,1
194575,-90.9090909090909,4,2,30,70,0,1
194751,-90.9090909090909,4,2,12,70,0,1
194840,-90.9090909090909,4,2,18,70,0,1
195104,-90.9090909090909,4,2,12,70,0,1
195281,-90.9090909090909,4,2,31,70,0,1
195457,-90.9090909090909,4,2,12,70,0,1
195634,-90.9090909090909,4,2,4,70,0,1
195810,-90.9090909090909,4,2,4,70,0,1
195987,-90.9090909090909,4,2,31,70,0,1
196163,-90.9090909090909,4,2,19,70,0,1
196340,-90.9090909090909,4,2,19,70,0,1
196516,-90.9090909090909,4,2,19,70,0,1
196693,-90.9090909090909,4,2,30,70,0,1
197046,-90.9090909090909,4,2,19,70,0,1
197398,-90.9090909090909,4,2,30,70,0,1
197575,-90.9090909090909,4,2,19,70,0,1
197751,-90.9090909090909,4,2,19,70,0,1
197928,-90.9090909090909,4,2,19,70,0,1
198104,-90.9090909090909,4,2,30,70,0,1
198281,-90.9090909090909,4,2,1,70,0,1
198457,-90.9090909090909,4,2,4,70,0,1
198634,-90.9090909090909,4,2,4,70,0,1
198810,-90.9090909090909,4,2,30,70,0,1
198987,-90.9090909090909,4,2,1,70,0,1
199163,-90.9090909090909,4,2,30,70,0,1
199340,-90.9090909090909,4,2,2,70,0,1
199516,-90.9090909090909,4,2,31,70,0,1
199604,-90.9090909090909,4,2,31,70,0,1
199869,-90.9090909090909,4,2,19,70,0,1
200222,-90.9090909090909,4,2,30,70,0,1
200398,-90.9090909090909,4,2,12,70,0,1
200487,-90.9090909090909,4,2,18,70,0,1
200751,-90.9090909090909,4,2,12,70,0,1
200928,-90.9090909090909,4,2,31,70,0,1
201104,-90.9090909090909,4,2,12,70,0,1
201281,-90.9090909090909,4,2,4,70,0,1
201457,-90.9090909090909,4,2,4,70,0,1
201634,-90.9090909090909,4,2,30,70,0,1
201810,-90.9090909090909,4,2,19,70,0,1
201987,-90.9090909090909,4,2,19,70,0,1
202163,-90.9090909090909,4,2,19,70,0,1
202340,-90.9090909090909,4,2,31,70,0,1
202516,-90.9090909090909,4,2,1,70,0,1
202693,-90.9090909090909,4,2,19,70,0,1
203046,-90.9090909090909,4,2,30,70,0,1
203222,-90.9090909090909,4,2,12,70,0,1
203310,-90.9090909090909,4,2,18,70,0,1
203575,-90.9090909090909,4,2,12,70,0,1
203751,-90.9090909090909,4,2,31,70,0,1
203928,-90.9090909090909,4,2,12,70,0,1
204104,-90.9090909090909,4,2,4,70,0,1
204281,-90.9090909090909,4,2,4,70,0,1
204457,-90.9090909090909,4,2,30,70,0,1
204634,-90.9090909090909,4,2,1,70,0,1
204810,-90.9090909090909,4,2,32,70,0,1
204987,-90.9090909090909,4,2,1,70,0,1
205163,-90.9090909090909,4,2,34,70,0,1
205340,-90.9090909090909,4,2,19,70,0,1
205516,-90.9090909090909,4,2,19,70,0,1
205869,-90.9090909090909,4,2,30,70,0,1
206046,-90.9090909090909,4,2,12,70,0,1
206134,-90.9090909090909,4,2,18,70,0,1
206398,-90.9090909090909,4,2,12,70,0,1
206575,-90.9090909090909,4,2,31,70,0,1
206751,-90.9090909090909,4,2,12,70,0,1
206928,-90.9090909090909,4,2,4,70,0,1
207104,-90.9090909090909,4,2,4,70,0,1
207281,-90.9090909090909,4,2,31,70,0,1
207457,-90.9090909090909,4,2,19,70,0,1
207634,-90.9090909090909,4,2,19,70,0,1
207898,-90.9090909090909,4,2,19,70,0,1
207987,-90.9090909090909,4,2,30,70,0,1
208163,-90.9090909090909,4,2,1,70,0,1
208340,-90.9090909090909,4,2,35,70,0,1
208516,-90.9090909090909,4,2,29,70,0,1
208693,-90.9090909090909,4,2,22,70,0,1
208869,-90.9090909090909,4,2,29,70,0,1
209046,-90.9090909090909,4,2,36,70,0,1
209222,-90.9090909090909,4,2,12,70,0,1
209398,-90.9090909090909,4,2,36,70,0,1
209575,-90.9090909090909,4,2,29,70,0,1
209663,-90.9090909090909,4,2,29,70,0,1
209751,-90.9090909090909,4,2,6,70,0,1
209928,-90.9090909090909,4,2,6,70,0,1
210104,-90.9090909090909,4,2,37,70,0,1
210281,-90.9090909090909,4,2,12,70,0,1
210369,-90.9090909090909,4,2,12,70,0,1
210457,-90.9090909090909,4,2,38,70,0,1
210636,-90.9090909090909,4,2,38,70,0,1
210812,-90.9090909090909,4,2,37,70,0,0
210898,-90.9090909090909,4,2,37,70,0,0
211165,-83.3333333333333,4,2,17,70,0,1
211516,-83.3333333333333,4,2,30,70,0,1
211693,-83.3333333333333,4,2,12,70,0,1
211781,-83.3333333333333,4,2,18,70,0,1
212046,-83.3333333333333,4,2,12,70,0,1
212222,-83.3333333333333,4,2,31,70,0,1
212398,-83.3333333333333,4,2,12,70,0,1
212575,-83.3333333333333,4,2,4,70,0,1
212751,-83.3333333333333,4,2,4,70,0,1
212928,-83.3333333333333,4,2,31,70,0,1
213104,-83.3333333333333,4,2,12,70,0,1
213193,-83.3333333333333,4,2,19,70,0,1
213457,-83.3333333333333,4,2,19,70,0,1
213634,-83.3333333333333,4,2,30,70,0,1
213987,-90.9090909090909,4,2,19,70,0,1
214340,-90.9090909090909,4,2,30,70,0,1
214516,-90.9090909090909,4,2,19,70,0,1
214693,-90.9090909090909,4,2,19,70,0,1
214869,-90.9090909090909,4,2,19,70,0,1
215046,-90.9090909090909,4,2,30,70,0,1
215222,-90.9090909090909,4,2,4,70,0,1
215398,-90.9090909090909,4,2,4,70,0,1
215575,-90.9090909090909,4,2,4,70,0,1
215751,-90.9090909090909,4,2,30,70,0,1
215928,-90.9090909090909,4,2,19,70,0,1
216104,-90.9090909090909,4,2,19,70,0,1
216281,-90.9090909090909,4,2,19,70,0,1
216457,-90.9090909090909,4,2,31,70,0,1
216634,-90.9090909090909,4,2,19,70,0,1
216810,-83.3333333333333,4,2,19,70,0,1
217163,-83.3333333333333,4,2,30,70,0,1
217340,-83.3333333333333,4,2,12,70,0,1
217428,-83.3333333333333,4,2,18,70,0,1
217693,-83.3333333333333,4,2,12,70,0,1
217869,-83.3333333333333,4,2,31,70,0,1
218046,-83.3333333333333,4,2,12,70,0,1
218222,-83.3333333333333,4,2,4,70,0,1
218398,-83.3333333333333,4,2,4,70,0,1
218575,-83.3333333333333,4,2,31,70,0,1
218751,-83.3333333333333,4,2,19,70,0,1
218928,-83.3333333333333,4,2,19,70,0,1
219104,-83.3333333333333,4,2,19,70,0,1
219281,-83.3333333333333,4,2,30,70,0,1
219634,-90.9090909090909,4,2,19,70,0,1
219987,-90.9090909090909,4,2,30,70,0,1
220163,-90.9090909090909,4,2,19,70,0,1
220340,-90.9090909090909,4,2,19,70,0,1
220516,-90.9090909090909,4,2,19,70,0,1
220693,-90.9090909090909,4,2,30,70,0,1
220869,-90.9090909090909,4,2,4,70,0,1
221046,-90.9090909090909,4,2,4,70,0,1
221222,-90.9090909090909,4,2,4,70,0,1
221398,-90.9090909090909,4,2,30,70,0,1
221575,-90.9090909090909,4,2,1,70,0,1
221751,-90.9090909090909,4,2,30,70,0,1
221928,-90.9090909090909,4,2,1,70,0,1
222104,-90.9090909090909,4,2,31,70,0,1
222193,-90.9090909090909,4,2,31,70,0,1
222457,-90.9090909090909,4,2,19,70,0,1
222810,-90.9090909090909,4,2,30,70,0,1
222987,-90.9090909090909,4,2,12,70,0,1
223075,-90.9090909090909,4,2,18,70,0,1
223340,-90.9090909090909,4,2,12,70,0,1
223516,-90.9090909090909,4,2,31,70,0,1
223693,-90.9090909090909,4,2,12,70,0,1
223869,-90.9090909090909,4,2,4,70,0,1
224046,-90.9090909090909,4,2,4,70,0,1
224222,-90.9090909090909,4,2,30,70,0,1
224398,-90.9090909090909,4,2,19,70,0,1
224575,-90.9090909090909,4,2,19,70,0,1
224751,-90.9090909090909,4,2,19,70,0,1
224928,-90.9090909090909,4,2,31,70,0,1
225104,-90.9090909090909,4,2,1,70,0,1
225281,-90.9090909090909,4,2,19,70,0,1
225634,-90.9090909090909,4,2,30,70,0,1
225810,-90.9090909090909,4,2,12,70,0,1
225898,-90.9090909090909,4,2,18,70,0,1
226163,-90.9090909090909,4,2,12,70,0,1
226340,-90.9090909090909,4,2,31,70,0,1
226516,-90.9090909090909,4,2,12,70,0,1
226693,-90.9090909090909,4,2,4,70,0,1
226869,-90.9090909090909,4,2,4,70,0,1
227046,-90.9090909090909,4,2,30,70,0,1
227222,-90.9090909090909,4,2,1,70,0,1
227398,-90.9090909090909,4,2,32,70,0,1
227575,-90.9090909090909,4,2,18,70,0,1
227751,-90.9090909090909,4,2,18,70,0,1
227840,-90.9090909090909,4,2,18,70,0,1
228104,-90.9090909090909,4,2,20,70,0,1
228457,-90.9090909090909,4,2,24,70,0,1
228634,-90.9090909090909,4,2,12,70,0,1
228810,-90.9090909090909,4,2,1,70,0,1
228987,-90.9090909090909,4,2,12,70,0,1
229340,-90.9090909090909,4,2,12,70,0,1
229693,-90.9090909090909,4,2,12,70,0,1
229869,-90.9090909090909,4,2,27,70,0,1
230224,-90.9090909090909,4,2,1,70,0,1
230930,-90.9090909090909,4,2,29,70,0,0
231281,-90.9090909090909,4,2,29,70,0,0
231457,-90.9090909090909,4,2,29,70,0,0
231810,-90.9090909090909,4,2,29,70,0,0
231987,-90.9090909090909,4,2,29,70,0,0
232693,-90.9090909090909,4,2,29,70,0,0
233751,-100,4,2,1,65,0,0
233928,-100,4,2,17,65,0,0
234104,-100,4,2,18,65,0,0
234281,-100,4,2,2,65,0,0
234457,-100,4,2,3,65,0,0
234634,-100,4,2,2,65,0,0
234810,-100,4,2,19,65,0,0
234987,-100,4,2,4,65,0,0
235163,-100,4,2,2,65,0,0
235340,-100,4,2,5,65,0,0
235516,-100,4,2,20,65,0,0
235693,-100,4,2,5,65,0,0
235781,-100,4,2,1,65,0,0
235869,-100,4,2,6,65,0,0
236046,-100,4,2,5,65,0,0
236222,-100,4,2,20,65,0,0
236398,-100,4,2,5,65,0,0
236575,-100,4,2,7,65,0,0
236751,-100,4,2,17,65,0,0
236928,-100,4,2,18,65,0,0
237104,-100,4,2,2,65,0,0
237193,-100,4,2,1,65,0,0
237281,-100,4,2,3,65,0,0
237457,-100,4,2,2,65,0,0
237634,-100,4,2,19,65,0,0
237810,-100,4,2,4,65,0,0
237987,-100,4,2,2,65,0,0
238163,-100,4,2,8,65,0,0
238340,-100,4,2,21,65,0,0
238516,-100,4,2,8,65,0,0
238604,-100,4,2,1,65,0,0
238693,-100,4,2,9,65,0,0
238869,-100,4,2,8,65,0,0
239046,-100,4,2,21,65,0,0
239222,-100,4,2,8,65,0,0
239398,-100,4,2,7,65,0,0
239575,-100,4,2,17,65,0,0
239751,-100,4,2,18,65,0,0
239928,-100,4,2,2,65,0,0
240104,-100,4,2,3,65,0,0
240281,-100,4,2,2,65,0,0
240457,-100,4,2,19,65,0,0
240634,-100,4,2,4,65,0,0
240810,-100,4,2,2,65,0,0
240987,-100,4,2,5,65,0,0
241163,-100,4,2,20,65,0,0
241340,-100,4,2,5,65,0,0
241428,-100,4,2,1,65,0,0
241516,-100,4,2,6,65,0,0
241693,-100,4,2,5,65,0,0
241869,-100,4,2,20,65,0,0
242046,-100,4,2,5,65,0,0
242398,-100,4,2,17,65,0,0
242575,-100,4,2,17,65,0,0
242751,-100,4,2,23,65,0,0
242928,-100,4,2,39,65,0,0
243104,-100,4,2,40,65,0,0
243457,-100,4,2,24,45,0,0
258508,-100,4,2,24,45,0,0

[Colours]
Combo1 : 247,247,51
Combo2 : 237,61,61
Combo3 : 255,128,0

[HitObjects]
146,61,636,5,2,2:2:0:0:
146,61,812,2,0,P|109:28|52:34,1,104.999996795654,2|2,2:2|2:2,0:0:0:0:
10,109,1342,2,0,P|24:160|33:214,1,104.999996795654,2|2,2:2|2:2,0:0:0:0:
169,264,2048,2,0,B|209:279|243:249|235:236|272:202|317:219,1,157.499995193482,2|2,2:2|2:2,0:0:0:0:
391,279,2753,1,2,2:2:0:0:
391,279,2930,2,0,P|377:329|368:381,1,104.999996795654,2|2,2:2|2:2,0:0:0:0:
202,349,3636,6,0,P|193:297|179:246,2,104.999996795654,2|2|2,2:2|2:2|2:2,0:0:0:0:
277,204,4695,2,0,P|217:135|110:167,1,209.999993591309,2|2,2:2|2:2,0:0:0:0:
65,303,5753,2,0,P|116:301|150:260,1,104.999996795654,2|2,2:2|2:2,0:0:0:0:
237,122,6459,6,0,P|228:70|214:19,1,104.999996795654,2|2,2:2|2:2,0:0:0:0:
121,4,6989,2,0,P|88:22|80:95,1,104.999996795654,2|2,2:2|2:2,0:0:0:0:
180,190,7695,2,0,P|253:163|329:140,1,157.499995193482,2|2,2:2|2:2,0:0:0:0:
454,49,8577,2,0,P|400:29|346:13,1,104.999996795654,2|2,2:2|2:2,0:0:0:0:
418,175,9283,6,0,P|471:171|500:131,2,104.999996795654,2|2|2,2:2|2:2|2:2,0:0:0:0:
309,303,10342,2,0,P|377:281|449:388,1,209.999993591309,2|2,2:2|2:2,0:0:0:0:
507,243,11400,5,2,2:2:0:0:
256,192,11577,12,0,14224,0:0:0:0:
133,245,14930,6,0,P|124:282|111:319,2,75,14|0|10,2:1|0:0|2:2,0:0:0:0:
244,356,15459,1,10,2:1:0:0:
244,356,15548,1,8,2:1:0:0:
244,356,15636,2,0,P|232:320|223:283,1,75,10|10,2:1|2:1,0:0:0:0:
266,191,15989,5,10,2:2:0:0:
266,191,16165,2,0,B|227:202|196:176|204:165|172:138|128:150,1,150,10|10,2:1|2:1,0:0:0:0:
44,90,16695,2,0,P|67:43|122:32,1,112.5,10|8,2:2|2:2,0:0:0:0:
148,16,17048,2,0,P|189:21|210:59,1,75,10|10,2:1|2:1,0:0:0:0:
293,98,17400,2,0,P|329:85|375:73,1,75,10|10,2:2|2:1,0:0:0:0:
481,39,17753,6,0,P|460:101|454:134,2,75,14|0|10,2:1|0:0|2:2,0:0:0:0:
393,183,18283,1,10,2:1:0:0:
393,183,18371,1,8,2:2:0:0:
393,183,18459,2,0,P|414:245|420:278,1,75,10|10,2:1|2:1,0:0:0:0:
469,354,18812,5,10,2:2:0:0:
469,354,18989,2,0,P|421:301|348:313,1,150,10|10,2:1|2:1,0:0:0:0:
254,281,19518,2,0,P|235:329|181:345,1,112.5,10|8,2:2|2:2,0:0:0:0:
155,363,19871,2,0,P|113:361|89:325,1,75,10|10,2:1|2:1,0:0:0:0:
34,250,20224,2,0,P|46:212|55:164,1,75,10|10,2:2|2:1,0:0:0:0:
73,71,20577,6,0,P|20:90|-14:98,2,75,14|0|10,2:1|0:0|2:2,0:0:0:0:
146,143,21106,1,10,2:1:0:0:
146,143,21195,1,8,2:1:0:0:
146,143,21283,2,0,P|183:153|218:167,1,75,10|10,2:1|2:1,0:0:0:0:
282,266,21636,5,14,2:2:0:0:
327,181,21812,2,0,P|295:90|264:18,1,150,10|10,2:1|2:1,0:0:0:0:
395,103,22342,2,0,P|432:63|493:65,1,112.5,10|8,2:2|2:2,0:0:0:0:
506,85,22695,2,0,P|491:119|479:155,1,75,10|10,2:1|2:1,0:0:0:0:
418,261,23048,6,0,P|378:212|288:227,1,150,10|8,2:2|2:1,0:0:0:0:
221,312,23577,5,14,2:2:0:0:
221,312,23753,2,0,P|231:348|238:384,1,75,0|10,0:0|2:1,0:0:0:0:
111,269,24106,5,14,2:2:0:0:
111,269,24283,2,0,P|102:305|92:341,1,75,0|10,0:0|2:1,0:0:0:0:
65,149,24636,6,0,B|131:102|230:159|191:203|261:263|344:221,1,314.999990386963,14|0,2:1|0:0,0:0:0:0:
230,72,26224,6,0,B|182:38|202:-38|307:-70|376:67|292:145,1,314.999990386963,14|2,2:1|2:2,0:0:0:0:
220,228,27459,2,0,P|296:249|369:277,1,157.499995193482,2|0,2:2|0:0,0:0:0:0:
164,123,28518,6,0,P|190:115|214:106,2,52.4999983978272,2|2|2,2:2|2:2|2:2,0:0:0:0:
334,195,29224,2,0,P|313:174|291:157,2,52.4999983978272,2|2|2,2:2|2:2|2:2,0:0:0:0:
314,10,29930,2,0,P|307:35|303:61,1,52.4999983978272,2|0,2:2|0:0,0:0:0:0:
387,104,30283,6,0,P|395:52|408:1,2,104.999996795654,2|2|2,2:2|2:2|2:2,0:0:0:0:
451,231,31342,1,2,2:2:0:0:
451,231,31518,2,0,P|474:220|499:212,1,52.4999983978272,2|2,2:2|2:2,0:0:0:0:
492,317,31871,6,0,B|418:360|343:293|377:257|313:182|225:224,1,314.999990386963,10|2,2:1|2:2,0:0:0:0:
267,317,33106,2,0,P|340:285|415:262,1,157.499995193482,2|0,2:2|0:0,0:0:0:0:
335,133,34165,2,0,P|310:125|286:115,1,52.4999983978272,2|2,2:2|2:2,0:0:0:0:
221,46,34518,6,0,P|185:78|191:132,1,104.999996795654,2|2,2:2|2:2,0:0:0:0:
255,213,35048,1,2,2:2:0:0:
255,213,35224,2,0,P|205:229|157:249,1,104.999996795654,2|2,2:2|2:2,0:0:0:0:
88,374,35930,6,0,P|4:327|20:231,1,180,14|0,2:1|0:0,0:0:0:0:
64,172,36636,1,10,2:2:0:0:
64,172,36724,1,8,2:2:0:0:
64,171,36812,2,0,P|73:142|79:113,1,60,8|10,2:2|2:1,0:0:0:0:
149,221,37165,2,0,P|151:235|156:249,3,30,8|8|4|8,2:2|2:3|2:3|2:3,0:0:0:0:
179,263,37518,6,0,P|209:248|241:237,1,67.4999979400635,14|2,2:1|2:2,0:0:0:0:
307,167,37871,2,0,P|337:181|369:192,1,67.4999979400635,10|2,2:2|2:2,0:0:0:0:
447,257,38224,1,10,2:1:0:0:
447,257,38400,2,0,P|426:283|395:293,1,67.4999979400635,2|8,2:2|2:2,0:0:0:0:
323,365,38753,6,0,P|261:377|218:305,1,134.999995880127,2|2,2:2|2:2,0:0:0:0:
146,264,39283,2,0,P|162:211|167:173,1,67.4999979400635,10|10,2:2|2:1,0:0:0:0:
218,123,39636,1,10,2:1:0:0:
218,123,39812,2,0,P|207:91|199:58,1,67.4999979400635,10|8,2:1|2:2,0:0:0:0:
103,6,40165,6,0,P|42:1|-1:73,1,134.999995880127,2|2,2:2|2:2,0:0:0:0:
24,147,40695,2,0,P|66:159|115:182,1,67.4999979400635,10|2,2:2|2:2,0:0:0:0:
180,115,41048,1,10,2:1:0:0:
180,115,41224,2,0,P|222:103|271:80,1,67.4999979400635,2|8,2:2|2:2,0:0:0:0:
354,57,41577,6,0,P|331:122|314:195,2,134.999995880127,2|2|10,2:2|2:2|2:1,0:0:0:0:
423,129,42459,2,0,P|451:148|484:166,1,67.4999979400635,8|10,2:1|2:1,0:0:0:0:
510,257,42812,2,0,P|466:285|440:280,1,67.4999979400635,10|10,2:2|2:1,0:0:0:0:
378,363,43165,6,0,P|327:322|248:338,1,134.999995880127,10|8,2:1|2:2,0:0:0:0:
203,258,43695,1,0,0:0:0:0:
203,258,43871,2,0,P|216:226|224:191,1,67.4999979400635,8|2,2:1|2:3,0:0:0:0:
138,127,44224,5,10,2:2:0:0:
138,127,44400,2,0,P|66:134|33:79,1,134.999995880127,2|2,2:2|2:3,0:0:0:0:
106,22,44930,1,8,2:2:0:0:
106,22,45106,2,0,P|149:11|182:-1,1,67.4999979400635,10|8,2:1|2:1,0:0:0:0:
235,85,45459,1,10,2:1:0:0:
235,85,45636,2,0,P|278:96|311:108,1,67.4999979400635,8|10,2:2|2:1,0:0:0:0:
321,211,45989,6,0,P|255:226|191:248,1,134.999995880127,12|10,2:1|2:2,0:0:0:0:
128,322,46518,1,2,2:2:0:0:
128,322,46695,2,0,P|156:346|197:346,1,67.4999979400635,10|10,2:1|2:1,0:0:0:0:
276,382,47048,1,10,2:2:0:0:
359,312,47224,6,0,P|392:268|482:274,1,134.999995880127,14|10,2:1|2:2,0:0:0:0:
500,172,47753,2,0,P|485:123|479:96,1,67.4999979400635,10|8,2:2|2:1,0:0:0:0:
409,45,48106,1,8,2:2:0:0:
409,45,48283,1,8,2:1:0:0:
312,78,48459,2,0,P|244:61|208:48,1,101.249996910095,8|8,2:1|2:1,0:0:0:0:
193,39,48812,6,0,B|130:54|157:86|94:103,1,120,14|2,2:1|2:2,0:0:0:0:
54,194,49342,1,10,2:1:0:0:
54,194,49518,2,0,P|97:206|122:275,1,120,10|2,2:2|2:3,0:0:0:0:
160,357,50048,5,10,2:1:0:0:
258,240,50400,1,10,2:1:0:0:
258,240,50577,2,0,P|266:196|276:170,1,60,10|0,2:1|0:0,0:0:0:0:
337,116,50930,2,0,B|400:131|373:163|436:180,1,120,10|2,2:2|2:2,0:0:0:0:
489,269,51459,1,10,2:1:0:0:
489,269,51548,1,8,2:1:0:0:
489,269,51636,6,0,P|436:286|363:320,1,120,14|2,2:1|2:3,0:0:0:0:
315,384,52165,1,10,2:1:0:0:
217,365,52342,1,10,2:2:0:0:
217,365,52518,1,10,2:2:0:0:
64,156,52871,6,0,P|24:190|26:262,1,120,14|10,2:1|2:2,0:0:0:0:
94,320,53400,2,0,P|142:303|178:296,1,60,10|0,2:1|0:0,0:0:0:0:
230,246,53753,2,0,P|278:263|314:270,1,60,10|8,2:2|2:1,0:0:0:0:
366,320,54106,2,0,P|372:333|376:347,3,30,10|8|8|8,2:2|2:2|2:2|2:2,0:0:0:0:
399,363,54459,6,0,P|466:339|456:285,1,134.999995880127,14|10,2:1|2:2,0:0:0:0:
402,210,54989,1,0,0:0:0:0:
402,210,55165,2,0,P|410:181|427:145,1,67.4999979400635,10|8,2:1|2:1,0:0:0:0:
508,94,55518,1,10,2:2:0:0:
364,0,55871,6,0,B|293:16|323:52|253:71,1,134.999995880127,14|10,2:1|2:2,0:0:0:0:
172,129,56400,1,8,2:1:0:0:
172,129,56489,1,8,2:2:0:0:
172,129,56577,2,0,P|145:108|131:78,1,67.4999979400635,10|8,2:2|2:1,0:0:0:0:
36,45,56930,2,0,P|31:78|11:105,1,67.4999979400635,10|8,2:2|2:1,0:0:0:0:
22,202,57283,6,0,P|76:185|135:268,1,150,14|10,2:1|2:2,0:0:0:0:
109,363,57812,2,0,P|200:333|286:319,1,150,14|10,2:1|2:1,0:0:0:0:
348,285,58342,1,10,2:2:0:0:
426,372,58518,6,0,P|450:279|483:199,1,150,10|10,2:2|2:2,0:0:0:0:
406,146,59048,1,10,2:2:0:0:
184,314,59930,1,2,2:2:0:0:
184,314,60106,6,0,B|133:329|99:294|113:283|78:234|24:250,1,179.999994506836,14|10,2:1|2:2,0:0:0:0:
94,157,60636,1,10,2:1:0:0:
94,157,60724,1,8,0:0:0:0:
94,157,60812,2,0,P|117:93|127:52,1,82.5000025177003,10|10,2:1|2:1,0:0:0:0:
206,32,61165,1,10,2:2:0:0:
287,127,61342,6,0,P|324:143|403:37,1,165.000005035401,10|8,2:1|2:1,0:0:0:0:
495,137,61871,1,10,2:2:0:0:
455,232,62048,1,10,2:1:0:0:
455,232,62136,1,8,2:2:0:0:
455,232,62224,2,0,P|432:296|422:337,1,82.5000025177003,10|8,2:1|2:1,0:0:0:0:
360,379,62577,2,0,P|326:352|278:358,1,82.5000025177003,10|0,2:2|0:0,0:0:0:0:
202,267,62930,6,0,P|190:188|258:147,1,165.000005035401,14|10,2:1|2:2,0:0:0:0:
294,52,63459,1,8,2:1:0:0:
294,52,63548,1,8,2:2:0:0:
294,52,63636,2,0,P|254:41|215:27,1,82.5000025177003,10|8,2:1|2:1,0:0:0:0:
131,74,63989,1,10,2:2:0:0:
58,6,64165,6,0,P|82:73|107:186,1,165.000005035401,8|8,2:1|2:1,0:0:0:0:
186,239,64695,2,0,P|168:286|150:367,1,123.75000377655,10|8,2:2|2:2,0:0:0:0:
121,370,65048,2,0,P|81:340|32:353,1,82.5000025177003,10|8,2:1|2:1,0:0:0:0:
8,254,65400,1,10,2:2:0:0:
235,137,65753,6,0,B|280:123|311:154|298:164|330:208|378:194,1,165.000005035401,14|10,2:1|2:2,0:0:0:0:
461,133,66283,1,10,2:1:0:0:
461,133,66371,1,8,2:2:0:0:
461,133,66459,2,0,P|471:89|487:45,1,82.5000025177003,10|10,2:1|2:1,0:0:0:0:
401,2,66812,1,10,2:2:0:0:
304,76,66989,6,0,P|330:153|348:234,1,165.000005035401,10|8,2:1|2:1,0:0:0:0:
298,332,67518,1,10,2:2:0:0:
396,374,67695,1,8,2:1:0:0:
396,374,67783,1,8,2:2:0:0:
396,373,67871,2,0,P|421:341|461:336,1,82.5000025177003,10|8,2:1|2:1,0:0:0:0:
506,245,68224,2,0,P|480:213|440:208,1,82.5000025177003,10|0,2:2|0:0,0:0:0:0:
327,250,68577,6,0,P|264:212|273:120,1,165.000005035401,14|10,2:1|2:2,0:0:0:0:
207,40,69106,1,8,2:1:0:0:
207,40,69195,1,8,2:2:0:0:
207,40,69283,2,0,P|167:29|129:13,1,82.5000025177003,10|8,2:1|2:1,0:0:0:0:
49,84,69636,1,10,2:2:0:0:
88,191,69812,6,0,P|164:159|244:141,1,165.000005035401,12|8,2:1|2:1,0:0:0:0:
324,216,70342,2,0,P|305:275|262:286,1,82.5000025177003,10|8,2:2|2:1,0:0:0:0:
229,373,70695,1,10,2:2:0:0:
229,373,70871,1,8,2:1:0:0:
122,330,71048,1,10,2:2:0:0:
94,316,71136,1,8,2:2:0:0:
65,305,71224,1,8,2:2:0:0:
35,297,71312,1,8,2:2:0:0:
4,292,71400,6,0,P|3:199|71:183,1,165.000005035401,14|10,2:1|2:2,0:0:0:0:
158,134,71930,1,10,2:1:0:0:
158,134,72018,1,8,2:2:0:0:
158,134,72106,2,0,P|173:95|184:56,1,82.5000025177003,10|10,2:1|2:1,0:0:0:0:
276,17,72459,1,10,2:2:0:0:
362,93,72636,6,0,P|376:174|400:252,1,165.000005035401,14|8,2:1|2:1,0:0:0:0:
349,349,73165,2,0,P|281:354|248:276,1,123.75000377655,10|8,2:2|2:2,0:0:0:0:
266,287,73518,2,0,P|278:247|285:207,1,82.5000025177003,10|8,2:1|2:1,0:0:0:0:
223,137,73871,1,10,2:2:0:0:
223,137,74048,1,2,2:2:0:0:
117,182,74224,6,0,P|60:154|76:53,1,165.000005035401,14|10,2:1|2:2,0:0:0:0:
153,10,74753,1,10,2:1:0:0:
153,10,74842,1,8,2:2:0:0:
153,10,74930,2,0,P|191:24|231:34,1,82.5000025177003,10|10,2:1|2:1,0:0:0:0:
319,76,75283,1,10,2:2:0:0:
268,180,75459,6,0,P|187:199|111:229,1,165.000005035401,14|8,2:1|2:1,0:0:0:0:
36,303,75989,2,0,P|62:333|104:337,1,82.5000025177003,10|8,2:2|0:0,0:0:0:0:
137,353,76253,1,8,2:2:0:0:
137,353,76342,2,0,P|163:322|205:319,1,82.5000025177003,10|8,2:2|2:1,0:0:0:0:
293,372,76695,1,10,2:1:0:0:
430,261,77048,6,0,P|404:172|385:78,1,165.000005035401,14|2,2:1|2:2,0:0:0:0:
320,30,77577,1,10,2:1:0:0:
225,65,77753,1,8,2:2:0:0:
225,65,77930,2,0,P|158:40|119:33,1,82.5000025177003,10|0,2:1|0:0,0:0:0:0:
66,102,78283,6,0,P|89:159|190:157,1,165.000005035401,14|8,2:1|2:1,0:0:0:0:
266,216,78812,2,0,P|243:278|232:326,1,82.5000025177003,10|0,2:2|0:0,0:0:0:0:
155,356,79165,2,0,P|143:316|127:278,1,82.5000025177003,10|8,2:2|2:1,0:0:0:0:
31,242,79518,1,10,2:2:0:0:
31,242,79606,1,8,2:2:0:0:
31,242,79695,1,8,2:2:0:0:
65,141,79871,5,10,2:2:0:0:
65,141,80048,1,10,2:2:0:0:
256,192,80400,5,10,2:2:0:0:
256,192,80577,1,8,2:2:0:0:
447,243,80930,5,8,2:2:0:0:
447,243,81107,1,10,2:2:0:0:
396,339,82695,6,0,P|359:346|323:358,2,75,14|0|10,2:1|0:0|2:2,0:0:0:0:
330,259,83224,1,10,2:1:0:0:
330,259,83312,1,8,2:1:0:0:
330,259,83400,2,0,P|294:247|257:239,1,75,10|10,2:1|2:1,0:0:0:0:
174,314,83753,5,10,2:2:0:0:
174,314,83930,2,0,P|155:241|131:170,1,150,10|10,2:1|2:1,0:0:0:0:
39,123,84459,2,0,P|36:64|102:32,1,112.5,10|8,2:2|2:2,0:0:0:0:
99,16,84812,2,0,P|154:34|168:65,1,75,10|10,2:1|2:1,0:0:0:0:
241,105,85165,2,0,P|296:87|310:56,1,75,10|10,2:2|2:1,0:0:0:0:
372,151,85518,6,0,P|387:196|403:230,2,75,14|0|10,2:1|0:0|2:2,0:0:0:0:
493,55,86048,1,10,2:1:0:0:
493,55,86136,1,8,2:2:0:0:
493,55,86224,2,0,P|477:88|466:124,1,75,10|10,2:1|2:1,0:0:0:0:
483,267,86577,5,10,2:2:0:0:
483,267,86753,2,0,P|463:320|377:330,1,150,10|10,2:1|2:1,0:0:0:0:
299,245,87283,2,0,P|235:223|180:217,1,112.5,10|8,2:2|2:2,0:0:0:0:
169,194,87636,2,0,P|134:206|96:211,1,75,10|10,2:1|2:1,0:0:0:0:
27,283,87989,2,0,P|68:320|96:313,1,75,10|10,2:2|2:1,0:0:0:0:
188,377,88342,6,0,P|200:335|217:289,2,75,14|0|10,2:1|0:0|2:2,0:0:0:0:
294,260,88871,1,10,2:1:0:0:
294,260,88959,1,8,2:1:0:0:
294,260,89048,2,0,P|284:224|271:189,1,75,10|10,2:1|2:1,0:0:0:0:
211,79,89400,5,14,2:2:0:0:
297,32,89577,2,0,P|367:57|440:75,1,150,10|10,2:1|2:1,0:0:0:0:
485,167,90106,2,0,P|450:205|385:192,1,112.5,10|8,2:2|2:2,0:0:0:0:
376,173,90459,2,0,P|367:136|353:101,1,75,10|10,2:1|2:1,0:0:0:0:
278,12,90812,6,0,P|222:2|177:99,1,150,10|8,2:2|2:1,0:0:0:0:
132,161,91342,5,14,2:2:0:0:
132,161,91518,2,0,P|97:147|61:137,1,75,0|10,0:0|2:1,0:0:0:0:
201,245,91871,5,14,2:2:0:0:
201,245,92047,2,0,P|164:254|130:269,1,75,0|10,0:0|2:1,0:0:0:0:
103,362,92400,6,0,B|219:424|282:314|261:301|333:189|451:255,1,404.999987640381,14|10,2:1|2:1,0:0:0:0:
390,329,102283,5,10,2:1:0:0:
390,329,102371,1,8,2:1:0:0:
389,329,102459,2,0,P|331:341|275:364,1,120,12|10,2:2|2:2,0:0:0:0:
218,284,102989,1,10,2:2:0:0:
218,284,103165,2,0,P|188:277|160:266,1,60,8|10,2:2|2:2,0:0:0:0:
73,308,103518,1,8,2:2:0:0:
14,214,103695,6,0,P|27:164|145:157,1,180,10|0,2:1|0:0,0:0:0:0:
233,118,104400,1,10,2:2:0:0:
233,118,104489,1,8,2:2:0:0:
233,118,104577,2,0,P|242:89|253:61,1,60,8|10,2:2|2:1,0:0:0:0:
308,171,104930,2,0,P|312:185|318:199,3,30,8|8|4|8,2:2|2:3|2:3|2:3,0:0:0:0:
340,214,105283,6,0,P|392:228|407:252,1,67.4999979400635,14|2,2:1|2:2,0:0:0:0:
487,192,105636,2,0,P|505:242|494:268,1,67.4999979400635,10|2,2:2|2:2,0:0:0:0:
445,336,105989,1,10,2:1:0:0:
445,336,106165,2,0,P|412:344|381:358,1,67.4999979400635,2|8,2:2|2:2,0:0:0:0:
293,292,106518,6,0,P|227:274|166:246,1,134.999995880127,2|2,2:2|2:2,0:0:0:0:
77,284,107048,2,0,P|62:239|57:197,1,67.4999979400635,10|10,2:2|2:1,0:0:0:0:
6,136,107401,1,10,2:1:0:0:
6,136,107577,2,0,P|18:105|24:71,1,67.4999979400635,10|8,2:1|2:2,0:0:0:0:
116,13,107930,6,0,P|201:17|221:84,1,134.999995880127,2|2,2:2|2:2,0:0:0:0:
309,100,108459,2,0,P|347:75|377:74,1,67.4999979400635,10|10,2:2|2:2,0:0:0:0:
450,134,108812,1,10,2:1:0:0:
449,134,108989,2,0,P|437:165|430:198,1,67.4999979400635,2|8,2:2|2:2,0:0:0:0:
339,260,109342,6,0,P|323:194|299:131,2,134.999995880127,2|2|10,2:2|2:2|2:1,0:0:0:0:
233,245,110224,1,8,2:1:0:0:
233,245,110400,2,0,P|184:223|159:231,1,67.4999979400635,10|10,2:1|2:2,0:0:0:0:
107,307,110753,1,10,2:1:0:0:
107,307,110930,6,0,P|173:324|250:352,1,134.999995880127,10|8,2:1|2:2,0:0:0:0:
322,291,111460,1,10,2:3:0:0:
322,291,111636,2,0,P|355:282|393:268,1,67.4999979400635,8|2,2:1|2:3,0:0:0:0:
464,357,111989,5,10,2:2:0:0:
464,357,112165,2,0,P|485:312|516:215,1,134.999995880127,2|2,2:2|2:3,0:0:0:0:
459,143,112695,1,8,2:2:0:0:
459,143,112871,2,0,P|445:112|434:80,1,67.4999979400635,10|8,2:1|2:1,0:0:0:0:
345,30,113224,1,10,2:1:0:0:
345,30,113400,2,0,P|297:61|277:57,1,67.4999979400635,8|10,2:2|2:1,0:0:0:0:
204,142,113753,6,0,P|164:96|89:113,1,134.999995880127,12|10,2:1|2:2,0:0:0:0:
62,199,114283,1,10,2:2:0:0:
62,199,114459,2,0,P|74:230|83:272,1,67.4999979400635,10|10,2:1|2:1,0:0:0:0:
146,349,114813,1,10,2:2:0:0:
259,293,114989,6,0,P|273:227|298:164,1,134.999995880127,14|10,2:1|2:2,0:0:0:0:
391,124,115518,2,0,P|433:143|474:153,1,67.4999979400635,10|8,2:2|2:1,0:0:0:0:
508,237,115871,1,8,2:2:0:0:
508,237,116048,1,8,2:1:0:0:
435,304,116224,2,0,P|384:320|337:343,1,101.249996910095,8|8,2:1|2:1,0:0:0:0:
322,356,116577,6,0,B|259:341|286:309|223:292,1,120,14|2,2:1|2:2,0:0:0:0:
185,204,117106,1,10,2:1:0:0:
185,204,117283,2,0,B|122:219|149:251|86:268,1,120,10|2,2:2|2:3,0:0:0:0:
38,348,117812,5,10,2:1:0:0:
9,181,118166,1,10,2:1:0:0:
9,181,118342,2,0,P|27:122|38:99,1,60,10|0,2:1|0:0,0:0:0:0:
101,61,118695,2,0,P|132:100|215:92,1,120,10|2,2:2|2:2,0:0:0:0:
278,40,119224,1,10,2:1:0:0:
278,40,119312,1,8,2:1:0:0:
278,40,119400,6,0,P|292:98|313:154,1,120,14|2,2:1|2:3,0:0:0:0:
390,217,119930,1,10,2:1:0:0:
484,188,120106,1,10,2:2:0:0:
484,188,120283,1,10,2:2:0:0:
405,351,120636,6,0,P|372:316|293:315,1,120,14|10,2:1|2:2,0:0:0:0:
237,379,121165,2,0,P|209:347|210:317,1,60,10|0,2:1|0:0,0:0:0:0:
132,271,121518,2,0,P|142:229|167:213,1,60,10|8,2:2|2:1,0:0:0:0:
228,159,121871,2,0,P|242:164|256:167,3,30,10|8|8|8,2:2|2:2|2:2|2:2,0:0:0:0:
282,175,122224,6,0,B|354:157|323:121|392:102,1,134.999995880127,14|10,2:1|2:2,0:0:0:0:
488,140,122753,1,0,0:0:0:0:
488,140,122930,2,0,P|493:173|502:205,1,67.4999979400635,10|8,2:1|2:1,0:0:0:0:
437,278,123283,1,10,2:2:0:0:
301,186,123636,6,0,P|244:178|190:255,1,134.999995880127,14|10,2:1|2:2,0:0:0:0:
108,277,124165,1,8,2:1:0:0:
108,277,124254,1,8,2:2:0:0:
108,277,124342,2,0,P|78:248|74:216,1,67.4999979400635,10|8,2:2|2:1,0:0:0:0:
4,154,124695,2,0,P|13:121|38:100,1,67.4999979400635,10|8,2:2|2:1,0:0:0:0:
127,46,125048,6,0,P|211:71|290:84,1,150,14|10,2:1|2:2,0:0:0:0:
208,197,125577,2,0,P|292:172|371:159,1,150,14|10,2:1|2:1,0:0:0:0:
435,109,126106,1,10,2:2:0:0:
512,205,126283,6,0,P|458:279|398:262,1,150,10|10,2:2|2:2,0:0:0:0:
344,341,126812,1,10,2:2:0:0:
195,217,127342,1,8,2:1:0:0:
112,267,127518,2,0,P|91:260|75:257,3,37.5,8|8|10|8,2:2|2:2|2:2|2:2,0:0:0:0:
55,235,127871,6,0,P|57:160|151:144,1,179.999994506836,14|10,2:1|2:2,0:0:0:0:
222,72,128400,1,10,2:1:0:0:
222,72,128489,1,8,0:0:0:0:
222,72,128577,2,0,P|276:81|292:119,1,82.5000025177003,10|10,2:1|2:1,0:0:0:0:
354,173,128930,1,10,2:2:0:0:
467,144,129106,6,0,P|439:221|424:302,1,165.000005035401,10|8,2:1|2:1,0:0:0:0:
331,346,129636,1,10,2:2:0:0:
270,272,129812,1,10,2:1:0:0:
270,272,129900,1,8,2:2:0:0:
270,272,129989,2,0,P|215:281|199:319,1,82.5000025177003,10|8,2:1|2:1,0:0:0:0:
129,227,130342,2,0,P|121:186|107:147,1,82.5000025177003,10|0,2:2|0:0,0:0:0:0:
34,58,130695,6,0,P|107:96|185:120,1,165.000005035401,14|10,2:1|2:2,0:0:0:0:
280,180,131224,1,8,2:1:0:0:
280,180,131312,1,8,2:2:0:0:
280,180,131400,2,0,P|316:161|356:148,1,82.5000025177003,10|8,2:1|2:1,0:0:0:0:
414,68,131753,1,10,2:2:0:0:
475,170,131930,6,0,P|411:262|365:252,1,165.000005035401,8|8,2:1|2:1,0:0:0:0:
297,323,132459,2,0,P|237:322|208:271,1,123.75000377655,10|8,2:2|2:2,0:0:0:0:
188,244,132812,2,0,P|208:192|217:149,1,82.5000025177003,10|8,2:1|2:1,0:0:0:0:
287,93,133165,1,10,2:2:0:0:
109,35,133518,6,0,P|38:26|3:120,1,165.000005035401,14|10,2:1|2:2,0:0:0:0:
54,189,134048,1,10,2:1:0:0:
54,189,134136,1,8,2:2:0:0:
54,189,134224,2,0,P|70:226|80:266,1,82.5000025177003,10|10,2:1|2:1,0:0:0:0:
125,348,134577,1,10,2:2:0:0:
235,301,134753,6,0,B|280:289|315:319|301:342|334:370|380:355,1,165.000005035401,10|8,2:1|2:1,0:0:0:0:
446,278,135283,1,10,2:2:0:0:
397,189,135459,1,8,2:1:0:0:
397,189,135548,1,8,2:2:0:0:
397,189,135636,2,0,P|342:210|301:219,1,82.5000025177003,10|8,2:1|2:1,0:0:0:0:
231,276,135989,2,0,P|176:255|135:246,1,82.5000025177003,10|0,2:2|0:0,0:0:0:0:
99,154,136342,6,0,P|139:85|217:98,1,165.000005035401,14|10,2:1|2:2,0:0:0:0:
276,12,136871,1,8,2:1:0:0:
276,12,136959,1,8,2:2:0:0:
276,12,137048,2,0,P|323:35|329:81,1,82.5000025177003,10|8,2:1|2:1,0:0:0:0:
403,133,137400,1,10,2:2:0:0:
313,208,137577,6,0,P|393:228|472:254,1,165.000005035401,12|8,2:1|2:1,0:0:0:0:
412,338,138106,2,0,P|371:347|332:360,1,82.5000025177003,10|8,2:2|2:1,0:0:0:0:
261,292,138459,1,10,2:2:0:0:
168,327,138636,1,8,2:2:0:0:
168,327,138724,1,8,2:2:0:0:
168,327,138812,2,0,P|156:286|152:274,3,41.2500012588501,10|8|8|8,2:2|2:2|2:2|2:2,0:0:0:0:
129,267,139165,6,0,P|79:270|55:168,1,165.000005035401,14|10,2:1|2:2,0:0:0:0:
125,112,139695,1,10,2:1:0:0:
125,112,139783,1,8,2:2:0:0:
125,112,139871,2,0,P|162:129|202:140,1,82.5000025177003,10|10,2:1|2:1,0:0:0:0:
285,195,140224,1,10,2:2:0:0:
327,95,140400,6,0,P|401:60|481:38,1,165.000005035401,14|8,2:1|2:1,0:0:0:0:
511,137,140930,2,0,P|455:231|442:277,1,123.75000377655,10|8,2:2|2:2,0:0:0:0:
459,276,141283,2,0,P|415:313|361:293,1,82.5000025177003,10|8,2:1|2:1,0:0:0:0:
313,375,141636,2,0,P|273:369|246:338,1,82.5000025177003,10|2,2:2|2:2,0:0:0:0:
174,253,141989,6,0,P|220:131|229:87,1,165.000005035401,14|10,2:1|2:2,0:0:0:0:
161,35,142518,1,10,2:1:0:0:
161,35,142606,1,8,2:2:0:0:
161,35,142695,2,0,P|121:40|94:71,1,82.5000025177003,10|10,2:1|2:1,0:0:0:0:
7,121,143048,1,10,2:2:0:0:
40,229,143224,6,0,P|114:247|223:293,1,165.000005035401,14|8,2:1|2:1,0:0:0:0:
276,342,143753,2,0,P|314:326|354:316,1,82.5000025177003,10|8,2:2|0:0,0:0:0:0:
391,321,144018,1,8,2:2:0:0:
391,320,144106,2,0,P|418:291|420:250,1,82.5000025177003,10|8,2:2|2:1,0:0:0:0:
349,180,144459,2,0,P|354:160|361:141,3,41.2500012588501,10|8|8|8,2:1|0:0|0:0|0:0,0:0:0:0:
382,115,144812,6,0,P|305:145|225:165,1,165.000005035401,14|2,2:1|2:2,0:0:0:0:
136,209,145342,1,10,2:1:0:0:
75,135,145518,1,8,2:2:0:0:
75,135,145695,2,0,P|111:96|144:94,1,82.5000025177003,10|0,2:1|0:0,0:0:0:0:
226,29,146048,6,0,P|291:23|325:115,1,165.000005035401,14|8,2:1|2:1,0:0:0:0:
413,161,146577,2,0,P|450:179|490:190,1,82.5000025177003,10|8,2:2|2:1,0:0:0:0:
440,278,146930,2,0,P|400:289|360:309,1,82.5000025177003,10|8,2:2|2:1,0:0:0:0:
298,383,147283,1,10,2:2:0:0:
298,383,147371,1,8,2:2:0:0:
298,383,147459,1,8,2:2:0:0:
196,345,147636,5,10,2:2:0:0:
196,345,147812,1,10,2:2:0:0:
256,192,148165,5,10,2:2:0:0:
256,192,148342,1,8,2:2:0:0:
316,39,148695,5,8,2:2:0:0:
316,39,148871,1,10,2:2:0:0:
145,197,149224,5,8,2:2:0:0:
239,177,149400,1,10,2:2:0:0:
333,157,149577,1,10,2:2:0:0:
468,325,150106,1,8,2:2:0:0:
449,316,150194,1,8,2:2:0:0:
429,309,150282,1,8,2:2:0:0:
410,302,150370,1,8,2:2:0:0:
390,297,150459,6,0,B|348:283|307:316|323:329|289:371|230:353,1,165.000005035401,14|10,2:1|2:2,0:0:0:0:
170,295,150989,1,8,2:1:0:0:
170,295,151077,1,8,2:1:0:0:
170,295,151165,2,0,P|187:244|195:198,1,82.5000025177003,10|8,2:1|2:1,0:0:0:0:
156,122,151518,1,10,2:2:0:0:
254,81,151695,1,10,2:1:0:0:
254,81,151783,1,10,2:2:0:0:
254,81,151871,6,0,P|294:114|294:171,1,82.5000025177003,2|10,2:2|2:1,0:0:0:0:
399,182,152224,1,10,2:2:0:0:
399,182,152400,2,0,P|465:180|467:76,1,165.000005035401,10|10,2:1|2:1,0:0:0:0:
419,8,152930,2,0,P|380:22|340:32,1,82.5000025177003,10|0,2:2|0:0,0:0:0:0:
235,88,153283,6,0,P|196:74|156:64,1,82.5000025177003,14|2,2:1|2:2,0:0:0:0:
66,23,153636,1,10,2:2:0:0:
18,112,153812,1,10,2:1:0:0:
18,112,153900,1,8,2:2:0:0:
18,112,153989,2,0,P|34:163|45:219,1,82.5000025177003,10|10,2:1|2:1,0:0:0:0:
100,268,154342,1,10,2:2:0:0:
202,218,154518,6,0,B|256:206|279:246|272:258|304:294|359:280,1,165.000005035401,10|10,2:1|2:1,0:0:0:0:
404,200,155048,1,10,2:2:0:0:
508,234,155224,1,10,2:1:0:0:
508,234,155312,1,8,2:2:0:0:
508,234,155400,2,0,P|492:285|481:341,1,82.5000025177003,10|10,2:1|2:2,0:0:0:0:
408,367,155753,1,10,2:1:0:0:
408,367,155930,1,10,2:2:0:0:
329,280,156106,6,0,P|310:284|289:291,2,41.2500012588501,14|2|2,2:1|2:2|2:2,0:0:0:0:
306,197,156459,2,0,P|286:204|266:208,2,41.2500012588501,10|2|10,2:2|2:2|2:1,0:0:0:0:
201,146,156812,6,0,P|181:138|161:133,2,41.2500012588501,10|2|0,2:1|2:2|0:0,0:0:0:0:
279,76,157165,1,10,2:2:0:0:
278,75,157253,1,2,2:2:0:0:
278,75,157342,6,0,P|198:55|121:28,1,165.000005035401,14|10,2:1|2:1,0:0:0:0:
34,68,157871,2,0,P|47:94|73:111,2,41.2500012588501,10|2|10,2:2|2:2|2:1,0:0:0:0:
52,195,158224,2,0,P|81:193|108:178,2,41.2500012588501,10|2|10,2:1|2:2|2:1,0:0:0:0:
174,232,158577,2,0,P|185:204|182:174,2,41.2500012588501,10|2|2,2:2|2:2|2:2,0:0:0:0:
105,330,158930,6,0,P|194:345|208:378,1,123.75000377655,14|2,2:1|2:2,0:0:0:0:
237,377,159283,2,0,P|258:365|290:358,2,41.2500012588501,10|2|10,2:2|2:2|2:1,0:0:0:0:
305,272,159636,2,0,P|324:278|342:289,2,41.2500012588501,10|2|10,2:1|2:2|2:1,0:0:0:0:
439,315,159989,1,10,2:2:0:0:
439,315,160077,1,2,2:2:0:0:
439,315,160165,6,0,P|452:241|481:137,1,165.000005035401,14|10,2:1|2:1,0:0:0:0:
376,175,160695,2,0,P|382:155|385:135,2,41.2500012588501,10|2|10,2:2|2:2|2:1,0:0:0:0:
308,69,161048,6,0,P|302:49|299:29,2,41.2500012588501,10|2|10,2:1|2:2|2:1,0:0:0:0:
222,89,161400,2,0,P|219:69|213:49,2,41.2500012588501,10|2|2,2:2|2:2|2:2,0:0:0:0:
136,147,161753,5,10,2:1:0:0:
136,147,161930,2,0,P|80:114|40:126,2,82.5000025177003,14|10|10,2:2|2:1|2:1,0:0:0:0:
215,223,162459,2,0,P|255:218|285:191,2,82.5000025177003,14|10|10,2:2|2:1|2:1,0:0:0:0:
107,264,162989,6,0,P|100:340|187:376,1,165.000005035401,14|8,2:1|2:1,0:0:0:0:
247,313,163518,1,10,2:2:0:0:
348,344,163695,1,8,2:1:0:0:
348,344,163783,1,8,0:0:0:0:
348,344,163871,2,0,P|392:326|448:316,1,82.5000025177003,10|8,2:2|2:2,0:0:0:0:
505,244,164224,1,10,2:3:0:0:
505,244,164400,1,4,2:3:0:0:
442,156,164577,6,0,B|390:143|352:182|369:197|334:248|272:223,1,180,14|8,2:1|2:1,0:0:0:0:
212,183,165283,2,0,P|224:146|230:109,2,60,10|0|2,2:2|0:0|2:2,0:0:0:0:
164,262,165812,5,10,2:1:0:0:
95,136,166165,1,10,2:1:0:0:
95,136,166342,2,0,P|88:106|78:78,1,60,10|2,2:1|2:2,0:0:0:0:
13,17,166695,1,10,2:2:0:0:
13,17,166871,2,0,P|42:52|121:45,1,120,10|14,2:1|2:1,0:0:0:0:
216,92,167400,5,0,0:0:0:0:
216,92,167577,2,0,P|245:57|324:64,1,120,10|10,2:1|2:1,0:0:0:0:
384,123,168106,1,10,2:2:0:0:
384,123,168283,2,0,P|371:159|363:200,1,60,2|2,2:2|2:3,0:0:0:0:
280,211,168636,6,0,P|293:247|301:288,1,60,10|0,2:1|0:0,0:0:0:0:
389,294,168989,2,0,P|421:269|458:269,2,60,10|10|2,2:2|2:1|2:2,0:0:0:0:
359,383,169518,1,10,2:2:0:0:
359,383,169695,1,10,2:1:0:0:
215,304,170048,6,0,P|160:315|93:338,1,120,14|2,2:1|2:2,0:0:0:0:
37,268,170577,2,0,P|46:239|52:210,1,60,10|10,2:1|2:1,0:0:0:0:
137,171,170930,1,10,2:2:0:0:
137,171,171106,2,0,P|156:193|179:213,1,60,10|2,2:1|2:3,0:0:0:0:
280,183,171459,6,0,P|289:141|221:88,1,120,14|10,2:1|2:2,0:0:0:0:
302,18,171989,2,0,P|343:35|384:40,1,60,10|2,2:1|2:2,0:0:0:0:
439,95,172342,1,10,2:2:0:0:
439,95,172518,2,0,P|480:78|521:73,1,60,10|2,2:1|2:3,0:0:0:0:
500,172,172871,1,10,2:2:0:0:
500,172,172959,1,8,0:0:0:0:
500,172,173048,6,0,P|480:214|454:301,1,120,14|2,2:1|2:2,0:0:0:0:
378,327,173577,1,8,2:1:0:0:
378,327,173753,2,0,P|369:298|356:271,1,60,10|8,2:2|2:1,0:0:0:0:
272,239,174106,1,10,2:2:0:0:
199,107,174459,5,14,2:1:0:0:
199,107,174636,2,0,P|155:118|122:134,1,60,8|10,2:2|2:1,0:0:0:0:
72,183,174989,1,0,0:0:0:0:
115,274,175165,1,10,2:2:0:0:
115,274,175253,1,8,0:0:0:0:
115,274,175342,2,0,P|137:279|153:287,3,30,10|8|10|0,2:2|2:2|2:2|0:0,0:0:0:0:
170,299,175695,6,0,P|224:311|264:246,1,134.999995880127,14|10,2:1|2:1,0:0:0:0:
343,189,176224,1,10,2:2:0:0:
343,189,176400,2,0,P|325:136|318:94,1,67.4999979400635,10|2,2:1|2:3,0:0:0:0:
392,55,176753,1,10,2:1:0:0:
392,55,176930,1,10,2:2:0:0:
485,95,177106,6,0,P|461:158|445:223,1,134.999995880127,10|8,2:1|2:1,0:0:0:0:
496,308,177636,2,0,P|486:354|414:360,1,101.249996910095,10|8,2:2|2:2,0:0:0:0:
414,359,177989,2,0,P|389:336|356:329,1,67.4999979400635,10|10,2:1|2:1,0:0:0:0:
278,276,178342,1,10,2:2:0:0:
228,376,178518,6,0,B|147:362|190:321|92:306,1,134.999995880127,14|10,2:1|2:1,0:0:0:0:
61,233,179048,1,10,2:2:0:0:
61,233,179224,2,0,B|141:219|98:178|196:163,1,134.999995880127,10|10,2:1|2:1,0:0:0:0:
136,82,179753,1,10,2:2:0:0:
225,21,179930,6,0,P|288:24|314:90,1,134.999995880127,14|10,2:1|2:1,0:0:0:0:
400,136,180459,2,0,P|463:96|499:110,1,101.249996910095,10|8,2:2|2:2,0:0:0:0:
501,121,180812,2,0,P|488:152|479:184,1,67.4999979400635,10|8,2:1|2:1,0:0:0:0:
437,269,181165,1,10,2:2:0:0:
339,247,181342,1,8,2:2:0:0:
339,247,181430,1,8,2:2:0:0:
339,247,181518,6,0,P|273:261|209:282,1,134.999995880127,14|10,2:1|2:2,0:0:0:0:
157,361,182048,1,0,0:0:0:0:
71,318,182224,2,0,P|76:271|103:252,1,67.4999979400635,10|8,2:1|2:1,0:0:0:0:
169,198,182577,1,10,2:2:0:0:
169,198,182753,1,0,0:0:0:0:
140,89,182930,6,0,P|204:110|270:125,1,134.999995880127,14|10,2:1|2:2,0:0:0:0:
345,58,183459,1,8,2:1:0:0:
345,58,183548,1,8,2:2:0:0:
345,58,183636,2,0,P|390:29|418:36,1,67.4999979400635,10|8,2:1|2:1,0:0:0:0:
484,84,183989,1,10,2:2:0:0:
437,181,184165,1,8,0:0:0:0:
437,181,184253,1,8,0:0:0:0:
437,181,184342,6,0,P|409:270|396:345,1,150,14|10,2:1|2:2,0:0:0:0:
293,378,184871,2,0,P|232:354|242:258,1,150,10|10,2:1|2:1,0:0:0:0:
304,198,185400,1,8,2:2:0:0:
189,139,185577,6,0,P|127:163|39:185,1,150,10|10,2:2|2:2,0:0:0:0:
66,85,186106,1,10,2:2:0:0:
277,191,186459,6,0,P|292:167|290:145,3,30,8|8|8|8,2:2|2:2|2:2|2:2,0:0:0:0:
376,137,186812,2,0,P|370:121|358:108,3,33.7499989700318,8|8|8|8,2:2|2:2|2:2|2:2,0:0:0:0:
317,33,187165,5,8,2:2:0:0:
317,33,187253,1,8,2:2:0:0:
317,33,187342,2,0,P|298:28|281:21,1,37.5,8|8,2:2|2:2,0:0:0:0:
203,60,187518,2,0,B|136:64|168:101|83:111,1,112.5,8|0,2:2|0:0,0:0:0:0:
80,98,187871,5,8,2:2:0:0:
80,98,188048,1,8,2:2:0:0:
210,243,188577,6,0,P|264:254|380:290,1,150,14|0,2:1|0:0,0:0:0:0:
422,340,189106,5,14,2:1:0:0:
386,187,189459,5,14,2:1:0:0:
350,34,189812,6,0,B|305:20|261:38|241:77|257:91|241:127|190:143|146:118|146:118|187:115|208:69,1,300,14|10,2:1|2:1,0:0:0:0:
130,29,190695,5,10,2:2:0:0:
65,88,190871,1,8,2:2:0:0:
65,88,190959,1,8,2:2:0:0:
65,88,191048,2,0,P|54:125|51:151,3,37.5,10|8|4|8,2:2|2:3|2:3|2:3,0:0:0:0:
34,153,191400,6,0,P|125:147|163:227,1,179.999994506836,14|10,2:1|2:2,0:0:0:0:
248,287,191930,1,8,2:1:0:0:
248,287,192018,1,8,2:2:0:0:
248,287,192106,2,0,P|271:254|310:242,1,82.5000025177003,10|8,2:1|2:1,0:0:0:0:
393,188,192459,1,10,2:2:0:0:
479,272,192636,6,0,P|450:194|429:114,1,165.000005035401,8|8,2:1|2:1,0:0:0:0:
357,43,193165,2,0,P|274:55|264:95,1,123.75000377655,10|8,2:2|2:2,0:0:0:0:
240,107,193518,2,0,P|201:92|161:82,1,82.5000025177003,10|8,2:1|2:1,0:0:0:0:
91,10,193871,1,10,2:2:0:0:
34,243,194224,6,0,B|79:256|109:225|97:215|128:171|176:186,1,165.000005035401,14|10,2:1|2:2,0:0:0:0:
257,270,194753,1,10,2:1:0:0:
257,270,194842,1,8,2:2:0:0:
257,270,194930,2,0,P|239:321|233:361,1,82.5000025177003,10|10,2:1|2:1,0:0:0:0:
334,383,195283,1,10,2:2:0:0:
424,306,195459,6,0,P|439:262|351:214,1,165.000005035401,10|8,2:1|2:1,0:0:0:0:
308,116,195989,1,10,2:2:0:0:
395,55,196165,1,8,2:1:0:0:
395,55,196253,1,8,2:2:0:0:
395,55,196342,2,0,P|434:69|474:77,1,82.5000025177003,10|8,2:1|2:1,0:0:0:0:
440,178,196695,2,0,P|399:186|361:200,1,82.5000025177003,10|0,2:2|0:0,0:0:0:0:
246,261,197048,6,0,P|272:184|292:92,1,165.000005035401,14|10,2:1|2:2,0:0:0:0:
245,11,197577,1,8,2:1:0:0:
245,11,197665,1,8,2:2:0:0:
245,11,197753,2,0,P|192:19|174:58,1,82.5000025177003,10|8,2:1|2:1,0:0:0:0:
97,96,198106,1,10,2:2:0:0:
177,188,198283,6,0,P|203:265|223:357,1,165.000005035401,12|8,2:1|2:1,0:0:0:0:
320,375,198812,2,0,P|369:361|387:323,1,82.5000025177003,10|8,2:2|2:1,0:0:0:0:
445,253,199165,1,10,2:2:0:0:
445,253,199342,1,8,2:2:0:0:
354,190,199518,1,10,2:2:0:0:
324,199,199606,1,8,2:2:0:0:
294,194,199694,1,8,2:2:0:0:
271,174,199782,1,8,2:2:0:0:
260,144,199871,6,0,P|199:136|187:230,1,165.000005035401,14|10,2:1|2:2,0:0:0:0:
123,306,200400,1,10,2:1:0:0:
123,306,200489,1,8,2:2:0:0:
123,306,200577,2,0,P|68:285|21:275,1,82.5000025177003,10|10,2:1|2:1,0:0:0:0:
8,185,200930,1,10,2:2:0:0:
61,88,201106,6,0,P|140:65|216:34,1,165.000005035401,14|8,2:1|2:1,0:0:0:0:
278,128,201636,2,0,P|318:59|333:13,1,123.75000377655,10|8,2:2|2:2,0:0:0:0:
362,4,201989,2,0,P|420:23|429:62,1,82.5000025177003,10|8,2:1|2:1,0:0:0:0:
476,132,202342,2,0,P|418:151|409:190,1,82.5000025177003,10|2,2:2|2:2,0:0:0:0:
340,257,202695,6,0,P|241:258|228:187,1,165.000005035401,14|10,2:1|2:2,0:0:0:0:
139,166,203224,1,10,2:1:0:0:
139,166,203312,1,8,2:2:0:0:
139,166,203400,2,0,P|89:186|44:194,1,82.5000025177003,10|10,2:1|2:1,0:0:0:0:
13,272,203753,1,10,2:2:0:0:
93,354,203930,6,0,B|138:367|168:336|156:326|187:282|235:297,1,165.000005035401,14|8,2:1|2:1,0:0:0:0:
327,243,204459,2,0,P|378:234|413:321,1,123.75000377655,10|0,2:2|0:0,0:0:0:0:
452,294,204812,2,0,P|472:226|487:197,1,82.5000025177003,10|8,2:2|2:1,0:0:0:0:
503,195,205077,1,8,0:0:0:0:
503,195,205165,1,10,2:2:0:0:
437,112,205342,1,8,2:2:0:0:
437,112,205430,1,8,2:2:0:0:
437,112,205518,6,0,P|359:141|279:160,1,165.000005035401,14|10,2:1|2:2,0:0:0:0:
185,221,206048,1,10,2:1:0:0:
185,221,206136,1,8,0:0:0:0:
185,221,206224,2,0,P|146:206|106:196,1,82.5000025177003,10|10,2:1|2:1,0:0:0:0:
44,122,206577,1,10,2:2:0:0:
120,30,206753,6,0,P|198:18|224:113,1,165.000005035401,14|8,2:1|2:1,0:0:0:0:
296,175,207283,2,0,P|273:233|264:272,1,82.5000025177003,10|8,2:2|2:1,0:0:0:0:
292,282,207548,1,8,2:2:0:0:
292,282,207636,2,0,P|321:254|361:252,1,82.5000025177003,10|8,2:1|2:2,0:0:0:0:
436,321,207989,1,10,2:2:0:0:
205,374,208342,5,14,2:2:0:0:
205,374,208518,2,0,P|166:360|125:351,1,82.5000025177003,10|10,2:2|2:1,0:0:0:0:
50,267,208871,2,0,P|90:258|129:244,1,82.5000025177003,14|10,2:2|2:2,0:0:0:0:
204,163,209224,1,10,2:1:0:0:
204,163,209400,1,14,2:2:0:0:
166,45,209577,6,0,B|211:32|241:63|229:73|259:113|316:97,1,165.000005035401,10|8,2:2|2:1,0:0:0:0:
399,13,210106,1,10,2:2:0:0:
505,70,210283,1,10,2:1:0:0:
505,70,210371,1,8,2:1:0:0:
505,70,210459,1,10,2:2:0:0:
484,189,210636,1,8,2:2:0:0:
484,189,210724,1,8,2:2:0:0:
484,189,210812,2,0,P|479:209|470:233,3,41.2500012588501,10|8|8|8,2:2|2:2|2:2|2:2,0:0:0:0:
442,249,211165,6,0,B|374:219|318:272|345:293|287:369|206:331,1,269.999991760254,14|10,2:1|2:1,0:0:0:0:
107,289,211871,1,10,2:1:0:0:
135,182,212048,2,0,P|126:138|111:95,1,89.9999972534181,10|10,2:1|2:2,0:0:0:0:
208,24,212400,6,0,P|293:21|325:107,1,179.999994506836,10|8,2:1|2:1,0:0:0:0:
400,181,212930,2,0,P|431:150|492:158,1,89.9999972534181,10|10,2:2|2:1,0:0:0:0:
509,171,213195,1,8,2:2:0:0:
509,171,213283,2,0,P|490:223|481:276,1,89.9999972534181,10|8,2:1|2:1,0:0:0:0:
395,338,213636,2,0,P|364:307|303:315,1,89.9999972534181,10|0,2:2|0:0,0:0:0:0:
244,238,213989,6,0,P|170:231|127:312,1,165.000005035401,14|10,2:1|2:2,0:0:0:0:
36,251,214518,1,8,2:1:0:0:
36,251,214606,1,8,2:2:0:0:
36,251,214695,2,0,P|24:211|9:172,1,82.5000025177003,10|8,2:1|2:1,0:0:0:0:
84,105,215048,1,10,2:2:0:0:
18,18,215224,6,0,P|93:54|170:78,1,165.000005035401,8|8,2:1|2:1,0:0:0:0:
253,139,215753,2,0,P|310:112|368:93,1,123.75000377655,10|8,2:2|2:2,0:0:0:0:
393,72,216106,2,0,P|434:102|436:140,1,82.5000025177003,10|8,2:1|2:1,0:0:0:0:
364,202,216459,2,0,P|346:261|341:311,1,82.5000025177003,10|8,2:2|2:1,0:0:0:0:
439,352,216812,6,0,B|373:386|308:336|335:309|274:238|198:285,1,269.999991760254,14|2,2:1|2:1,0:0:0:0:
149,377,217518,1,10,2:1:0:0:
40,357,217695,2,0,P|13:325|13:278,1,89.9999972534181,10|10,2:1|2:2,0:0:0:0:
105,195,218048,6,0,P|131:105|148:14,1,179.999994506836,10|8,2:1|2:1,0:0:0:0:
259,1,218577,2,0,P|267:45|281:87,1,89.9999972534181,10|8,2:2|2:1,0:0:0:0:
316,111,218842,1,8,2:2:0:0:
316,111,218930,2,0,P|360:76|409:89,1,89.9999972534181,10|8,2:1|2:1,0:0:0:0:
472,152,219283,2,0,P|457:194|449:238,1,89.9999972534181,10|0,2:2|0:0,0:0:0:0:
365,316,219636,6,0,P|301:253|213:289,1,165.000005035401,14|10,2:1|2:2,0:0:0:0:
154,208,220165,1,8,2:1:0:0:
154,208,220253,1,8,2:2:0:0:
154,208,220342,2,0,P|152:165|193:130,1,82.5000025177003,10|8,2:1|2:1,0:0:0:0:
267,61,220694,1,14,2:2:0:0:
190,2,220871,6,0,P|135:24|20:55,1,165.000005035401,0|8,0:0|2:1,0:0:0:0:
5,150,221400,2,0,P|33:207|45:245,1,82.5000025177003,10|8,2:2|2:1,0:0:0:0:
86,317,221753,1,10,2:2:0:0:
196,289,221930,1,8,2:1:0:0:
196,289,222018,1,8,0:0:0:0:
196,289,222106,2,0,P|215:293|235:300,3,41.2500012588501,10|8|8|8,2:2|2:2|2:2|2:2,0:0:0:0:
260,322,222459,6,0,P|336:316|350:241,1,165.000005035401,14|10,2:1|2:2,0:0:0:0:
295,166,222989,1,10,2:1:0:0:
295,166,223077,1,8,2:2:0:0:
295,166,223165,2,0,P|245:149|233:111,1,82.5000025177003,10|10,2:1|2:1,0:0:0:0:
298,49,223518,1,10,2:2:0:0:
404,82,223694,6,0,P|425:161|460:246,1,165.000005035401,14|8,2:1|2:1,0:0:0:0:
512,325,224224,2,0,P|489:368|404:371,1,123.75000377655,10|8,2:2|2:2,0:0:0:0:
395,356,224577,2,0,P|351:319|297:339,1,82.5000025177003,10|8,2:1|2:1,0:0:0:0:
245,261,224930,2,0,P|205:266|178:297,1,82.5000025177003,10|2,2:2|2:2,0:0:0:0:
86,366,225283,6,0,P|64:286|33:209,1,165.000005035401,14|10,2:1|2:2,0:0:0:0:
93,125,225812,1,10,2:1:0:0:
93,125,225900,1,8,2:2:0:0:
93,125,225989,2,0,P|156:146|197:151,1,82.5000025177003,10|10,2:1|2:1,0:0:0:0:
214,238,226342,1,10,2:2:0:0:
323,201,226518,6,0,B|365:187|400:220|391:227|425:267|482:241,1,165.000005035401,14|8,2:1|2:1,0:0:0:0:
487,144,227048,2,0,P|468:95|456:53,1,82.5000025177003,10|8,2:2|0:0,0:0:0:0:
440,46,227312,1,8,2:2:0:0:
440,46,227400,2,0,P|384:56|363:87,1,82.5000025177003,10|8,2:2|2:1,0:0:0:0:
270,107,227753,2,0,P|250:102|227:98,3,41.2500012588501,10|8|8|8,2:1|0:0|0:0|0:0,0:0:0:0:
202,79,228106,6,0,P|231:155|256:246,1,165.000005035401,14|2,2:1|2:2,0:0:0:0:
312,322,228636,1,10,2:1:0:0:
225,371,228812,1,8,2:2:0:0:
225,371,228989,2,0,P|143:350|109:350,1,82.5000025177003,10|0,2:1|0:0,0:0:0:0:
48,293,229342,6,0,P|49:249|159:229,1,165.000005035401,14|8,2:1|2:1,0:0:0:0:
250,254,229871,2,0,P|280:228|282:188,1,82.5000025177003,10|0,2:2|0:0,0:0:0:0:
230,103,230224,2,0,P|189:96|150:82,1,82.5000025177003,10|8,2:2|2:1,0:0:0:0:
78,27,230577,1,10,2:2:0:0:
78,27,230665,1,8,2:2:0:0:
78,27,230753,1,8,2:2:0:0:
25,123,230930,5,10,2:2:0:0:
25,123,231106,1,10,2:2:0:0:
256,192,231459,5,10,2:2:0:0:
256,192,231636,1,8,2:2:0:0:
487,261,231989,5,8,2:2:0:0:
487,261,232165,1,10,2:2:0:0:
423,194,233753,6,0,P|409:158|399:121,2,75,14|0|10,2:1|0:0|2:2,0:0:0:0:
285,156,234282,1,10,2:1:0:0:
285,156,234371,1,8,2:1:0:0:
285,156,234459,2,0,P|299:120|309:83,1,75,10|10,2:1|2:1,0:0:0:0:
371,9,234812,5,10,2:2:0:0:
371,9,234989,2,0,P|325:31|211:60,1,150,10|10,2:1|2:1,0:0:0:0:
144,21,235518,2,0,P|79:29|58:93,1,112.5,10|8,2:2|2:2,0:0:0:0:
41,91,235871,2,0,P|51:130|104:146,1,75,10|10,2:1|2:1,0:0:0:0:
155,226,236224,2,0,P|165:187|218:171,1,75,10|10,2:2|2:1,0:0:0:0:
297,129,236577,6,0,P|333:140|370:145,2,75,14|0|10,2:1|0:0|2:2,0:0:0:0:
409,234,237106,1,10,2:1:0:0:
409,234,237194,1,8,2:2:0:0:
409,234,237283,2,0,P|371:239|335:250,1,75,10|10,2:1|2:1,0:0:0:0:
275,345,237636,5,10,2:2:0:0:
275,345,237812,2,0,B|237:362|201:334|211:324|176:289|125:314,1,150,10|10,2:1|2:1,0:0:0:0:
63,243,238341,2,0,P|85:200|153:199,1,112.5,10|8,2:2|2:2,0:0:0:0:
170,178,238694,2,0,P|213:190|231:229,1,75,10|10,2:1|2:1,0:0:0:0:
315,263,239048,2,0,P|329:212|344:174,1,75,10|10,2:2|2:1,0:0:0:0:
335,75,239400,6,0,P|286:94|248:102,2,75,14|0|10,2:1|0:0|2:2,0:0:0:0:
408,7,239930,1,10,2:1:0:0:
408,7,240018,1,8,2:1:0:0:
408,7,240106,2,0,P|440:46|431:83,1,75,10|10,2:1|2:1,0:0:0:0:
511,141,240459,5,14,2:2:0:0:
462,222,240636,2,0,P|377:189|311:175,1,150,10|10,2:1|2:1,0:0:0:0:
245,125,241165,2,0,P|199:167|214:223,1,112.5,10|8,2:2|2:2,0:0:0:0:
232,225,241518,2,0,P|252:265|265:315,1,75,10|10,2:1|2:1,0:0:0:0:
182,349,241871,2,0,P|101:325|113:260,1,150,10|8,2:2|2:1,0:0:0:0:
74,178,242400,6,0,P|33:194|-5:203,2,75,14|8|10,2:2|2:1|2:1,0:0:0:0:
144,101,242930,2,0,P|108:92|73:78,2,75,14|8|10,2:2|2:2|2:2,0:0:0:0:
17,7,243459,1,14,2:1:0:0:
256,192,243548,12,0,250695,0:0:0:0:
