osu file format v14

[General]
AudioFilename: audio.mp3
AudioLeadIn: 0
PreviewTime: 188348
Countdown: 0
SampleSet: Soft
StackLeniency: 0.7
Mode: 0
LetterboxInBreaks: 0
WidescreenStoryboard: 1

[Editor]
Bookmarks: 82731,188613,250731
DistanceSpacing: 1
BeatDivisor: 4
GridSize: 32
TimelineZoom: 2.400001

[Metadata]
Title:CHASE!
TitleUnicode:CHASE!
Artist:Yuki Setsuna (CV: Kusunoki Tomori)
ArtistUnicode:優木せつ菜 (CV: 楠木ともり)
Creator:Liyuu
Version:BIG SIS WEN'S EXPERT!
Source:ラブライブ!虹ヶ咲学園スクールアイドル同好会
Tags:-rielle- aquivery pile asagi ayamemymommy big sis shiwakaze kyairie red crewmate vaporfly newton- ifinixe wen wendle anime video game japanese rock love live! nijigasaki high school idol club gakuen doukoukai doukou kai nijigaku ニジガク 鈴木エレカ・JOE pop jpop jrock
BeatmapID:3740270
BeatmapSetID:1822739

[Difficulty]
HPDrainRate:5
CircleSize:4
OverallDifficulty:8.3
ApproachRate:9
SliderMultiplier:1.8
SliderTickRate:1

[Events]
//Background and Video events
0,0,"bgg.jpg",0,0
//Break Periods
2,94188,101683
//Storyboard Layer 0 (Background)
//Storyboard Layer 1 (Fail)
//Storyboard Layer 2 (Pass)
//Storyboard Layer 3 (Foreground)
//Storyboard Layer 4 (Overlay)
//Storyboard Sound Samples

[TimingPoints]
-599,352.941176470588,4,2,0,100,1,0
105,-100,4,2,0,100,0,0
634,-100,4,2,1,50,0,0
810,-142.857142857143,4,2,2,50,0,0
1163,-142.857142857143,4,2,3,50,0,0
1340,-142.857142857143,4,2,4,50,0,0
1693,-142.857142857143,4,2,5,50,0,0
2046,-142.857142857143,4,2,6,50,0,0
2575,-142.857142857143,4,2,7,50,0,0
2751,-142.857142857143,4,2,1,50,0,0
2928,-142.857142857143,4,2,5,50,0,0
3281,-142.857142857143,4,2,8,50,0,0
3634,-142.857142857143,4,2,9,50,0,0
3987,-142.857142857143,4,2,8,50,0,0
4163,-142.857142857143,4,2,7,50,0,0
4340,-142.857142857143,4,2,1,50,0,0
4516,-142.857142857143,4,2,10,50,0,0
4693,-142.857142857143,4,2,1,50,0,0
4869,-142.857142857143,4,2,11,50,0,0
5398,-142.857142857143,4,2,12,50,0,0
5751,-142.857142857143,4,2,4,50,0,0
6104,-142.857142857143,4,2,7,50,0,0
6457,-142.857142857143,4,2,13,50,0,0
6810,-142.857142857143,4,2,3,50,0,0
6987,-142.857142857143,4,2,4,50,0,0
7340,-142.857142857143,4,2,5,50,0,0
7693,-142.857142857143,4,2,14,50,0,0
8222,-142.857142857143,4,2,7,50,0,0
8575,-142.857142857143,4,2,5,50,0,0
8928,-142.857142857143,4,2,8,50,0,0
9281,-142.857142857143,4,2,15,50,0,0
9634,-142.857142857143,4,2,1,50,0,0
10340,-250.000000000001,4,2,16,50,0,0
11046,-250.000000000001,4,2,1,50,0,0
14928,-100,4,2,1,65,0,0
15104,-100,4,2,17,65,0,0
15281,-100,4,2,18,65,0,0
15457,-100,4,2,2,65,0,0
15634,-100,4,2,3,65,0,0
15810,-100,4,2,2,65,0,0
15987,-100,4,2,19,65,0,0
16163,-100,4,2,4,65,0,0
16340,-100,4,2,2,65,0,0
16516,-100,4,2,5,65,0,0
16693,-100,4,2,20,65,0,0
16869,-100,4,2,5,65,0,0
16957,-100,4,2,1,65,0,0
17046,-100,4,2,6,65,0,0
17222,-100,4,2,5,65,0,0
17398,-100,4,2,20,65,0,0
17575,-100,4,2,5,65,0,0
17751,-100,4,2,7,65,0,0
17928,-100,4,2,17,65,0,0
18104,-100,4,2,18,65,0,0
18281,-100,4,2,2,65,0,0
18369,-100,4,2,1,65,0,0
18457,-100,4,2,3,65,0,0
18634,-100,4,2,2,65,0,0
18810,-100,4,2,19,65,0,0
18987,-100,4,2,4,65,0,0
19163,-100,4,2,2,65,0,0
19340,-100,4,2,8,65,0,0
19516,-100,4,2,21,65,0,0
19693,-100,4,2,8,65,0,0
19781,-100,4,2,1,65,0,0
19869,-100,4,2,9,65,0,0
20046,-100,4,2,8,65,0,0
20222,-100,4,2,21,65,0,0
20398,-100,4,2,8,65,0,0
20575,-100,4,2,7,65,0,0
20751,-100,4,2,17,65,0,0
20928,-100,4,2,18,65,0,0
21104,-100,4,2,2,65,0,0
21281,-100,4,2,3,65,0,0
21457,-100,4,2,2,65,0,0
21634,-100,4,2,19,65,0,0
21810,-100,4,2,4,65,0,0
21987,-100,4,2,2,65,0,0
22163,-100,4,2,5,65,0,0
22340,-100,4,2,20,65,0,0
22516,-100,4,2,5,65,0,0
22604,-100,4,2,1,65,0,0
22693,-100,4,2,6,65,0,0
22869,-100,4,2,5,65,0,0
23046,-100,4,2,20,65,0,0
23222,-100,4,2,5,65,0,0
23575,-100,4,2,22,65,0,0
23928,-100,4,2,5,65,0,0
24104,-100,4,2,22,65,0,0
24457,-100,4,2,10,65,0,0
24634,-125,4,2,11,65,0,0
24986,-125,4,2,23,65,0,0
26222,-142.857142857143,4,2,12,50,0,0
26575,-142.857142857143,4,2,3,50,0,0
27281,-142.857142857143,4,2,24,50,0,0
27457,-142.857142857143,4,2,1,50,0,0
27634,-142.857142857143,4,2,13,50,0,0
27987,-142.857142857143,4,2,3,50,0,0
28516,-142.857142857143,4,2,1,50,0,0
28693,-142.857142857143,4,2,24,50,0,0
28869,-142.857142857143,4,2,1,50,0,0
29046,-142.857142857143,4,2,13,50,0,0
29222,-142.857142857143,4,2,1,50,0,0
29398,-142.857142857143,4,2,24,50,0,0
29575,-142.857142857143,4,2,1,50,0,0
29751,-142.857142857143,4,2,3,50,0,0
29928,-142.857142857143,4,2,1,50,0,0
30104,-142.857142857143,4,2,3,50,0,0
30281,-142.857142857143,4,2,1,50,0,0
30457,-142.857142857143,4,2,13,50,0,0
30634,-142.857142857143,4,2,1,50,0,0
30810,-142.857142857143,4,2,3,50,0,0
30987,-142.857142857143,4,2,1,50,0,0
31163,-142.857142857143,4,2,3,50,0,0
31340,-142.857142857143,4,2,1,50,0,0
31516,-142.857142857143,4,2,24,50,0,0
31693,-142.857142857143,4,2,1,50,0,0
31869,-142.857142857143,4,2,14,50,0,0
32222,-142.857142857143,4,2,3,50,0,0
32928,-142.857142857143,4,2,24,50,0,0
33104,-142.857142857143,4,2,1,50,0,0
33281,-142.857142857143,4,2,13,50,0,0
33634,-142.857142857143,4,2,3,50,0,0
34163,-142.857142857143,4,2,1,50,0,0
34340,-142.857142857143,4,2,24,50,0,0
34516,-142.857142857143,4,2,1,50,0,0
34693,-142.857142857143,4,2,13,50,0,0
34869,-142.857142857143,4,2,1,50,0,0
35046,-142.857142857143,4,2,24,50,0,0
35222,-142.857142857143,4,2,1,50,0,0
35398,-142.857142857143,4,2,3,50,0,0
35575,-142.857142857143,4,2,1,50,0,0
35751,-142.857142857143,4,2,3,50,0,0
35928,-142.857142857143,4,2,12,50,0,0
36281,-142.857142857143,4,2,1,50,0,0
36634,-142.857142857143,4,2,1,50,0,0
36987,-142.857142857143,4,2,12,50,0,0
37163,-142.857142857143,4,2,1,50,0,0
37428,-142.857142857143,4,2,2,50,0,0
37516,-125,4,2,12,60,0,0
37693,-125,4,2,25,60,0,0
37869,-125,4,2,1,60,0,0
38046,-125,4,2,25,60,0,0
38222,-125,4,2,12,60,0,0
38398,-125,4,2,25,60,0,0
38575,-125,4,2,25,60,0,0
38751,-125,4,2,25,60,0,0
38928,-125,4,2,1,60,0,0
39104,-125,4,2,25,60,0,0
39281,-125,4,2,1,60,0,0
39457,-125,4,2,15,60,0,0
39546,-125,4,2,1,60,0,0
39634,-125,4,2,12,60,0,0
39810,-125,4,2,15,60,0,0
39987,-125,4,2,25,60,0,0
40163,-125,4,2,25,60,0,0
40340,-125,4,2,1,60,0,0
40516,-125,4,2,25,60,0,0
40693,-125,4,2,1,60,0,0
40869,-125,4,2,25,60,0,0
41046,-125,4,2,12,60,0,0
41222,-125,4,2,25,60,0,0
41398,-125,4,2,25,60,0,0
41575,-125,4,2,25,60,0,0
41751,-125,4,2,1,60,0,0
41928,-125,4,2,25,60,0,0
42104,-125,4,2,25,60,0,0
42281,-125,4,2,15,60,0,0
42369,-125,4,2,1,60,0,0
42634,-125,4,2,15,60,0,0
42810,-125,4,2,1,60,0,0
42987,-125,4,2,15,60,0,0
43163,-125,4,2,12,60,0,0
43340,-125,4,2,1,60,0,0
44398,-125,4,2,25,60,0,0
44575,-125,4,2,1,60,0,0
45104,-125,4,2,16,60,0,0
45193,-125,4,2,1,60,0,0
45457,-125,4,2,15,60,0,0
45634,-125,4,2,1,60,0,0
45810,-125,4,2,12,60,0,0
45987,-125,4,2,12,60,0,0
46163,-125,4,2,1,60,0,0
46340,-125,4,2,25,60,0,0
46516,-125,4,2,1,60,0,0
46693,-125,4,2,16,60,0,0
46869,-125,4,2,12,60,0,0
47046,-125,4,2,26,60,0,0
47222,-111.111111111111,4,2,12,60,0,0
47575,-111.111111111111,4,2,1,60,0,0
48810,-142.857142857143,4,2,14,55,0,0
49163,-142.857142857143,4,2,24,55,0,0
49340,-142.857142857143,4,2,12,55,0,0
49516,-142.857142857143,4,2,27,55,0,0
49693,-142.857142857143,4,2,1,55,0,0
49869,-142.857142857143,4,2,3,55,0,0
50046,-142.857142857143,4,2,12,55,0,0
50222,-142.857142857143,4,2,3,55,0,0
50398,-142.857142857143,4,2,12,55,0,0
50575,-142.857142857143,4,2,14,55,0,0
50928,-142.857142857143,4,2,28,55,0,0
51104,-142.857142857143,4,2,24,55,0,0
51457,-142.857142857143,4,2,12,55,0,0
51634,-142.857142857143,4,2,13,55,0,0
51810,-142.857142857143,4,2,1,55,0,0
51987,-142.857142857143,4,2,3,55,0,0
52163,-142.857142857143,4,2,12,55,0,0
52340,-142.857142857143,4,2,27,55,0,0
52516,-142.857142857143,4,2,1,55,0,0
52693,-142.857142857143,4,2,13,55,0,0
52869,-142.857142857143,4,2,12,55,0,0
53222,-142.857142857143,4,2,1,55,0,0
53398,-142.857142857143,4,2,14,55,0,0
53751,-142.857142857143,4,2,28,55,0,0
53928,-142.857142857143,4,2,1,55,0,0
54457,-111.111111111111,4,2,12,55,0,0
54810,-111.111111111111,4,2,24,55,0,0
55163,-111.111111111111,4,2,14,55,0,0
55516,-111.111111111111,4,2,24,55,0,0
55869,-111.111111111111,4,2,12,55,0,0
56222,-111.111111111111,4,2,27,55,0,0
56398,-111.111111111111,4,2,24,55,0,0
56575,-111.111111111111,4,2,24,55,0,0
56928,-111.111111111111,4,2,24,55,0,0
57104,-111.111111111111,4,2,24,55,0,0
57281,-111.111111111111,4,2,12,55,0,0
57634,-111.111111111111,4,2,1,55,0,0
57810,-111.111111111111,4,2,12,55,0,0
58163,-111.111111111111,4,2,12,55,0,0
58340,-111.111111111111,4,2,27,55,0,0
58516,-111.111111111111,4,2,29,55,0,0
58869,-111.111111111111,4,2,1,55,0,0
60104,-90.9090909090908,4,2,17,70,0,0
60457,-90.9090909090908,4,2,30,70,0,0
60634,-90.9090909090908,4,2,12,70,0,0
60722,-90.9090909090908,4,2,18,70,0,0
60987,-90.9090909090908,4,2,12,70,0,0
61163,-90.9090909090908,4,2,31,70,0,0
61340,-90.9090909090908,4,2,12,70,0,0
61516,-90.9090909090908,4,2,4,70,0,0
61693,-90.9090909090908,4,2,4,70,0,0
61869,-90.9090909090908,4,2,31,70,0,0
62046,-90.9090909090908,4,2,12,70,0,0
62134,-90.9090909090908,4,2,19,70,0,0
62398,-90.9090909090908,4,2,19,70,0,0
62575,-90.9090909090908,4,2,30,70,0,0
62928,-90.9090909090908,4,2,19,70,0,0
63281,-90.9090909090908,4,2,30,70,0,0
63457,-90.9090909090908,4,2,19,70,0,0
63634,-90.9090909090908,4,2,19,70,0,0
63810,-90.9090909090908,4,2,19,70,0,0
63987,-90.9090909090908,4,2,30,70,0,0
64163,-90.9090909090908,4,2,4,70,0,0
64340,-90.9090909090908,4,2,4,70,0,0
64516,-90.9090909090908,4,2,4,70,0,0
64693,-90.9090909090908,4,2,30,70,0,0
64869,-90.9090909090908,4,2,19,70,0,0
65046,-90.9090909090908,4,2,19,70,0,0
65222,-90.9090909090908,4,2,19,70,0,0
65398,-90.9090909090908,4,2,31,70,0,0
65575,-90.9090909090908,4,2,19,70,0,0
65751,-90.9090909090908,4,2,19,70,0,0
66104,-90.9090909090908,4,2,30,70,0,0
66281,-90.9090909090908,4,2,12,70,0,0
66369,-90.9090909090908,4,2,18,70,0,0
66634,-90.9090909090908,4,2,12,70,0,0
66810,-90.9090909090908,4,2,31,70,0,0
66987,-90.9090909090908,4,2,12,70,0,0
67163,-90.9090909090908,4,2,4,70,0,0
67340,-90.9090909090908,4,2,4,70,0,0
67516,-90.9090909090908,4,2,31,70,0,0
67693,-90.9090909090908,4,2,19,70,0,0
67869,-90.9090909090908,4,2,19,70,0,0
68046,-90.9090909090908,4,2,19,70,0,0
68222,-90.9090909090908,4,2,30,70,0,0
68575,-90.9090909090908,4,2,19,70,0,0
68928,-90.9090909090908,4,2,30,70,0,0
69104,-90.9090909090908,4,2,19,70,0,0
69281,-90.9090909090908,4,2,19,70,0,0
69457,-90.9090909090908,4,2,19,70,0,0
69634,-90.9090909090908,4,2,30,70,0,0
69810,-90.9090909090908,4,2,1,70,0,0
69987,-90.9090909090908,4,2,4,70,0,0
70163,-90.9090909090908,4,2,4,70,0,0
70340,-90.9090909090908,4,2,30,70,0,0
70516,-90.9090909090908,4,2,1,70,0,0
70693,-90.9090909090908,4,2,30,70,0,0
70869,-90.9090909090908,4,2,1,70,0,0
71046,-90.9090909090908,4,2,31,70,0,0
71134,-90.9090909090908,4,2,31,70,0,0
71398,-90.9090909090908,4,2,19,70,0,0
71751,-90.9090909090908,4,2,30,70,0,0
71928,-90.9090909090908,4,2,12,70,0,0
72016,-90.9090909090908,4,2,18,70,0,0
72281,-90.9090909090908,4,2,12,70,0,0
72457,-90.9090909090908,4,2,31,70,0,0
72634,-90.9090909090908,4,2,12,70,0,0
72810,-90.9090909090908,4,2,4,70,0,0
72987,-90.9090909090908,4,2,4,70,0,0
73163,-90.9090909090908,4,2,30,70,0,0
73340,-90.9090909090908,4,2,19,70,0,0
73516,-90.9090909090908,4,2,19,70,0,0
73693,-90.9090909090908,4,2,19,70,0,0
73869,-90.9090909090908,4,2,31,70,0,0
74046,-90.9090909090908,4,2,1,70,0,0
74222,-90.9090909090908,4,2,19,70,0,0
74575,-90.9090909090908,4,2,30,70,0,0
74751,-90.9090909090908,4,2,12,70,0,0
74840,-90.9090909090908,4,2,18,70,0,0
75104,-90.9090909090908,4,2,12,70,0,0
75281,-90.9090909090908,4,2,31,70,0,0
75457,-90.9090909090908,4,2,12,70,0,0
75634,-90.9090909090908,4,2,4,70,0,0
75810,-90.9090909090908,4,2,4,70,0,0
75987,-90.9090909090908,4,2,30,70,0,0
76163,-90.9090909090908,4,2,1,70,0,0
76340,-90.9090909090908,4,2,32,70,0,0
76516,-90.9090909090908,4,2,18,70,0,0
76693,-90.9090909090908,4,2,18,70,0,0
77046,-90.9090909090908,4,2,20,70,0,0
77398,-90.9090909090908,4,2,24,70,0,0
77575,-90.9090909090908,4,2,12,70,0,0
77751,-90.9090909090908,4,2,1,70,0,0
77928,-90.9090909090908,4,2,12,70,0,0
78281,-90.9090909090908,4,2,12,70,0,0
78634,-90.9090909090908,4,2,12,70,0,0
78810,-90.9090909090908,4,2,27,70,0,0
79163,-90.9090909090908,4,2,1,70,0,0
79869,-90.9090909090908,4,2,29,70,0,0
80222,-90.9090909090908,4,2,29,70,0,0
80398,-90.9090909090908,4,2,29,70,0,0
80751,-90.9090909090908,4,2,29,70,0,0
80928,-90.9090909090908,4,2,29,70,0,0
81634,-90.9090909090908,4,2,29,70,0,0
82693,-100,4,2,1,65,0,0
82869,-100,4,2,17,65,0,0
83046,-100,4,2,18,65,0,0
83222,-100,4,2,2,65,0,0
83398,-100,4,2,3,65,0,0
83575,-100,4,2,2,65,0,0
83751,-100,4,2,19,65,0,0
83928,-100,4,2,4,65,0,0
84104,-100,4,2,2,65,0,0
84281,-100,4,2,5,65,0,0
84457,-100,4,2,20,65,0,0
84634,-100,4,2,5,65,0,0
84722,-100,4,2,1,65,0,0
84810,-100,4,2,6,65,0,0
84987,-100,4,2,5,65,0,0
85163,-100,4,2,20,65,0,0
85340,-100,4,2,5,65,0,0
85516,-100,4,2,7,65,0,0
85692,-100,4,2,17,65,0,0
85869,-100,4,2,18,65,0,0
86046,-100,4,2,2,65,0,0
86134,-100,4,2,1,65,0,0
86222,-100,4,2,3,65,0,0
86398,-100,4,2,2,65,0,0
86575,-100,4,2,19,65,0,0
86751,-100,4,2,4,65,0,0
86928,-100,4,2,2,65,0,0
87104,-100,4,2,8,65,0,0
87281,-100,4,2,21,65,0,0
87457,-100,4,2,8,65,0,0
87546,-100,4,2,1,65,0,0
87634,-100,4,2,9,65,0,0
87810,-100,4,2,8,65,0,0
87987,-100,4,2,21,65,0,0
88163,-100,4,2,8,65,0,0
88340,-100,4,2,7,65,0,0
88516,-100,4,2,17,65,0,0
88693,-100,4,2,18,65,0,0
88869,-100,4,2,2,65,0,0
89046,-100,4,2,3,65,0,0
89222,-100,4,2,2,65,0,0
89398,-100,4,2,19,65,0,0
89575,-100,4,2,4,65,0,0
89751,-100,4,2,2,65,0,0
89928,-100,4,2,5,65,0,0
90104,-100,4,2,20,65,0,0
90281,-100,4,2,5,65,0,0
90369,-100,4,2,1,65,0,0
90457,-100,4,2,6,65,0,0
90634,-100,4,2,5,65,0,0
90810,-100,4,2,20,65,0,0
90987,-100,4,2,5,65,0,0
91340,-100,4,2,22,65,0,0
91693,-100,4,2,5,65,0,0
91869,-100,4,2,22,65,0,0
92222,-100,4,2,10,65,0,0
92398,-222.222222222222,4,2,11,65,0,0
92751,-222.222222222222,4,2,23,65,0,0
93987,-222.222222222222,4,2,12,50,0,0
95046,-222.222222222222,4,2,1,50,0,0
102281,-222.222222222222,4,2,12,50,0,0
102457,-142.857142857143,4,2,29,60,0,0
102634,-142.857142857143,4,2,29,40,0,0
102810,-142.857142857143,4,2,29,45,0,0
102987,-142.857142857143,4,2,29,50,0,0
103163,-142.857142857143,4,2,29,55,0,0
103340,-142.857142857143,4,2,29,60,0,0
103516,-142.857142857143,4,2,29,65,0,0
103693,-142.857142857143,4,2,14,50,0,0
104046,-142.857142857143,4,2,1,50,0,0
104751,-142.857142857143,4,2,12,50,0,0
104928,-142.857142857143,4,2,1,50,0,0
105193,-142.857142857143,4,2,2,50,0,0
105281,-125,4,2,12,60,0,0
105457,-125,4,2,25,60,0,0
105634,-125,4,2,1,60,0,0
105810,-125,4,2,25,60,0,0
105987,-125,4,2,12,60,0,0
106163,-125,4,2,25,60,0,0
106340,-125,4,2,25,60,0,0
106516,-125,4,2,25,60,0,0
106693,-125,4,2,1,60,0,0
106869,-125,4,2,25,60,0,0
107046,-125,4,2,1,60,0,0
107222,-125,4,2,15,60,0,0
107310,-125,4,2,1,60,0,0
107398,-125,4,2,12,60,0,0
107575,-125,4,2,15,60,0,0
107751,-125,4,2,25,60,0,0
107928,-125,4,2,25,60,0,0
108104,-125,4,2,1,60,0,0
108281,-125,4,2,25,60,0,0
108457,-125,4,2,1,60,0,0
108634,-125,4,2,25,60,0,0
108722,-125,4,2,1,60,0,0
108810,-125,4,2,12,60,0,0
108987,-125,4,2,25,60,0,0
109163,-125,4,2,25,60,0,0
109340,-125,4,2,25,60,0,0
109516,-125,4,2,1,60,0,0
109693,-125,4,2,25,60,0,0
109869,-125,4,2,25,60,0,0
110046,-125,4,2,15,60,0,0
110134,-125,4,2,1,60,0,0
110398,-125,4,2,15,60,0,0
110575,-125,4,2,1,60,0,0
110751,-125,4,2,15,60,0,0
110928,-125,4,2,12,60,0,0
111104,-125,4,2,1,60,0,0
112163,-125,4,2,25,60,0,0
112340,-125,4,2,1,60,0,0
112869,-125,4,2,16,60,0,0
112957,-125,4,2,1,60,0,0
113222,-125,4,2,15,60,0,0
113398,-125,4,2,1,60,0,0
113575,-125,4,2,12,60,0,0
113663,-125,4,2,12,60,0,0
113751,-125,4,2,12,60,0,0
113928,-125,4,2,1,60,0,0
114104,-125,4,2,25,60,0,0
114281,-125,4,2,1,60,0,0
114457,-125,4,2,16,60,0,0
114634,-125,4,2,12,60,0,0
114810,-125,4,2,26,60,0,0
114987,-125,4,2,12,60,0,0
115340,-125,4,2,1,60,0,0
116575,-142.857142857143,4,2,14,55,0,0
116928,-142.857142857143,4,2,24,55,0,0
117104,-142.857142857143,4,2,12,55,0,0
117281,-142.857142857143,4,2,27,55,0,0
117457,-142.857142857143,4,2,1,55,0,0
117634,-142.857142857143,4,2,3,55,0,0
117810,-142.857142857143,4,2,12,55,0,0
117987,-142.857142857143,4,2,3,55,0,0
118163,-142.857142857143,4,2,12,55,0,0
118340,-142.857142857143,4,2,14,55,0,0
118693,-142.857142857143,4,2,28,55,0,0
118869,-142.857142857143,4,2,24,55,0,0
119222,-142.857142857143,4,2,12,55,0,0
119310,-142.857142857143,4,2,12,55,0,0
119398,-142.857142857143,4,2,13,55,0,0
119575,-142.857142857143,4,2,1,55,0,0
119751,-142.857142857143,4,2,3,55,0,0
119928,-142.857142857143,4,2,12,55,0,0
120104,-142.857142857143,4,2,27,55,0,0
120281,-142.857142857143,4,2,1,55,0,0
120457,-142.857142857143,4,2,14,55,0,0
120634,-142.857142857143,4,2,12,55,0,0
120987,-142.857142857143,4,2,1,55,0,0
121163,-142.857142857143,4,2,14,55,0,0
121516,-142.857142857143,4,2,28,55,0,0
121693,-142.857142857143,4,2,1,55,0,0
122222,-111.111111111111,4,2,12,55,0,0
122575,-111.111111111111,4,2,24,55,0,0
122928,-111.111111111111,4,2,14,55,0,0
123281,-111.111111111111,4,2,24,55,0,0
123634,-111.111111111111,4,2,12,55,0,0
123987,-111.111111111111,4,2,27,55,0,0
124163,-111.111111111111,4,2,24,55,0,0
124340,-111.111111111111,4,2,24,55,0,0
124693,-111.111111111111,4,2,24,55,0,0
124869,-111.111111111111,4,2,24,55,0,0
125046,-111.111111111111,4,2,12,55,0,0
125398,-111.111111111111,4,2,1,55,0,0
125575,-111.111111111111,4,2,12,55,0,0
125928,-111.111111111111,4,2,12,55,0,0
126104,-111.111111111111,4,2,27,55,0,0
126281,-111.111111111111,4,2,29,55,0,0
126634,-111.111111111111,4,2,1,55,0,0
127869,-90.9090909090908,4,2,17,70,0,0
128222,-90.9090909090908,4,2,30,70,0,0
128398,-90.9090909090908,4,2,12,70,0,0
128487,-90.9090909090908,4,2,18,70,0,0
128751,-90.9090909090908,4,2,12,70,0,0
128928,-90.9090909090908,4,2,31,70,0,0
129104,-90.9090909090908,4,2,12,70,0,0
129281,-90.9090909090908,4,2,4,70,0,0
129457,-90.9090909090908,4,2,4,70,0,0
129634,-90.9090909090908,4,2,31,70,0,0
129810,-90.9090909090908,4,2,12,70,0,0
129898,-90.9090909090908,4,2,19,70,0,0
130163,-90.9090909090908,4,2,19,70,0,0
130340,-90.9090909090908,4,2,30,70,0,0
130693,-90.9090909090908,4,2,19,70,0,0
131046,-90.9090909090908,4,2,30,70,0,0
131222,-90.9090909090908,4,2,19,70,0,0
131398,-90.9090909090908,4,2,19,70,0,0
131575,-90.9090909090908,4,2,19,70,0,0
131751,-90.9090909090908,4,2,30,70,0,0
131928,-90.9090909090908,4,2,4,70,0,0
132104,-90.9090909090908,4,2,4,70,0,0
132281,-90.9090909090908,4,2,4,70,0,0
132457,-90.9090909090908,4,2,30,70,0,0
132634,-90.9090909090908,4,2,19,70,0,0
132810,-90.9090909090908,4,2,19,70,0,0
132987,-90.9090909090908,4,2,19,70,0,0
133163,-90.9090909090908,4,2,31,70,0,0
133340,-90.9090909090908,4,2,19,70,0,0
133516,-90.9090909090908,4,2,19,70,0,0
133869,-90.9090909090908,4,2,30,70,0,0
134046,-90.9090909090908,4,2,12,70,0,0
134134,-90.9090909090908,4,2,18,70,0,0
134398,-90.9090909090908,4,2,12,70,0,0
134575,-90.9090909090908,4,2,31,70,0,0
134751,-90.9090909090908,4,2,12,70,0,0
134928,-90.9090909090908,4,2,4,70,0,0
135104,-90.9090909090908,4,2,4,70,0,0
135281,-90.9090909090908,4,2,31,70,0,0
135457,-90.9090909090908,4,2,19,70,0,0
135634,-90.9090909090908,4,2,19,70,0,0
135810,-90.9090909090908,4,2,19,70,0,0
135987,-90.9090909090908,4,2,30,70,0,0
136340,-90.9090909090908,4,2,19,70,0,0
136693,-90.9090909090908,4,2,30,70,0,0
136869,-90.9090909090908,4,2,19,70,0,0
137046,-90.9090909090908,4,2,19,70,0,0
137222,-90.9090909090908,4,2,19,70,0,0
137398,-90.9090909090908,4,2,30,70,0,0
137575,-90.9090909090908,4,2,1,70,0,0
137751,-90.9090909090908,4,2,4,70,0,0
137928,-90.9090909090908,4,2,4,70,0,0
138104,-90.9090909090908,4,2,30,70,0,0
138281,-90.9090909090908,4,2,1,70,0,0
138457,-90.9090909090908,4,2,30,70,0,0
138634,-90.9090909090908,4,2,2,70,0,0
138722,-90.9090909090908,4,2,31,70,0,0
138810,-90.9090909090908,4,2,31,70,0,0
138898,-90.9090909090908,4,2,31,70,0,0
139163,-90.9090909090908,4,2,19,70,0,0
139516,-90.9090909090908,4,2,30,70,0,0
139693,-90.9090909090908,4,2,12,70,0,0
139781,-90.9090909090908,4,2,18,70,0,0
140046,-90.9090909090908,4,2,12,70,0,0
140222,-90.9090909090908,4,2,31,70,0,0
140398,-90.9090909090908,4,2,12,70,0,0
140575,-90.9090909090908,4,2,4,70,0,0
140751,-90.9090909090908,4,2,4,70,0,0
140928,-90.9090909090908,4,2,30,70,0,0
141104,-90.9090909090908,4,2,19,70,0,0
141281,-90.9090909090908,4,2,19,70,0,0
141457,-90.9090909090908,4,2,19,70,0,0
141634,-90.9090909090908,4,2,31,70,0,0
141810,-90.9090909090908,4,2,1,70,0,0
141987,-90.9090909090908,4,2,19,70,0,0
142163,-90.9090909090908,4,2,1,70,0,0
142340,-90.9090909090908,4,2,30,70,0,0
142516,-90.9090909090908,4,2,12,70,0,0
142604,-90.9090909090908,4,2,18,70,0,0
142869,-90.9090909090908,4,2,12,70,0,0
143046,-90.9090909090908,4,2,31,70,0,0
143222,-90.9090909090908,4,2,12,70,0,0
143398,-90.9090909090908,4,2,4,70,0,0
143575,-90.9090909090908,4,2,4,70,0,0
143751,-90.9090909090908,4,2,30,70,0,0
143928,-90.9090909090908,4,2,1,70,0,0
144104,-90.9090909090908,4,2,32,70,0,0
144281,-90.9090909090908,4,2,18,70,0,0
144457,-90.9090909090908,4,2,18,70,0,0
144634,-90.9090909090908,4,2,18,70,0,0
144810,-90.9090909090908,4,2,20,70,0,0
145163,-90.9090909090908,4,2,24,70,0,0
145340,-90.9090909090908,4,2,12,70,0,0
145516,-90.9090909090908,4,2,1,70,0,0
145693,-90.9090909090908,4,2,12,70,0,0
146046,-90.9090909090908,4,2,12,70,0,0
146398,-90.9090909090908,4,2,12,70,0,0
146575,-90.9090909090908,4,2,27,70,0,0
146751,-90.9090909090908,4,2,1,70,0,0
147634,-90.9090909090908,4,2,29,70,0,0
147987,-90.9090909090908,4,2,29,70,0,0
148163,-90.9090909090908,4,2,29,70,0,0
148516,-90.9090909090908,4,2,29,70,0,0
148693,-90.9090909090908,4,2,29,70,0,0
150106,-90.9090909090908,4,2,21,70,0,0
150457,-100,4,2,21,65,0,1
150810,-100,4,2,31,65,0,1
150987,-100,4,2,18,65,0,1
151163,-100,4,2,18,65,0,1
151340,-100,4,2,18,65,0,1
151516,-100,4,2,30,65,0,1
151604,-100,4,2,1,65,0,1
151693,-100,4,2,12,65,0,1
151781,-100,4,2,1,65,0,1
151869,-100,4,2,30,65,0,1
152046,-100,4,2,12,65,0,1
152222,-100,4,2,30,65,0,1
152398,-100,4,2,12,65,0,1
152487,-100,4,2,18,65,0,1
152751,-100,4,2,12,65,0,1
152928,-100,4,2,31,65,0,1
153281,-100,4,2,19,65,0,1
153457,-100,4,2,1,65,0,1
153634,-100,4,2,30,65,0,1
153810,-100,4,2,12,65,0,1
153898,-100,4,2,19,65,0,1
154163,-100,4,2,12,65,0,1
154340,-100,4,2,30,65,0,1
154516,-100,4,2,12,65,0,1
154693,-100,4,2,4,65,0,1
154869,-100,4,2,12,65,0,1
155046,-100,4,2,30,65,0,1
155222,-100,4,2,12,65,0,1
155310,-100,4,2,19,65,0,1
155575,-100,4,2,1,65,0,1
155751,-100,4,2,19,65,0,1
155928,-100,4,2,1,65,0,1
156104,-100,4,2,19,65,0,1
156193,-100,4,2,1,65,0,1
156457,-100,4,2,30,65,0,1
156546,-100,4,2,1,65,0,1
156634,-100,4,2,12,65,0,1
156722,-100,4,2,1,65,0,1
156810,-100,4,2,19,65,0,1
156898,-100,4,2,1,65,0,1
156987,-100,4,2,12,65,0,1
157075,-100,4,2,1,65,0,1
157163,-100,4,2,30,65,0,1
157251,-100,4,2,1,65,0,1
157340,-100,4,2,12,65,0,1
157428,-100,4,2,1,65,0,1
157516,-100,4,2,30,65,0,1
157604,-100,4,2,1,65,0,1
157693,-100,4,2,12,65,0,1
157781,-100,4,2,1,65,0,1
157869,-100,4,2,30,65,0,1
157957,-100,4,2,1,65,0,1
158046,-100,4,2,12,65,0,1
158134,-100,4,2,1,65,0,1
158222,-100,4,2,19,65,0,1
158310,-100,4,2,1,65,0,1
158398,-100,4,2,12,65,0,1
158487,-100,4,2,1,65,0,1
158575,-100,4,2,30,65,0,1
158663,-100,4,2,1,65,0,1
158928,-100,4,2,19,65,0,1
159016,-100,4,2,1,65,0,1
159281,-100,4,2,30,65,0,1
159369,-100,4,2,1,65,0,1
159457,-100,4,2,12,65,0,1
159546,-100,4,2,1,65,0,1
159634,-100,4,2,19,65,0,1
159722,-100,4,2,1,65,0,1
159810,-100,4,2,12,65,0,1
159898,-100,4,2,1,65,0,1
159987,-100,4,2,30,65,0,1
160075,-100,4,2,1,65,0,1
160163,-100,4,2,12,65,0,1
160251,-100,4,2,1,65,0,1
160340,-100,4,2,30,65,0,1
160428,-100,4,2,1,65,0,1
160516,-100,4,2,12,65,0,1
160604,-100,4,2,1,65,0,1
160693,-100,4,2,30,65,0,1
160781,-100,4,2,1,65,0,1
160869,-100,4,2,12,65,0,1
160957,-100,4,2,1,65,0,1
161046,-100,4,2,19,65,0,1
161134,-100,4,2,1,65,0,1
161222,-100,4,2,12,65,0,1
161310,-100,4,2,1,65,0,1
161398,-100,4,2,30,65,0,1
161487,-100,4,2,1,65,0,1
161751,-100,4,2,12,65,0,1
161928,-100,4,2,29,65,0,1
162104,-100,4,2,12,65,0,1
162457,-100,4,2,29,65,0,1
162634,-100,4,2,12,65,0,1
162987,-100,4,2,20,65,0,1
163340,-100,4,2,20,65,0,1
163516,-100,4,2,1,65,0,1
164222,-100,4,2,5,65,0,1
164398,-100,4,2,1,65,0,1
164577,-111.111111111111,4,2,13,55,0,0
164928,-111.111111111111,4,2,3,55,0,0
165104,-111.111111111111,4,2,3,55,0,0
165281,-111.111111111111,4,2,24,55,0,0
165457,-111.111111111111,4,2,1,55,0,0
165634,-111.111111111111,4,2,24,55,0,0
165810,-111.111111111111,4,2,12,55,0,0
165987,-111.111111111111,4,2,3,55,0,0
166163,-111.111111111111,4,2,12,55,0,0
166340,-111.111111111111,4,2,14,55,0,0
166516,-111.111111111111,4,2,1,55,0,0
166693,-111.111111111111,4,2,28,55,0,0
166869,-111.111111111111,4,2,12,55,0,0
167046,-111.111111111111,4,2,3,55,0,0
167222,-111.111111111111,4,2,12,55,0,0
167575,-111.111111111111,4,2,12,55,0,0
167751,-111.111111111111,4,2,3,55,0,0
167928,-111.111111111111,4,2,12,55,0,0
168104,-111.111111111111,4,2,27,55,0,0
168281,-111.111111111111,4,2,1,55,0,0
168457,-111.111111111111,4,2,3,55,0,0
168634,-111.111111111111,4,2,12,55,0,0
168810,-111.111111111111,4,2,3,55,0,0
168987,-111.111111111111,4,2,1,55,0,0
169163,-111.111111111111,4,2,14,55,0,0
169340,-111.111111111111,4,2,1,55,0,0
169516,-111.111111111111,4,2,28,55,0,0
169693,-111.111111111111,4,2,12,55,0,0
169869,-111.111111111111,4,2,3,55,0,0
170046,-111.111111111111,4,2,12,55,0,0
170398,-111.111111111111,4,2,1,55,0,0
170575,-111.111111111111,4,2,14,55,0,0
170751,-111.111111111111,4,2,12,55,0,0
170928,-111.111111111111,4,2,24,55,0,0
171104,-111.111111111111,4,2,12,55,0,0
171281,-111.111111111111,4,2,3,55,0,0
171457,-111.111111111111,4,2,12,55,0,0
171810,-111.111111111111,4,2,1,55,0,0
171987,-111.111111111111,4,2,14,55,0,0
172163,-111.111111111111,4,2,1,55,0,0
172340,-111.111111111111,4,2,33,55,0,0
172516,-111.111111111111,4,2,12,55,0,0
172693,-111.111111111111,4,2,3,55,0,0
172869,-111.111111111111,4,2,1,55,0,0
173046,-111.111111111111,4,2,12,55,0,0
173398,-111.111111111111,4,2,24,55,0,0
173751,-111.111111111111,4,2,24,55,0,0
173928,-111.111111111111,4,2,24,55,0,0
174104,-111.111111111111,4,2,24,55,0,0
174457,-111.111111111111,4,2,12,55,0,0
174634,-111.111111111111,4,2,1,55,0,0
174810,-111.111111111111,4,2,13,55,0,0
175163,-111.111111111111,4,2,33,55,0,0
175340,-111.111111111111,4,2,1,55,0,0
175693,-99.9999999999999,4,2,12,60,0,0
176046,-99.9999999999999,4,2,12,60,0,0
176222,-99.9999999999999,4,2,24,60,0,0
176398,-99.9999999999999,4,2,12,60,0,0
176575,-99.9999999999999,4,2,3,60,0,0
176751,-99.9999999999999,4,2,12,60,0,0
176928,-99.9999999999999,4,2,27,60,0,0
177104,-99.9999999999999,4,2,12,60,0,0
177281,-99.9999999999999,4,2,3,60,0,0
177457,-99.9999999999999,4,2,3,60,0,0
177634,-99.9999999999999,4,2,27,60,0,0
177810,-99.9999999999999,4,2,1,60,0,0
177987,-99.9999999999999,4,2,14,60,0,0
178163,-99.9999999999999,4,2,12,60,0,0
178340,-99.9999999999999,4,2,24,60,0,0
178516,-99.9999999999999,4,2,12,60,0,0
178869,-99.9999999999999,4,2,12,60,0,0
179046,-99.9999999999999,4,2,27,60,0,0
179222,-99.9999999999999,4,2,12,60,0,0
179310,-99.9999999999999,4,2,12,60,0,0
179398,-99.9999999999999,4,2,3,60,0,0
179575,-99.9999999999999,4,2,12,60,0,0
179751,-99.9999999999999,4,2,27,60,0,0
179928,-99.9999999999999,4,2,12,60,0,0
180281,-99.9999999999999,4,2,12,60,0,0
180457,-99.9999999999999,4,2,24,60,0,0
180634,-99.9999999999999,4,2,24,60,0,0
180810,-99.9999999999999,4,2,13,60,0,0
180987,-99.9999999999999,4,2,13,60,0,0
181163,-99.9999999999999,4,2,24,60,0,0
181340,-99.9999999999999,4,2,24,60,0,0
181516,-99.9999999999999,4,2,12,60,0,0
181869,-99.9999999999999,4,2,24,60,0,0
182222,-99.9999999999999,4,2,14,60,0,0
182575,-99.9999999999999,4,2,24,60,0,0
182928,-99.9999999999999,4,2,12,60,0,0
183281,-99.9999999999999,4,2,27,60,0,0
183457,-99.9999999999999,4,2,1,60,0,0
183634,-99.9999999999999,4,2,14,60,0,0
183987,-99.9999999999999,4,2,24,60,0,0
184163,-99.9999999999999,4,2,24,60,0,0
184340,-99.9999999999999,4,2,12,60,0,0
184693,-99.9999999999999,4,2,29,60,0,0
184869,-99.9999999999999,4,2,12,60,0,0
185398,-99.9999999999999,4,2,29,60,0,0
186457,-99.9999999999999,4,2,1,30,0,0
186810,-99.9999999999999,4,2,1,40,0,0
187163,-99.9999999999999,4,2,1,45,0,0
187340,-99.9999999999999,4,2,1,50,0,0
187516,-99.9999999999999,4,2,1,55,0,0
187693,-99.9999999999999,4,2,1,60,0,0
187869,-99.9999999999999,4,2,29,60,0,0
188398,-99.9999999999999,4,2,29,60,0,0
188575,-125,4,2,12,60,0,0
188928,-125,4,2,1,60,0,0
189104,-76.9230769230769,4,2,12,60,0,0
189810,-111.111111111111,4,2,12,60,0,0
190516,-111.111111111111,4,2,12,60,0,0
190693,-100,4,2,1,60,0,0
191310,-100,4,2,2,60,0,0
191398,-90.9090909090909,4,2,17,70,0,0
191751,-90.9090909090909,4,2,30,70,0,0
191928,-90.9090909090909,4,2,19,70,0,0
192104,-90.9090909090909,4,2,19,70,0,0
192281,-90.9090909090909,4,2,19,70,0,0
192457,-90.9090909090909,4,2,30,70,0,0
192634,-90.9090909090909,4,2,4,70,0,0
192810,-90.9090909090909,4,2,4,70,0,0
192987,-90.9090909090909,4,2,4,70,0,0
193163,-90.9090909090909,4,2,30,70,0,0
193340,-90.9090909090909,4,2,19,70,0,0
193516,-90.9090909090909,4,2,19,70,0,0
193693,-90.9090909090909,4,2,19,70,0,0
193869,-90.9090909090909,4,2,31,70,0,0
194046,-90.9090909090909,4,2,19,70,0,0
194222,-90.9090909090909,4,2,19,70,0,0
194575,-90.9090909090909,4,2,30,70,0,0
194751,-90.9090909090909,4,2,12,70,0,0
194840,-90.9090909090909,4,2,18,70,0,0
195104,-90.9090909090909,4,2,12,70,0,0
195281,-90.9090909090909,4,2,31,70,0,0
195457,-90.9090909090909,4,2,12,70,0,0
195634,-90.9090909090909,4,2,4,70,0,0
195810,-90.9090909090909,4,2,4,70,0,0
195987,-90.9090909090909,4,2,31,70,0,0
196163,-90.9090909090909,4,2,19,70,0,0
196340,-90.9090909090909,4,2,19,70,0,0
196516,-90.9090909090909,4,2,19,70,0,0
196693,-90.9090909090909,4,2,30,70,0,0
197046,-90.9090909090909,4,2,19,70,0,0
197398,-90.9090909090909,4,2,30,70,0,0
197575,-90.9090909090909,4,2,19,70,0,0
197751,-90.9090909090909,4,2,19,70,0,0
197928,-90.9090909090909,4,2,19,70,0,0
198104,-90.9090909090909,4,2,30,70,0,0
198281,-90.9090909090909,4,2,1,70,0,0
198457,-90.9090909090909,4,2,4,70,0,0
198634,-90.9090909090909,4,2,4,70,0,0
198810,-90.9090909090909,4,2,30,70,0,0
198987,-90.9090909090909,4,2,1,70,0,0
199163,-90.9090909090909,4,2,30,70,0,0
199340,-90.9090909090909,4,2,2,70,0,0
199516,-90.9090909090909,4,2,31,70,0,0
199604,-90.9090909090909,4,2,31,70,0,0
199869,-90.9090909090909,4,2,19,70,0,0
200222,-90.9090909090909,4,2,30,70,0,0
200398,-90.9090909090909,4,2,12,70,0,0
200487,-90.9090909090909,4,2,18,70,0,0
200751,-90.9090909090909,4,2,12,70,0,0
200928,-90.9090909090909,4,2,31,70,0,0
201104,-90.9090909090909,4,2,12,70,0,0
201281,-90.9090909090909,4,2,4,70,0,0
201457,-90.9090909090909,4,2,4,70,0,0
201634,-90.9090909090909,4,2,30,70,0,0
201810,-90.9090909090909,4,2,19,70,0,0
201987,-90.9090909090909,4,2,19,70,0,0
202163,-90.9090909090909,4,2,19,70,0,0
202340,-90.9090909090909,4,2,31,70,0,0
202516,-90.9090909090909,4,2,1,70,0,0
202693,-90.9090909090909,4,2,19,70,0,0
203046,-90.9090909090909,4,2,30,70,0,0
203222,-90.9090909090909,4,2,12,70,0,0
203310,-90.9090909090909,4,2,18,70,0,0
203575,-90.9090909090909,4,2,12,70,0,0
203751,-90.9090909090909,4,2,31,70,0,0
203928,-90.9090909090909,4,2,12,70,0,0
204104,-90.9090909090909,4,2,4,70,0,0
204281,-90.9090909090909,4,2,4,70,0,0
204457,-90.9090909090909,4,2,30,70,0,0
204634,-90.9090909090909,4,2,1,70,0,0
204810,-90.9090909090909,4,2,32,70,0,0
204987,-90.9090909090909,4,2,1,70,0,0
205163,-90.9090909090909,4,2,34,70,0,0
205340,-90.9090909090909,4,2,19,70,0,0
205516,-90.9090909090909,4,2,19,70,0,0
205869,-90.9090909090909,4,2,30,70,0,0
206046,-90.9090909090909,4,2,12,70,0,0
206134,-90.9090909090909,4,2,18,70,0,0
206398,-90.9090909090909,4,2,12,70,0,0
206575,-90.9090909090909,4,2,31,70,0,0
206751,-90.9090909090909,4,2,12,70,0,0
206928,-90.9090909090909,4,2,4,70,0,0
207104,-90.9090909090909,4,2,4,70,0,0
207281,-90.9090909090909,4,2,31,70,0,0
207457,-90.9090909090909,4,2,19,70,0,0
207634,-90.9090909090909,4,2,19,70,0,0
207898,-90.9090909090909,4,2,19,70,0,0
207987,-90.9090909090909,4,2,30,70,0,0
208163,-90.9090909090909,4,2,1,70,0,0
208340,-90.9090909090909,4,2,35,70,0,0
208516,-90.9090909090909,4,2,29,70,0,0
208693,-90.9090909090909,4,2,22,70,0,0
208869,-90.9090909090909,4,2,29,70,0,0
209046,-90.9090909090909,4,2,36,70,0,0
209222,-90.9090909090909,4,2,12,70,0,0
209398,-90.9090909090909,4,2,36,70,0,0
209575,-90.9090909090909,4,2,29,70,0,0
209663,-90.9090909090909,4,2,29,70,0,0
209751,-90.9090909090909,4,2,6,70,0,0
209928,-90.9090909090909,4,2,6,70,0,0
210104,-90.9090909090909,4,2,37,70,0,0
210281,-90.9090909090909,4,2,12,70,0,0
210369,-90.9090909090909,4,2,12,70,0,0
210457,-90.9090909090909,4,2,38,70,0,0
210634,-90.9090909090909,4,2,38,70,0,0
210810,-90.9090909090909,4,2,37,70,0,0
210898,-90.9090909090909,4,2,37,70,0,0
211163,-90.9090909090909,4,2,17,70,0,0
211516,-90.9090909090909,4,2,30,70,0,0
211693,-90.9090909090909,4,2,12,70,0,0
211781,-90.9090909090909,4,2,18,70,0,0
212046,-90.9090909090909,4,2,12,70,0,0
212222,-90.9090909090909,4,2,31,70,0,0
212398,-90.9090909090909,4,2,12,70,0,0
212575,-90.9090909090909,4,2,4,70,0,0
212751,-90.9090909090909,4,2,4,70,0,0
212928,-90.9090909090909,4,2,31,70,0,0
213104,-90.9090909090909,4,2,12,70,0,0
213193,-90.9090909090909,4,2,19,70,0,0
213457,-90.9090909090909,4,2,19,70,0,0
213634,-90.9090909090909,4,2,30,70,0,0
213987,-90.9090909090909,4,2,19,70,0,0
214340,-90.9090909090909,4,2,30,70,0,0
214516,-90.9090909090909,4,2,19,70,0,0
214693,-90.9090909090909,4,2,19,70,0,0
214869,-90.9090909090909,4,2,19,70,0,0
215046,-90.9090909090909,4,2,30,70,0,0
215222,-90.9090909090909,4,2,4,70,0,0
215398,-90.9090909090909,4,2,4,70,0,0
215575,-90.9090909090909,4,2,4,70,0,0
215751,-90.9090909090909,4,2,30,70,0,0
215928,-90.9090909090909,4,2,19,70,0,0
216104,-90.9090909090909,4,2,19,70,0,0
216281,-90.9090909090909,4,2,19,70,0,0
216457,-90.9090909090909,4,2,31,70,0,0
216634,-90.9090909090909,4,2,19,70,0,0
216810,-90.9090909090909,4,2,19,70,0,0
217163,-90.9090909090909,4,2,30,70,0,0
217340,-90.9090909090909,4,2,12,70,0,0
217428,-90.9090909090909,4,2,18,70,0,0
217693,-90.9090909090909,4,2,12,70,0,0
217869,-90.9090909090909,4,2,31,70,0,0
218046,-90.9090909090909,4,2,12,70,0,0
218222,-90.9090909090909,4,2,4,70,0,0
218398,-90.9090909090909,4,2,4,70,0,0
218575,-90.9090909090909,4,2,31,70,0,0
218751,-90.9090909090909,4,2,19,70,0,0
218928,-90.9090909090909,4,2,19,70,0,0
219104,-90.9090909090909,4,2,19,70,0,0
219281,-90.9090909090909,4,2,30,70,0,0
219634,-90.9090909090909,4,2,19,70,0,0
219987,-90.9090909090909,4,2,30,70,0,0
220163,-90.9090909090909,4,2,19,70,0,0
220340,-90.9090909090909,4,2,19,70,0,0
220516,-90.9090909090909,4,2,19,70,0,0
220693,-90.9090909090909,4,2,30,70,0,0
220869,-90.9090909090909,4,2,4,70,0,0
221046,-90.9090909090909,4,2,4,70,0,0
221222,-90.9090909090909,4,2,4,70,0,0
221398,-90.9090909090909,4,2,30,70,0,0
221575,-90.9090909090909,4,2,1,70,0,0
221751,-90.9090909090909,4,2,30,70,0,0
221928,-90.9090909090909,4,2,1,70,0,0
222104,-90.9090909090909,4,2,31,70,0,0
222193,-90.9090909090909,4,2,31,70,0,0
222457,-90.9090909090909,4,2,19,70,0,0
222810,-90.9090909090909,4,2,30,70,0,0
222987,-90.9090909090909,4,2,12,70,0,0
223075,-90.9090909090909,4,2,18,70,0,0
223340,-90.9090909090909,4,2,12,70,0,0
223516,-90.9090909090909,4,2,31,70,0,0
223693,-90.9090909090909,4,2,12,70,0,0
223869,-90.9090909090909,4,2,4,70,0,0
224046,-90.9090909090909,4,2,4,70,0,0
224222,-90.9090909090909,4,2,30,70,0,0
224398,-90.9090909090909,4,2,19,70,0,0
224575,-90.9090909090909,4,2,19,70,0,0
224751,-90.9090909090909,4,2,19,70,0,0
224928,-90.9090909090909,4,2,31,70,0,0
225104,-90.9090909090909,4,2,1,70,0,0
225281,-90.9090909090909,4,2,19,70,0,0
225634,-90.9090909090909,4,2,30,70,0,0
225810,-90.9090909090909,4,2,12,70,0,0
225898,-90.9090909090909,4,2,18,70,0,0
226163,-90.9090909090909,4,2,12,70,0,0
226340,-90.9090909090909,4,2,31,70,0,0
226516,-90.9090909090909,4,2,12,70,0,0
226693,-90.9090909090909,4,2,4,70,0,0
226869,-90.9090909090909,4,2,4,70,0,0
227046,-90.9090909090909,4,2,30,70,0,0
227222,-90.9090909090909,4,2,1,70,0,0
227398,-90.9090909090909,4,2,32,70,0,0
227575,-90.9090909090909,4,2,18,70,0,0
227751,-90.9090909090909,4,2,18,70,0,0
227840,-90.9090909090909,4,2,18,70,0,0
228104,-90.9090909090909,4,2,20,70,0,0
228457,-90.9090909090909,4,2,24,70,0,0
228634,-90.9090909090909,4,2,12,70,0,0
228810,-90.9090909090909,4,2,1,70,0,0
228987,-90.9090909090909,4,2,12,70,0,0
229340,-90.9090909090909,4,2,12,70,0,0
229693,-90.9090909090909,4,2,12,70,0,0
229869,-90.9090909090909,4,2,27,70,0,0
230222,-90.9090909090909,4,2,1,70,0,0
230928,-90.9090909090909,4,2,29,70,0,0
231281,-90.9090909090909,4,2,29,70,0,0
231457,-90.9090909090909,4,2,29,70,0,0
231810,-90.9090909090909,4,2,29,70,0,0
231987,-90.9090909090909,4,2,29,70,0,0
232693,-90.9090909090909,4,2,29,70,0,0
233751,-100,4,2,1,65,0,0
233928,-100,4,2,17,65,0,0
234104,-100,4,2,18,65,0,0
234281,-100,4,2,2,65,0,0
234457,-100,4,2,3,65,0,0
234634,-100,4,2,2,65,0,0
234810,-100,4,2,19,65,0,0
234987,-100,4,2,4,65,0,0
235163,-100,4,2,2,65,0,0
235340,-100,4,2,5,65,0,0
235516,-100,4,2,20,65,0,0
235693,-100,4,2,5,65,0,0
235781,-100,4,2,1,65,0,0
235869,-100,4,2,6,65,0,0
236046,-100,4,2,5,65,0,0
236222,-100,4,2,20,65,0,0
236398,-100,4,2,5,65,0,0
236575,-100,4,2,7,65,0,0
236751,-100,4,2,17,65,0,0
236928,-100,4,2,18,65,0,0
237104,-100,4,2,2,65,0,0
237193,-100,4,2,1,65,0,0
237281,-100,4,2,3,65,0,0
237457,-100,4,2,2,65,0,0
237634,-100,4,2,19,65,0,0
237810,-100,4,2,4,65,0,0
237987,-100,4,2,2,65,0,0
238163,-100,4,2,8,65,0,0
238340,-100,4,2,21,65,0,0
238516,-100,4,2,8,65,0,0
238604,-100,4,2,1,65,0,0
238693,-100,4,2,9,65,0,0
238869,-100,4,2,8,65,0,0
239046,-100,4,2,21,65,0,0
239222,-100,4,2,8,65,0,0
239398,-100,4,2,7,65,0,0
239575,-100,4,2,17,65,0,0
239751,-100,4,2,18,65,0,0
239928,-100,4,2,2,65,0,0
240104,-100,4,2,3,65,0,0
240281,-100,4,2,2,65,0,0
240457,-100,4,2,19,65,0,0
240634,-100,4,2,4,65,0,0
240810,-100,4,2,2,65,0,0
240987,-100,4,2,5,65,0,0
241163,-100,4,2,20,65,0,0
241340,-100,4,2,5,65,0,0
241428,-100,4,2,1,65,0,0
241516,-100,4,2,6,65,0,0
241693,-100,4,2,5,65,0,0
241869,-100,4,2,20,65,0,0
242046,-100,4,2,5,65,0,0
242398,-100,4,2,17,65,0,0
242575,-100,4,2,17,65,0,0
242751,-100,4,2,23,65,0,0
242928,-100,4,2,39,65,0,0
243104,-100,4,2,40,65,0,0
243457,-333.333333333333,4,2,24,45,0,0

[Colours]
Combo1 : 247,247,51
Combo2 : 237,61,61
Combo3 : 255,128,0

[HitObjects]
10,266,812,6,0,P|76:260|133:307,1,125.999996154785,2|2,2:2|2:2,0:0:0:0:
231,141,1342,2,0,P|180:179|117:167,2,125.999996154785,2|2|2,2:2|2:2|2:2,0:0:0:0:
231,141,2753,5,2,2:2:0:0:
311,198,2930,2,0,P|315:166|321:135,1,62.9999980773926,2|0,2:2|0:0,0:0:0:0:
238,69,3283,2,0,P|233:100|227:131,1,62.9999980773926,2|0,2:2|0:0,0:0:0:0:
274,276,3636,6,0,P|325:239|387:249,1,125.999996154785,2|2,2:2|2:2,0:0:0:0:
190,328,4342,2,0,P|186:296|179:266,1,62.9999980773926,2|2,2:2|2:2,0:0:0:0:
48,380,4695,6,0,P|65:281|83:179,1,188.999994232178,2|0,2:2|0:0,0:0:0:0:
4,61,5400,2,0,P|10:91|14:122,1,62.9999980773926,2|0,2:2|0:0,0:0:0:0:
224,115,5753,2,0,P|194:89|103:105,1,125.999996154785,2|2,2:2|2:2,0:0:0:0:
306,229,6459,6,0,P|249:237|156:255,1,125.999996154785,2|2,2:2|2:2,0:0:0:0:
325,105,6989,2,0,P|367:146|439:147,2,125.999996154785,2|2|2,2:2|2:2|2:2,0:0:0:0:
500,299,8577,5,2,2:2:0:0:
441,363,8930,1,2,2:2:0:0:
363,320,9283,2,0,P|368:289|373:257,1,62.9999980773926,2|0,2:2|0:0,0:0:0:0:
293,372,9636,2,0,P|261:377|230:382,1,62.9999980773926,2|0,2:2|0:0,0:0:0:0:
92,294,9989,2,0,P|122:299|154:304,1,62.9999980773926,2|0,2:2|0:0,0:0:0:0:
272,156,10342,6,0,P|244:201|151:197,1,144,2|2,2:2|2:2,0:0:0:0:
159,203,11400,1,2,2:2:0:0:
256,192,11489,12,0,14224,0:0:0:0:
433,366,14930,5,14,2:1:0:0:
338,184,15106,1,0,0:0:0:0:
482,250,15283,1,10,2:2:0:0:
327,366,15459,1,10,2:1:0:0:
327,366,15548,1,8,2:1:0:0:
327,366,15636,2,0,P|335:322|342:275,1,90,10|10,2:1|2:1,0:0:0:0:
211,150,15989,2,0,P|219:194|226:238,1,90,10|10,2:2|2:1,0:0:0:0:
126,356,16342,1,0,0:0:0:0:
29,190,16518,6,0,P|72:198|119:205,1,90,10|10,2:1|2:2,0:0:0:0:
294,97,16871,1,10,2:1:0:0:
294,97,16959,1,8,2:2:0:0:
294,97,17048,1,10,2:1:0:0:
131,19,17224,1,10,2:1:0:0:
226,238,17400,2,0,P|269:203|366:224,1,135,10|0,2:2|0:0,0:0:0:0:
372,225,17753,6,0,P|378:181|389:126,1,90,14|0,2:1|0:0,0:0:0:0:
226,238,18106,1,10,2:2:0:0:
369,319,18283,1,10,2:1:0:0:
369,319,18371,1,8,2:2:0:0:
369,319,18459,2,0,P|413:310|458:303,1,90,10|10,2:1|2:1,0:0:0:0:
247,384,18812,2,0,P|200:338|71:356,1,180,10|0,2:2|0:0,0:0:0:0:
157,135,19342,5,10,2:1:0:0:
9,214,19518,2,0,P|53:221|97:229,1,90,10|10,2:2|2:1,0:0:0:0:
97,229,19783,1,8,2:2:0:0:
97,229,19871,1,10,2:1:0:0:
270,114,20048,1,10,2:1:0:0:
135,38,20224,2,0,P|143:82|150:126,1,90,10|10,2:2|2:1,0:0:0:0:
392,0,20577,6,0,P|383:44|376:88,1,90,14|0,2:1|0:0,0:0:0:0:
288,0,20930,1,10,2:2:0:0:
475,165,21106,1,10,2:1:0:0:
475,165,21195,1,8,2:1:0:0:
475,165,21283,2,0,P|433:170|380:181,1,90,10|10,2:1|2:1,0:0:0:0:
512,322,21636,2,0,B|474:283|427:295|427:295|403:341|334:355,1,180,14|0,2:2|0:0,0:0:0:0:
164,254,22165,5,10,2:1:0:0:
245,384,22342,2,0,P|252:339|260:295,1,90,10|10,2:2|2:1,0:0:0:0:
260,295,22606,1,8,2:2:0:0:
260,295,22695,1,10,2:1:0:0:
83,354,22871,1,10,2:1:0:0:
148,165,23048,2,0,P|156:209|163:253,1,90,10|10,2:2|2:1,0:0:0:0:
67,83,23400,1,8,2:1:0:0:
259,165,23577,5,14,2:2:0:0:
58,267,23753,1,0,0:0:0:0:
272,176,23930,1,10,2:1:0:0:
49,83,24106,5,14,2:2:0:0:
180,257,24283,1,0,0:0:0:0:
256,25,24459,1,10,2:1:0:0:
152,157,24636,5,14,2:1:0:0:
256,192,24724,12,0,26048,0:0:0:0:
467,349,26224,6,0,P|476:286|488:224,2,125.999996154785,14|0|0,2:1|0:0|0:0,0:0:0:0:
313,263,27106,1,0,0:0:0:0:
391,173,27283,2,0,P|396:203|401:235,1,62.9999980773926,2|2,2:2|2:2,0:0:0:0:
335,384,27636,6,0,P|286:345|225:351,1,125.999996154785,10|0,2:1|0:0,0:0:0:0:
140,249,28165,2,0,P|171:254|202:259,1,62.9999980773926,0|2,0:0|2:3,0:0:0:0:
305,109,28518,5,2,2:2:0:0:
163,161,28695,1,2,2:2:0:0:
205,17,28871,2,0,P|209:48|215:79,1,62.9999980773926,2|10,2:2|2:1,0:0:0:0:
41,48,29224,6,0,P|72:53|103:58,1,62.9999980773926,2|2,2:2|2:2,0:0:0:0:
53,193,29577,2,0,P|101:154|162:160,1,125.999996154785,2|2,2:2|2:2,0:0:0:0:
161,159,30106,1,0,0:0:0:0:
259,268,30283,6,0,P|227:263|196:257,1,62.9999980773926,2|10,2:2|2:1,0:0:0:0:
340,125,30636,2,0,P|308:130|277:135,1,62.9999980773926,2|2,2:2|2:3,0:0:0:0:
435,262,30989,2,0,P|464:232|448:148,1,125.999996154785,2|2,2:2|2:2,0:0:0:0:
453,153,31518,1,2,2:2:0:0:
351,221,31695,1,2,2:2:0:0:
510,348,31871,6,0,P|448:347|393:395,1,125.999996154785,10|0,2:1|0:0,0:0:0:0:
399,384,32400,1,0,0:0:0:0:
278,330,32577,2,0,P|216:342|136:355,1,125.999996154785,0|2,0:0|2:2,0:0:0:0:
154,352,33106,1,2,2:2:0:0:
68,236,33283,6,0,P|131:224|188:271,2,125.999996154785,10|0|2,2:1|0:0|2:3,0:0:0:0:
219,146,34165,1,2,2:2:0:0:
219,146,34342,1,2,2:2:0:0:
108,59,34518,6,0,P|113:89|118:121,1,62.9999980773926,2|10,2:2|2:1,0:0:0:0:
268,17,34871,1,2,2:2:0:0:
219,146,35048,1,2,2:2:0:0:
370,111,35224,6,0,P|338:106|307:100,1,62.9999980773926,2|2,2:2|2:3,0:0:0:0:
202,245,35577,2,0,P|232:239|264:233,1,62.9999980773926,2|2,2:2|2:3,0:0:0:0:
118,121,35930,1,14,2:1:0:0:
376,297,36636,6,0,L|381:265,1,31.4999990386963,10|8,2:2|2:2,0:0:0:0:
354,189,36812,1,8,2:2:0:0:
475,276,36989,1,10,2:1:0:0:
314,371,37165,1,8,2:2:0:0:
284,380,37253,1,8,2:3:0:0:
252,379,37341,1,4,2:3:0:0:
223,368,37429,1,8,2:3:0:0:
199,347,37518,6,0,P|193:311|186:276,1,72,14|2,2:1|2:2,0:0:0:0:
59,165,37871,2,0,P|53:200|46:235,1,72,10|2,2:2|2:2,0:0:0:0:
238,101,38224,1,10,2:1:0:0:
123,28,38400,2,0,P|130:63|135:98,1,72,2|8,2:2|2:2,0:0:0:0:
258,210,38753,6,0,P|315:222|394:162,1,144,2|2,2:2|2:2,0:0:0:0:
500,262,39283,2,0,P|505:226|512:191,1,72,10|10,2:2|2:1,0:0:0:0:
512,191,39548,1,8,2:2:0:0:
512,191,39636,1,10,2:1:0:0:
358,76,39812,1,10,2:1:0:0:
512,7,39989,1,8,2:2:0:0:
390,188,40165,6,0,B|361:169|324:181|324:181|301:218|247:228,1,144,2|2,2:2|2:2,0:0:0:0:
70,35,40695,1,10,2:2:0:0:
240,131,40871,1,2,2:2:0:0:
75,235,41048,1,10,2:1:0:0:
137,91,41224,2,0,P|142:127|149:162,1,72,2|8,2:2|2:2,0:0:0:0:
55,362,41577,6,0,P|97:320|157:318,1,108,2|0,2:2|0:0,0:0:0:0:
168,337,41930,2,0,P|172:301|179:266,1,72,2|8,2:2|2:2,0:0:0:0:
316,376,42283,1,10,2:1:0:0:
316,376,42371,1,8,2:2:0:0:
316,376,42459,1,8,2:1:0:0:
403,198,42636,1,10,2:1:0:0:
289,268,42812,1,10,2:2:0:0:
459,368,42989,5,10,2:1:0:0:
459,368,43077,1,8,2:1:0:0:
459,368,43165,2,0,P|501:318|491:243,2,144,10|8|8,2:1|2:2|2:1,0:0:0:0:
279,261,44048,1,2,2:3:0:0:
404,184,44224,1,10,2:2:0:0:
316,376,44400,6,0,P|278:348|176:363,1,144,2|2,2:2|2:3,0:0:0:0:
64,235,44930,2,0,P|99:239|135:246,1,72,8|10,2:2|2:1,0:0:0:0:
135,246,45195,1,8,2:2:0:0:
135,246,45283,1,8,2:1:0:0:
275,46,45459,1,10,2:1:0:0:
114,150,45636,1,8,2:2:0:0:
166,2,45812,6,0,P|171:37|177:73,1,72,10|12,2:1|2:1,0:0:0:0:
339,232,46165,1,2,2:2:0:0:
418,43,46342,1,10,2:2:0:0:
265,127,46518,2,0,P|300:132|336:138,1,72,2|10,2:2|2:1,0:0:0:0:
452,256,46871,2,0,P|446:220|440:184,1,72,10|10,2:1|2:2,0:0:0:0:
374,353,47224,6,0,P|331:316|208:339,1,161.999995056153,14|10,2:1|2:2,0:0:0:0:
125,200,47753,2,0,P|119:240|112:279,1,80.9999975280763,10|8,2:2|2:1,0:0:0:0:
209,167,48106,1,8,2:2:0:0:
14,261,48283,1,8,2:1:0:0:
162,377,48459,1,8,2:1:0:0:
100,126,48636,5,8,2:1:0:0:
100,126,48724,1,8,2:1:0:0:
100,126,48812,2,0,P|140:163|228:158,1,125.999996154785,14|2,2:1|2:2,0:0:0:0:
278,32,49342,2,0,P|283:63|288:94,1,62.9999980773926,10|10,2:1|2:2,0:0:0:0:
382,165,49695,2,0,P|387:133|392:102,1,62.9999980773926,2|2,2:2|2:3,0:0:0:0:
473,264,50048,6,0,B|432:269|405:292|405:292|380:288|360:267,1,125.999996154785,10|10,2:1|2:1,0:0:0:0:
279,357,50577,2,0,P|310:362|341:367,1,62.9999980773926,10|0,2:1|0:0,0:0:0:0:
195,251,50930,2,0,P|227:246|258:241,1,62.9999980773926,10|8,2:2|2:1,0:0:0:0:
147,347,51283,5,2,2:2:0:0:
129,185,51459,1,10,2:1:0:0:
129,185,51548,1,8,2:1:0:0:
129,185,51636,1,14,2:1:0:0:
1,253,51812,2,0,P|32:258|63:263,1,62.9999980773926,0|2,0:0|2:3,0:0:0:0:
26,102,52165,2,0,P|32:132|38:164,1,62.9999980773926,10|10,2:1|2:2,0:0:0:0:
167,26,52518,2,0,P|161:56|155:88,1,62.9999980773926,10|10,2:2|2:1,0:0:0:0:
242,214,52871,6,0,P|302:227|355:191,1,125.999996154785,14|10,2:1|2:2,0:0:0:0:
474,306,53400,2,0,P|443:300|411:294,1,62.9999980773926,10|0,2:1|0:0,0:0:0:0:
493,210,53753,1,10,2:2:0:0:
334,365,53930,5,8,2:1:0:0:
296,369,54018,1,8,0:0:0:0:
260,361,54106,1,10,2:2:0:0:
230,339,54195,1,8,2:2:0:0:
200,317,54283,1,8,2:2:0:0:
163,308,54371,1,8,2:2:0:0:
127,314,54459,6,0,P|87:321|47:328,1,80.9999975280763,14|0,2:1|0:0,0:0:0:0:
213,224,54812,2,0,P|219:184|227:144,1,80.9999975280763,10|0,2:2|0:0,0:0:0:0:
32,39,55165,1,10,2:1:0:0:
102,172,55342,1,8,2:1:0:0:
236,26,55518,2,0,P|196:33|156:40,1,80.9999975280763,10|0,2:2|0:0,0:0:0:0:
330,183,55871,6,0,P|379:201|478:146,1,161.999995056153,14|10,2:1|2:2,0:0:0:0:
370,381,56400,1,8,2:1:0:0:
370,381,56489,1,8,2:2:0:0:
370,381,56577,2,0,P|377:341|384:301,1,80.9999975280763,10|8,2:2|2:1,0:0:0:0:
225,138,56930,2,0,P|232:178|239:218,1,80.9999975280763,10|8,2:2|2:1,0:0:0:0:
85,357,57283,6,0,P|120:324|206:326,1,121.499996292114,14|0,2:1|0:0,0:0:0:0:
190,318,57636,1,10,2:2:0:0:
0,170,57812,6,0,P|63:183|137:194,1,121.499996292114,14|0,2:1|0:0,0:0:0:0:
119,191,58165,1,10,2:1:0:0:
36,274,58342,1,10,2:2:0:0:
167,48,58518,5,10,2:2:0:0:
167,48,58871,5,10,2:2:0:0:
290,299,59048,1,10,2:2:0:0:
512,177,60106,6,0,B|472:133|412:146|412:146|393:196|327:215,1,198.000006042481,14|10,2:1|2:2,0:0:0:0:
203,105,60636,1,2,2:1:0:0:
203,105,60724,1,8,0:0:0:0:
203,105,60812,1,10,2:1:0:0:
329,43,60989,1,10,2:1:0:0:
245,236,61165,1,10,2:2:0:0:
100,96,61342,2,0,P|110:48|118:0,1,99.0000030212403,10|0,2:1|0:0,0:0:0:0:
0,274,61695,1,8,2:1:0:0:
155,184,61871,2,0,P|106:193|57:202,1,99.0000030212403,10|10,2:2|2:1,0:0:0:0:
203,105,62136,5,8,2:2:0:0:
203,105,62224,2,0,P|249:141|338:133,1,148.50000453186,10|0,2:1|0:0,0:0:0:0:
367,139,62577,2,0,P|376:90|385:41,1,99.0000030212403,10|0,2:2|0:0,0:0:0:0:
234,242,62930,6,0,P|243:291|252:340,1,99.0000030212403,14|0,2:1|0:0,0:0:0:0:
338,242,63283,1,10,2:2:0:0:
154,370,63459,1,8,2:1:0:0:
154,370,63548,1,8,2:2:0:0:
154,370,63636,1,10,2:1:0:0:
88,154,63812,1,8,2:1:0:0:
242,242,63989,1,10,2:2:0:0:
49,365,64165,6,0,P|40:316|31:267,1,99.0000030212403,8|0,2:1|0:0,0:0:0:0:
145,74,64518,1,8,2:1:0:0:
0,150,64695,2,0,P|49:159|98:168,1,99.0000030212403,10|8,2:2|2:1,0:0:0:0:
97,167,64959,1,8,2:2:0:0:
97,167,65048,1,10,2:1:0:0:
248,63,65224,1,8,2:1:0:0:
80,3,65400,1,10,2:2:0:0:
194,209,65577,1,8,2:1:0:0:
355,97,65753,6,0,P|346:48|337:-1,1,99.0000030212403,14|0,2:1|0:0,0:0:0:0:
490,94,66106,1,10,2:2:0:0:
302,234,66283,1,10,2:1:0:0:
302,234,66371,1,8,2:2:0:0:
302,234,66459,1,10,2:1:0:0:
355,97,66636,1,10,2:1:0:0:
457,305,66812,1,10,2:2:0:0:
302,234,66989,6,0,P|353:190|486:227,1,198.000006042481,10|8,2:1|2:1,0:0:0:0:
333,353,67518,2,0,P|284:344|235:335,1,99.0000030212403,10|8,2:2|2:1,0:0:0:0:
235,335,67783,1,8,2:2:0:0:
235,335,67871,1,10,2:1:0:0:
98,158,68048,1,8,2:1:0:0:
302,234,68224,1,10,2:2:0:0:
126,370,68400,1,0,0:0:0:0:
191,146,68577,6,0,P|200:195|209:244,1,99.0000030212403,14|0,2:1|0:0,0:0:0:0:
114,37,68930,1,10,2:2:0:0:
318,127,69106,1,8,2:1:0:0:
318,127,69195,1,8,2:2:0:0:
318,127,69283,1,10,2:1:0:0:
109,248,69459,1,8,2:1:0:0:
225,23,69636,1,10,2:2:0:0:
3,114,69812,6,0,B|107:85|91:179|200:142,1,198.000006042481,12|8,2:1|2:1,0:0:0:0:
372,26,70342,1,10,2:2:0:0:
278,253,70518,1,8,2:1:0:0:
467,178,70695,1,10,2:2:0:0:
318,127,70871,1,8,2:1:0:0:
397,355,71048,1,10,2:2:0:0:
397,355,71136,1,8,2:2:0:0:
397,355,71224,2,0,L|405:306,1,49.5000015106202,8|8,2:2|2:2,0:0:0:0:
369,216,71400,6,0,P|325:269|205:252,1,198.000006042481,14|10,2:1|2:2,0:0:0:0:
91,108,71930,1,2,2:1:0:0:
91,108,72018,1,8,2:2:0:0:
91,108,72106,1,10,2:1:0:0:
221,64,72283,1,10,2:1:0:0:
50,226,72459,1,10,2:2:0:0:
6,11,72636,1,14,2:1:0:0:
204,158,72812,5,0,0:0:0:0:
204,158,72989,1,8,2:1:0:0:
30,337,73165,2,0,P|79:344|127:354,1,99.0000030212403,10|8,2:2|2:1,0:0:0:0:
127,354,73430,1,8,2:2:0:0:
127,354,73518,1,10,2:1:0:0:
84,122,73695,1,8,2:1:0:0:
272,246,73871,2,0,P|222:253|174:263,1,99.0000030212403,10|2,2:2|2:2,0:0:0:0:
350,384,74224,6,0,P|383:334|511:319,1,198.000006042481,14|10,2:1|2:2,0:0:0:0:
338,155,74753,1,10,2:1:0:0:
338,155,74842,1,8,2:2:0:0:
338,155,74930,1,10,2:1:0:0:
468,76,75106,2,0,P|458:124|450:173,1,99.0000030212403,10|10,2:1|2:2,0:0:0:0:
279,11,75459,6,0,P|217:67|107:43,1,198.000006042481,14|8,2:1|2:1,0:0:0:0:
217,239,75989,1,10,2:2:0:0:
57,133,76165,1,8,0:0:0:0:
57,133,76253,1,8,2:2:0:0:
57,133,76342,1,10,2:2:0:0:
0,330,76518,1,8,2:1:0:0:
126,195,76695,1,10,2:1:0:0:
17,243,76871,1,0,0:0:0:0:
196,348,77048,6,0,B|239:314|291:327|291:327|316:377|379:387,1,198.000006042481,14|2,2:1|2:2,0:0:0:0:
512,259,77577,2,0,P|502:307|494:356,1,99.0000030212403,10|8,2:1|2:2,0:0:0:0:
356,180,77930,2,0,P|365:228|373:277,1,99.0000030212403,10|0,2:1|0:0,0:0:0:0:
498,51,78283,6,0,B|441:58|384:93|384:93|344:78|313:38,1,198.000006042481,14|8,2:1|2:1,0:0:0:0:
240,0,78812,1,10,2:2:0:0:
356,180,78989,1,0,0:0:0:0:
111,136,79165,2,0,P|159:128|208:118,1,99.0000030212403,10|8,2:2|2:1,0:0:0:0:
240,130,79431,1,8,0:0:0:0:
266,170,79519,1,10,2:2:0:0:
253,216,79607,1,8,2:2:0:0:
218,240,79695,1,8,2:2:0:0:
85,263,79871,5,10,2:2:0:0:
356,180,80048,1,10,2:2:0:0:
352,343,80400,5,10,2:2:0:0:
111,136,80577,1,8,2:2:0:0:
251,53,80930,5,8,2:2:0:0:
194,370,81106,1,10,2:2:0:0:
512,217,82695,5,14,2:1:0:0:
410,188,82871,1,0,0:0:0:0:
308,159,83048,1,10,2:2:0:0:
180,283,83224,1,10,2:1:0:0:
180,283,83312,1,8,2:1:0:0:
180,283,83400,2,0,P|237:271|282:262,1,90,10|10,2:1|2:1,0:0:0:0:
91,185,83753,2,0,P|34:173|-11:164,1,90,10|10,2:2|2:1,0:0:0:0:
224,88,84106,1,0,0:0:0:0:
111,0,84283,6,0,P|91:46|108:93,1,90,10|10,2:1|2:2,0:0:0:0:
220,190,84636,1,10,2:1:0:0:
220,190,84724,1,8,2:2:0:0:
220,190,84812,1,10,2:1:0:0:
368,95,84989,1,10,2:1:0:0:
502,201,85165,2,0,P|439:196|387:251,1,135,10|8,2:2|1:1,0:0:0:0:
397,272,85518,6,0,P|450:286|492:300,1,90,14|0,2:1|0:0,0:0:0:0:
308,164,85871,1,10,2:2:0:0:
212,319,86048,1,10,2:1:0:0:
212,319,86136,1,8,2:2:0:0:
212,319,86224,2,0,P|205:254|199:203,1,90,10|10,2:1|2:1,0:0:0:0:
86,120,86577,2,0,P|79:185|73:236,1,90,10|10,2:2|2:1,0:0:0:0:
0,352,86930,5,0,0:0:0:0:
0,352,87106,2,0,P|41:334|86:324,1,90,10|10,2:1|2:2,0:0:0:0:
233,207,87459,1,10,2:1:0:0:
233,207,87548,1,8,2:2:0:0:
233,207,87636,1,10,2:1:0:0:
215,116,87812,1,10,2:1:0:0:
198,25,87989,1,10,2:2:0:0:
341,110,88165,5,10,2:1:0:0:
341,110,88253,1,8,2:1:0:0:
341,110,88342,2,0,B|412:97|412:97|434:66|434:66|502:53,1,180,14|10,2:1|2:2,0:0:0:0:
383,211,88871,1,10,2:1:0:0:
383,211,88959,1,8,2:1:0:0:
383,211,89048,2,0,P|321:198|276:189,1,90,10|10,2:1|2:1,0:0:0:0:
498,304,89400,2,0,P|434:299|384:357,1,135,14|0,2:2|0:0,0:0:0:0:
405,371,89753,5,0,0:0:0:0:
293,286,89930,2,0,P|231:299|186:308,1,90,10|10,2:1|2:2,0:0:0:0:
55,209,90283,1,10,2:1:0:0:
55,209,90371,1,8,2:2:0:0:
55,209,90459,1,10,2:1:0:0:
91,384,90636,2,0,P|104:322|113:277,1,90,10|10,2:1|2:2,0:0:0:0:
240,217,90989,1,10,2:1:0:0:
124,135,91165,5,8,2:1:0:0:
124,135,91342,2,0,P|186:115|239:105,1,90,14|0,2:2|0:0,0:0:0:0:
397,43,91695,1,10,2:1:0:0:
200,0,91871,6,0,P|254:35|303:58,1,90,14|0,2:2|0:0,0:0:0:0:
440,126,92224,1,10,2:1:0:0:
198,233,92400,6,0,B|241:236|272:203|272:203|236:255|226:317|297:382|392:355|405:258|325:261|325:261,1,364.499988876343,14|10,2:1|2:1,0:0:0:0:
311,131,102283,5,10,2:1:0:0:
311,131,102371,1,8,2:1:0:0:
311,131,102459,2,0,P|261:140|229:146,1,62.9999980773926,12|0,2:2|0:0,0:0:0:0:
446,64,102812,5,10,2:2:0:0:
409,205,102989,1,10,2:2:0:0:
300,25,103165,5,8,2:2:0:0:
313,227,103342,1,10,2:2:0:0:
154,22,103518,5,8,2:2:0:0:
215,262,103695,1,10,2:1:0:0:
25,306,104400,5,10,2:2:0:0:
25,306,104489,1,8,2:2:0:0:
25,306,104577,2,0,P|75:297|107:291,1,62.9999980773926,8|10,2:2|2:1,0:0:0:0:
350,384,104930,5,8,2:2:0:0:
336,349,105018,1,8,2:3:0:0:
306,326,105106,1,4,2:3:0:0:
270,321,105195,1,8,2:3:0:0:
235,337,105283,2,0,P|182:343|140:347,1,72,14|2,2:1|2:2,0:0:0:0:
313,227,105636,2,0,P|366:233|408:237,1,72,10|2,2:2|2:2,0:0:0:0:
241,119,105989,1,10,2:1:0:0:
322,62,106165,2,0,P|334:99|323:128,1,72,2|8,2:2|2:2,0:0:0:0:
180,199,106518,6,0,B|92:185|137:145|45:130,1,144,2|2,2:2|2:2,0:0:0:0:
176,0,107048,2,0,P|166:45|158:78,1,72,10|10,2:2|2:1,0:0:0:0:
159,70,107312,1,8,2:2:0:0:
159,70,107400,1,10,2:1:0:0:
285,180,107577,2,0,P|277:144|268:109,1,72,10|8,2:1|2:2,0:0:0:0:
372,16,107930,5,2,2:2:0:0:
372,16,108018,1,2,0:0:0:0:
372,16,108106,1,2,0:0:0:0:
484,81,108283,2,0,P|438:90|408:100,1,72,2|10,2:2|2:2,0:0:0:0:
311,198,108636,1,10,2:2:0:0:
311,198,108724,1,8,2:1:0:0:
311,198,108812,2,0,P|357:207|387:217,1,72,10|2,2:1|2:2,0:0:0:0:
448,370,109165,5,8,2:2:0:0:
512,278,109342,2,0,P|436:289|344:309,1,144,2|2,2:2|2:2,0:0:0:0:
251,384,109871,1,8,2:2:0:0:
251,384,110048,2,0,P|259:338|268:293,1,72,10|8,2:1|2:1,0:0:0:0:
145,189,110400,2,0,P|153:235|162:280,1,72,10|10,2:1|2:2,0:0:0:0:
29,384,110753,5,10,2:1:0:0:
5,279,110930,2,0,B|91:288|45:335|143:350,2,144,10|8|8,2:1|2:2|2:1,0:0:0:0:
119,208,111812,1,2,2:3:0:0:
119,208,111989,1,10,2:2:0:0:
29,143,112165,6,0,P|21:77|12:-5,1,144,2|2,2:2|2:3,0:0:0:0:
173,63,112695,2,0,P|130:77|103:90,1,72,8|10,2:2|2:1,0:0:0:0:
105,88,112959,1,8,2:2:0:0:
105,88,113048,1,8,2:1:0:0:
243,190,113224,5,10,2:1:0:0:
265,98,113400,1,8,2:2:0:0:
294,13,113577,1,10,2:1:0:0:
294,13,113665,1,8,2:1:0:0:
294,13,113753,1,12,2:1:0:0:
385,120,113930,5,2,2:2:0:0:
478,23,114106,2,0,P|483:64|487:105,1,72,10|10,2:2|2:2,0:0:0:0:
486,94,114371,1,8,2:1:0:0:
486,94,114459,1,10,2:1:0:0:
385,215,114636,2,0,P|427:202|468:191,1,72,10|10,2:1|2:2,0:0:0:0:
313,327,114989,6,0,B|259:317|259:317|238:288|238:288|180:278,1,144,14|10,2:1|2:2,0:0:0:0:
303,187,115518,1,10,2:2:0:0:
303,187,115695,1,8,2:1:0:0:
402,321,115871,2,0,P|444:334|485:345,1,72,8|8,2:2|2:1,0:0:0:0:
498,358,116136,1,8,0:0:0:0:
498,358,116224,2,0,P|494:340|490:319,3,36,8|8|8|8,2:1|2:1|2:1|2:1,0:0:0:0:
396,229,116577,6,0,P|443:190|510:201,1,125.999996154785,14|2,2:1|2:2,0:0:0:0:
430,88,117106,2,0,P|435:53|440:12,1,62.9999980773926,10|10,2:1|2:2,0:0:0:0:
317,111,117459,2,0,P|322:146|327:187,1,62.9999980773926,2|2,2:2|2:3,0:0:0:0:
248,27,117812,6,0,B|177:38|219:70|140:87,1,125.999996154785,10|10,2:1|2:1,0:0:0:0:
47,142,118342,2,0,P|33:73|15:0,2,125.999996154785,10|10|2,2:1|2:2|2:2,0:0:0:0:
160,221,119224,5,10,2:1:0:0:
160,221,119312,1,8,2:1:0:0:
160,221,119400,1,14,2:1:0:0:
11,338,119577,2,0,B|59:330|59:330|76:307|76:307|128:299,1,125.999996154785,0|10,0:0|2:1,0:0:0:0:
242,243,120106,1,10,2:2:0:0:
321,343,120283,1,10,2:2:0:0:
321,343,120459,1,10,2:1:0:0:
469,229,120636,6,0,P|401:240|330:259,1,125.999996154785,14|10,2:1|2:2,0:0:0:0:
180,134,121165,2,0,P|158:190|199:246,1,125.999996154785,10|10,2:1|2:2,0:0:0:0:
307,153,121695,1,8,2:1:0:0:
307,153,121783,1,8,0:0:0:0:
307,153,121871,2,0,L|349:160,1,31.4999990386963,10|8,2:2|2:2,0:0:0:0:
434,87,122048,2,0,L|427:129,1,31.4999990386963,8|8,2:2|2:2,0:0:0:0:
378,253,122224,6,0,P|451:229|515:286,2,161.999995056153,14|10|10,2:1|2:2|2:1,0:0:0:0:
277,376,123106,1,8,2:1:0:0:
177,299,123283,2,0,P|132:290|91:286,1,80.9999975280763,10|0,2:2|0:0,0:0:0:0:
299,104,123636,6,0,P|281:183|264:265,1,161.999995056153,14|10,2:1|2:2,0:0:0:0:
188,143,124165,1,8,2:1:0:0:
188,143,124253,1,8,2:2:0:0:
188,143,124342,2,0,P|133:151|90:158,1,80.9999975280763,10|8,2:2|2:1,0:0:0:0:
0,84,124695,1,10,2:2:0:0:
0,266,124871,5,8,2:1:0:0:
0,266,124959,1,8,2:1:0:0:
0,266,125048,2,0,P|55:274|98:281,1,80.9999975280763,14|0,2:1|0:0,0:0:0:0:
245,384,125400,1,10,2:2:0:0:
324,172,125577,6,0,B|249:184|291:222|201:242,1,121.499996292114,14|0,2:1|0:0,0:0:0:0:
224,235,125930,1,10,2:1:0:0:
83,126,126106,5,10,2:2:0:0:
289,12,126283,1,10,2:2:0:0:
71,0,126636,5,10,2:2:0:0:
302,147,126812,1,10,2:2:0:0:
267,292,127342,5,8,2:1:0:0:
417,384,127518,1,8,2:2:0:0:
461,367,127606,1,8,2:2:0:0:
489,328,127695,1,10,2:2:0:0:
491,280,127783,1,8,2:2:0:0:
465,240,127871,2,0,B|363:258|363:258|313:225|339:171,1,198.000006042481,14|10,2:1|2:2,0:0:0:0:
503,66,128400,5,10,2:1:0:0:
503,66,128489,1,8,0:0:0:0:
503,66,128577,1,10,2:1:0:0:
350,169,128753,1,10,2:1:0:0:
250,37,128930,1,10,2:2:0:0:
67,201,129106,6,0,P|139:180|260:154,1,198.000006042481,10|8,2:1|2:1,0:0:0:0:
86,0,129636,2,0,P|99:49|111:104,1,99.0000030212403,10|10,2:2|2:1,0:0:0:0:
109,96,129900,1,8,2:2:0:0:
109,96,129989,1,10,2:1:0:0:
217,198,130165,1,8,2:1:0:0:
22,271,130342,2,0,P|99:275|135:334,1,148.50000453186,10|0,2:2|0:0,0:0:0:0:
136,361,130695,6,0,P|89:371|40:384,1,99.0000030212403,14|0,2:1|0:0,0:0:0:0:
357,260,131048,2,0,P|403:250|452:236,1,99.0000030212403,10|8,2:2|2:1,0:0:0:0:
452,236,131312,1,8,2:2:0:0:
452,236,131400,1,10,2:1:0:0:
194,176,131577,1,8,2:1:0:0:
323,331,131753,5,10,2:2:0:0:
218,384,131930,2,0,B|229:309|229:309|262:283|262:283|275:199,1,198.000006042481,8|8,2:1|2:1,0:0:0:0:
512,42,132459,2,0,P|455:50|412:70,1,99.0000030212403,10|8,2:2|2:1,0:0:0:0:
417,66,132724,1,8,2:2:0:0:
417,66,132812,1,10,2:1:0:0:
287,131,132989,1,8,2:1:0:0:
200,30,133165,1,10,2:2:0:0:
438,204,133342,5,8,2:1:0:0:
438,204,133430,1,8,0:0:0:0:
438,204,133518,2,0,B|386:193|356:237|356:237|344:299|282:308,1,198.000006042481,14|10,2:1|2:2,0:0:0:0:
96,223,134048,1,10,2:1:0:0:
96,223,134136,1,8,2:2:0:0:
96,223,134224,1,10,2:1:0:0:
6,373,134400,2,0,P|65:359|103:332,1,99.0000030212403,10|10,2:1|2:2,0:0:0:0:
236,187,134753,6,0,P|191:122|79:136,1,198.000006042481,10|8,2:1|2:1,0:0:0:0:
0,14,135283,2,0,P|60:25|114:36,1,99.0000030212403,10|8,2:2|2:1,0:0:0:0:
97,32,135548,1,8,2:2:0:0:
97,32,135636,1,10,2:1:0:0:
264,166,135812,1,8,2:1:0:0:
122,303,135989,2,0,P|133:243|144:189,1,99.0000030212403,10|0,2:2|0:0,0:0:0:0:
392,20,136342,6,0,P|297:35|277:77,1,148.50000453186,14|0,2:1|0:0,0:0:0:0:
289,103,136695,2,0,P|350:111|405:125,1,99.0000030212403,10|8,2:2|2:1,0:0:0:0:
386,119,136959,1,8,2:2:0:0:
386,119,137048,1,10,2:1:0:0:
512,78,137224,1,8,2:1:0:0:
332,202,137400,1,10,2:2:0:0:
512,348,137577,6,0,P|409:320|318:306,1,198.000006042481,12|8,2:1|2:1,0:0:0:0:
183,152,138106,2,0,P|194:205|203:254,1,99.0000030212403,10|8,2:2|2:1,0:0:0:0:
65,384,138459,2,0,P|76:331|85:282,1,99.0000030212403,10|8,2:2|2:2,0:0:0:0:
70,259,138724,1,8,2:2:0:0:
70,259,138812,2,0,P|45:249|17:241,1,49.5000015106202,10|8,2:2|2:2,0:0:0:0:
199,360,138989,2,0,P|224:350|252:342,1,49.5000015106202,8|8,2:2|2:2,0:0:0:0:
350,186,139165,6,0,B|248:203|248:203|197:172|226:116,1,198.000006042481,14|10,2:1|2:2,0:0:0:0:
354,20,139695,1,10,2:1:0:0:
354,20,139783,1,8,2:2:0:0:
354,20,139871,1,10,2:1:0:0:
494,112,140048,2,0,P|505:58|513:9,1,99.0000030212403,10|10,2:1|2:2,0:0:0:0:
333,169,140400,6,0,B|411:183|411:183|441:220|441:220|529:237,1,198.000006042481,14|8,2:1|2:1,0:0:0:0:
376,384,140930,2,0,P|365:330|357:281,1,99.0000030212403,10|8,2:2|2:1,0:0:0:0:
357,286,141195,1,8,2:2:0:0:
357,286,141283,1,10,2:1:0:0:
191,166,141459,1,8,2:1:0:0:
347,78,141636,1,10,2:2:0:0:
212,274,141812,5,10,2:2:0:0:
212,274,141900,1,8,0:0:0:0:
212,274,141989,2,0,P|123:292|19:315,1,198.000006042481,14|10,2:1|2:2,0:0:0:0:
141,154,142518,1,10,2:1:0:0:
141,154,142606,1,8,2:2:0:0:
141,154,142695,1,10,2:1:0:0:
293,328,142871,2,0,P|322:278|308:227,1,99.0000030212403,10|10,2:1|2:2,0:0:0:0:
115,26,143224,6,0,B|238:39|165:102|301:121,1,198.000006042481,14|8,2:1|2:1,0:0:0:0:
418,7,143753,2,0,P|366:16|314:32,1,99.0000030212403,10|8,2:2|0:0,0:0:0:0:
321,29,144018,1,8,2:2:0:0:
321,29,144106,1,10,2:2:0:0:
174,150,144283,1,8,2:1:0:0:
24,49,144459,5,10,2:1:0:0:
24,49,144548,1,8,0:0:0:0:
24,49,144636,1,8,0:0:0:0:
24,49,144724,1,8,0:0:0:0:
24,49,144812,2,0,P|120:25|217:7,1,198.000006042481,14|2,2:1|2:2,0:0:0:0:
66,232,145342,2,0,P|57:181|45:128,1,99.0000030212403,10|8,2:1|2:2,0:0:0:0:
234,234,145695,2,0,P|223:282|214:331,1,99.0000030212403,10|0,2:1|0:0,0:0:0:0:
331,146,146048,6,0,B|406:131|406:131|436:94|436:94|508:81,1,198.000006042481,14|8,2:1|2:1,0:0:0:0:
396,277,146577,2,0,P|448:290|495:304,1,99.0000030212403,10|8,2:2|2:1,0:0:0:0:
295,120,146930,1,10,2:2:0:0:
129,290,147106,5,8,2:1:0:0:
129,290,147195,1,8,2:2:0:0:
129,290,147283,2,0,L|80:280,1,49.5000015106202,10|8,2:2|2:2,0:0:0:0:
260,384,147459,2,0,L|250:335,1,49.5000015106202,8|0,2:2|0:0,0:0:0:0:
211,146,147636,5,10,2:2:0:0:
380,370,147812,1,10,2:2:0:0:
157,280,148165,5,10,2:2:0:0:
432,156,148342,1,8,2:2:0:0:
92,104,148695,5,8,2:2:0:0:
366,256,148871,1,10,2:2:0:0:
379,14,149224,5,8,2:2:0:0:
227,238,149400,1,10,2:2:0:0:
379,14,149577,1,10,2:2:0:0:
42,25,150106,5,8,2:2:0:0:
89,11,150195,1,8,2:2:0:0:
136,22,150283,1,8,2:2:0:0:
173,55,150371,1,8,2:2:0:0:
190,101,150459,2,0,P|94:120|32:138,1,135,14|0,2:1|0:0,0:0:0:0:
26,128,150812,6,0,B|17:172|17:172|51:215,1,90,10|8,2:2|2:1,0:0:0:0:
44,207,151077,1,8,2:1:0:0:
44,207,151165,1,10,2:1:0:0:
269,266,151342,1,8,2:1:0:0:
269,266,151518,2,0,B|229:243|229:243|178:261,1,90,10|10,2:2|2:1,0:0:0:0:
0,367,151871,5,2,2:2:0:0:
102,354,152048,1,10,2:1:0:0:
204,341,152224,1,10,2:2:0:0:
358,245,152400,5,10,2:1:0:0:
358,245,152489,1,8,2:2:0:0:
358,245,152577,2,0,L|341:346,1,90,10|10,2:1|2:1,0:0:0:0:
504,212,152930,2,0,L|487:111,1,90,10|0,2:2|0:0,0:0:0:0:
279,74,153283,5,14,2:1:0:0:
357,0,153459,1,2,2:2:0:0:
458,39,153636,1,10,2:2:0:0:
291,178,153812,5,10,2:1:0:0:
291,178,153900,1,8,2:2:0:0:
291,178,153989,2,0,L|194:164,1,90,10|10,2:1|2:1,0:0:0:0:
23,243,154342,1,10,2:2:0:0:
49,0,154518,6,0,B|64:73|64:73|96:93|96:93|113:175,1,180,10|10,2:1|2:1,0:0:0:0:
245,319,155048,2,0,L|257:224,1,90,10|2,2:2|2:1,0:0:0:0:
256,229,155312,1,8,2:2:0:0:
256,229,155400,1,10,2:1:0:0:
474,341,155577,5,10,2:2:0:0:
390,316,155753,1,10,2:1:0:0:
333,381,155930,1,10,2:2:0:0:
495,207,156106,5,14,2:1:0:0:
495,207,156195,1,2,2:2:0:0:
495,207,156283,2,0,P|470:202|447:194,1,45,2|2,2:2|2:2,0:0:0:0:
276,121,156459,5,10,2:2:0:0:
276,121,156548,1,2,2:2:0:0:
276,121,156636,2,0,P|301:116|324:108,1,45,10|10,2:1|2:2,0:0:0:0:
466,24,156812,6,0,P|460:50|454:80,3,45,10|2|10|2,2:1|2:2|2:1|2:2,0:0:0:0:
356,239,157165,2,0,P|350:213|344:183,3,45,10|2|14|2,2:2|2:2|2:1|2:2,0:0:0:0:
316,25,157518,5,2,2:2:0:0:
274,8,157606,1,2,2:2:0:0:
230,15,157694,1,10,2:1:0:0:
195,42,157782,1,2,2:2:0:0:
177,82,157870,1,10,2:2:0:0:
159,122,157959,1,2,2:2:0:0:
124,149,158047,1,10,2:1:0:0:
80,156,158135,1,10,2:2:0:0:
38,139,158224,2,0,P|32:116|23:83,3,45,10|2|10|2,2:1|2:2|2:1|2:2,0:0:0:0:
197,202,158577,2,0,P|191:225|182:258,3,45,10|2|2|2,2:2|2:2|2:2|2:2,0:0:0:0:
0,384,158930,5,14,2:1:0:0:
24,346,159018,1,2,2:2:0:0:
62,323,159106,1,2,2:2:0:0:
107,318,159194,1,2,2:2:0:0:
149,331,159283,2,0,P|177:339|213:350,3,45,10|2|10|10,2:2|2:2|2:1|2:2,0:0:0:0:
285,227,159636,6,0,P|280:202|272:170,3,45,10|2|10|2,2:1|2:2|2:1|2:2,0:0:0:0:
414,317,159989,2,0,P|409:342|401:374,3,45,10|2|14|2,2:2|2:2|2:1|2:2,0:0:0:0:
512,161,160342,5,2,2:2:0:0:
471,143,160430,1,2,2:2:0:0:
426,144,160518,1,10,2:1:0:0:
387,166,160606,1,2,2:2:0:0:
361,202,160695,2,0,P|386:209|412:216,1,45,10|2,2:2|2:2,0:0:0:0:
266,343,160871,2,0,P|241:350|215:357,1,45,10|10,2:1|2:2,0:0:0:0:
429,308,161048,5,10,2:1:0:0:
429,308,161136,1,2,2:2:0:0:
429,308,161224,2,0,P|435:329|442:359,1,45,10|2,2:1|2:2,0:0:0:0:
275,183,161401,5,10,2:2:0:0:
275,183,161489,1,2,2:2:0:0:
275,183,161577,2,0,P|281:162|288:132,1,45,2|2,2:2|2:2,0:0:0:0:
105,224,161753,5,10,2:1:0:0:
5,45,161930,6,0,P|62:60|103:71,1,90,14|10,2:2|2:1,0:0:0:0:
321,116,162283,1,10,2:1:0:0:
114,195,162459,6,0,P|161:159|195:134,1,90,14|10,2:2|2:1,0:0:0:0:
380,8,162812,1,10,2:1:0:0:
481,156,162989,5,14,2:1:0:0:
481,156,163077,1,0,0:0:0:0:
481,156,163165,2,0,P|461:162|432:170,3,45,0|0|8|0,0:0|0:0|2:1|0:0,0:0:0:0:
293,242,163518,6,0,P|273:236|244:228,3,45,10|0|8|0,2:2|0:0|2:1|0:0,0:0:0:0:
424,319,163871,2,0,P|444:313|473:305,3,45,10|0|8|0,2:2|0:0|2:2|0:0,0:0:0:0:
319,362,164224,6,0,P|316:383|313:400,6,22.5,10|0|0|0|4|0|0,2:3|0:0|0:0|0:0|2:3|0:0|0:0,0:0:0:0:
300,329,164577,6,0,B|210:313|264:267|160:249,1,161.999995056153,14|2,2:1|2:3,0:0:0:0:
41,312,165106,1,8,2:1:0:0:
41,312,165283,2,0,P|36:266|32:224,1,80.9999975280763,10|0,2:2|0:0,0:0:0:0:
102,137,165636,1,2,2:2:0:0:
19,69,165812,6,0,P|102:87|182:112,1,161.999995056153,10|10,2:1|2:1,0:0:0:0:
281,210,166342,1,10,2:1:0:0:
281,210,166518,2,0,P|276:169|272:126,1,80.9999975280763,2|10,2:2|2:2,0:0:0:0:
390,0,166871,2,0,P|385:41|381:84,1,80.9999975280763,10|2,2:1|2:3,0:0:0:0:
512,223,167224,6,0,B|426:209|426:209|398:169|433:135,1,161.999995056153,14|10,2:1|2:1,0:0:0:0:
244,354,167930,2,0,P|292:365|329:382,1,80.9999975280763,10|10,2:1|2:2,0:0:0:0:
450,278,168283,2,0,P|402:289|365:306,1,80.9999975280763,2|2,2:2|2:3,0:0:0:0:
262,237,168636,6,0,P|254:178|235:74,1,161.999995056153,10|10,2:1|2:2,0:0:0:0:
135,0,169165,1,10,2:1:0:0:
39,72,169342,1,10,2:2:0:0:
39,72,169430,1,8,0:0:0:0:
39,72,169518,1,10,2:2:0:0:
141,137,169695,2,0,P|93:146|48:162,1,80.9999975280763,10|2,2:1|2:3,0:0:0:0:
0,251,170048,6,0,B|62:263|62:263|83:294|83:294|146:307,1,161.999995056153,14|2,2:1|2:2,0:0:0:0:
259,313,170577,2,0,P|263:354|240:384,2,80.9999975280763,10|10|10,2:1|2:1|2:2,0:0:0:0:
196,230,171106,1,10,2:1:0:0:
196,230,171283,1,2,2:3:0:0:
335,273,171459,6,0,P|439:258|504:248,1,161.999995056153,14|10,2:1|2:2,0:0:0:0:
389,148,171989,2,0,P|348:144|318:167,2,80.9999975280763,10|2|10,2:1|2:2|2:2,0:0:0:0:
487,81,172518,2,0,P|493:38|501:-12,1,80.9999975280763,10|2,2:1|2:3,0:0:0:0:
300,81,172871,5,10,2:2:0:0:
300,81,172959,1,8,0:0:0:0:
300,81,173048,2,0,B|208:69|258:20|152:3,2,161.999995056153,14|2|10,2:1|2:2|2:2,0:0:0:0:
401,163,173930,1,8,2:1:0:0:
287,231,174106,2,0,P|236:221|194:213,1,80.9999975280763,10|0,2:2|0:0,0:0:0:0:
380,384,174459,5,14,2:1:0:0:
380,384,174636,2,0,P|414:354|370:240,1,161.999995056153,8|0,2:2|0:0,0:0:0:0:
263,376,175165,1,10,2:2:0:0:
165,259,175342,1,10,2:2:0:0:
165,259,175430,1,8,2:2:0:0:
165,259,175518,1,10,2:2:0:0:
42,375,175695,6,0,P|31:285|18:174,1,180,14|10,2:1|2:1,0:0:0:0:
152,36,176224,1,10,2:2:0:0:
0,95,176400,1,10,2:1:0:0:
0,95,176489,1,8,2:1:0:0:
0,95,176577,1,2,2:3:0:0:
118,183,176753,2,0,P|162:174|205:163,1,90,10|10,2:1|2:2,0:0:0:0:
315,38,177106,6,0,B|385:50|385:50|409:83|409:83|490:100,1,180,10|8,2:1|2:1,0:0:0:0:
350,230,177636,2,0,P|343:175|339:132,1,90,10|8,2:2|2:1,0:0:0:0:
339,140,177900,1,8,2:2:0:0:
339,140,177989,1,10,2:1:0:0:
502,220,178165,1,10,2:1:0:0:
396,298,178342,1,10,2:2:0:0:
512,378,178518,6,0,P|402:354|324:341,1,180,14|10,2:1|2:1,0:0:0:0:
172,246,179048,1,10,2:2:0:0:
115,329,179224,2,0,P|172:345|250:266,1,180,10|10,2:1|2:1,0:0:0:0:
366,133,179753,1,10,2:2:0:0:
189,147,179930,6,0,B|95:131|95:131|63:91|106:47,1,180,14|10,2:1|2:1,0:0:0:0:
0,222,180459,2,0,P|47:229|94:238,1,90,10|0,2:2|0:0,0:0:0:0:
88,236,180724,1,8,2:2:0:0:
88,236,180812,1,10,2:1:0:0:
216,125,180989,1,8,2:1:0:0:
313,191,181165,1,10,2:2:0:0:
455,41,181342,5,8,2:2:0:0:
455,41,181430,1,8,2:2:0:0:
455,41,181518,2,0,P|375:49|348:116,1,135,14|0,2:1|0:0,0:0:0:0:
365,118,181871,2,0,P|423:130|473:143,1,90,10|0,2:2|0:0,0:0:0:0:
272,273,182224,2,0,P|214:285|164:298,1,90,10|8,2:1|2:1,0:0:0:0:
416,384,182577,2,0,P|441:336|424:290,1,90,10|0,2:2|0:0,0:0:0:0:
208,124,182930,6,0,B|318:139|243:201|378:220,1,180,14|10,2:1|2:2,0:0:0:0:
164,368,183459,1,8,2:1:0:0:
164,368,183548,1,8,2:2:0:0:
164,368,183636,2,0,P|153:311|143:261,1,90,10|8,2:1|2:1,0:0:0:0:
187,97,183989,1,10,2:2:0:0:
0,184,184165,5,8,0:0:0:0:
0,184,184253,1,8,0:0:0:0:
0,184,184342,2,0,P|59:197|105:210,1,90,14|0,2:1|0:0,0:0:0:0:
308,67,184695,1,10,2:2:0:0:
105,0,184871,6,0,P|79:55|118:119,1,135,10|0,2:1|0:0,0:0:0:0:
112,115,185224,1,10,2:1:0:0:
284,269,185400,5,8,2:2:0:0:
416,7,185577,1,10,2:2:0:0:
511,183,185930,5,10,2:2:0:0:
199,63,186106,1,10,2:2:0:0:
436,367,186459,5,8,2:2:0:0:
436,367,186548,1,8,2:2:0:0:
436,367,186636,1,8,2:2:0:0:
436,367,186724,1,8,2:2:0:0:
436,367,186812,2,0,P|444:341|453:312,3,45,8|8|8|8,2:2|2:2|2:2|2:2,0:0:0:0:
408,209,187165,5,8,2:2:0:0:
364,201,187253,1,8,2:2:0:0:
323,219,187341,1,8,2:2:0:0:
298,255,187429,1,8,2:2:0:0:
273,291,187518,1,8,2:2:0:0:
232,308,187606,1,8,2:2:0:0:
188,301,187694,1,8,2:2:0:0:
172,143,187871,5,8,2:2:0:0:
327,381,188048,1,8,2:2:0:0:
504,59,188577,6,0,P|458:115|354:92,1,180,14|0,2:1|0:0,0:0:0:0:
286,139,189106,6,0,P|283:110|274:72,1,58.4999973220826,14|0,2:1|0:0,0:0:0:0:
503,321,189459,6,0,P|506:291|512:263,1,58.4999973220826,14|0,2:1|0:0,0:0:0:0:
130,247,189812,6,0,P|214:226|323:339,1,242.999992584229,14|0,2:1|0:0,0:0:0:0:
321,324,190518,1,10,2:1:0:0:
480,170,190695,6,0,P|435:178|381:187,1,90,10|8,2:2|2:2,0:0:0:0:
362,194,190959,1,8,2:2:0:0:
362,194,191048,2,0,P|358:171|354:149,1,45,10|8,2:2|2:3,0:0:0:0:
401,16,191224,2,0,P|396:38|393:60,1,45,4|8,2:3|2:3,0:0:0:0:
243,206,191400,6,0,P|195:197|146:188,1,99.0000030212403,14|0,2:1|0:0,0:0:0:0:
36,2,191753,1,10,2:2:0:0:
224,99,191930,1,8,2:1:0:0:
224,99,192018,1,8,2:2:0:0:
224,99,192106,1,10,2:1:0:0:
6,225,192283,1,8,2:1:0:0:
81,105,192459,1,10,2:2:0:0:
187,302,192636,6,0,P|116:287|19:368,1,198.000006042481,8|8,2:1|2:1,0:0:0:0:
22,358,193165,1,10,2:2:0:0:
146,188,193342,1,8,2:1:0:0:
146,188,193430,1,8,2:2:0:0:
146,188,193518,1,10,2:1:0:0:
260,384,193695,1,8,2:1:0:0:
387,265,193871,2,0,P|338:273|289:282,1,99.0000030212403,10|8,2:2|2:1,0:0:0:0:
488,330,194224,6,0,P|496:281|505:232,1,99.0000030212403,14|0,2:1|0:0,0:0:0:0:
404,32,194577,1,10,2:2:0:0:
512,118,194753,1,10,2:1:0:0:
512,118,194842,1,8,2:2:0:0:
512,118,194930,2,0,P|464:125|389:139,1,99.0000030212403,10|10,2:1|2:1,0:0:0:0:
275,290,195283,1,10,2:2:0:0:
213,38,195459,6,0,P|262:70|264:214,1,198.000006042481,10|8,2:1|2:1,0:0:0:0:
146,368,195989,2,0,P|154:319|162:270,1,99.0000030212403,10|8,2:2|2:1,0:0:0:0:
162,270,196253,1,8,2:2:0:0:
162,270,196342,1,10,2:1:0:0:
0,57,196518,1,8,2:1:0:0:
189,135,196695,1,10,2:2:0:0:
6,266,196871,1,0,0:0:0:0:
86,44,197048,6,0,P|93:92|102:141,1,99.0000030212403,14|0,2:1|0:0,0:0:0:0:
327,30,197400,1,10,2:2:0:0:
249,228,197577,1,8,2:1:0:0:
249,228,197665,1,8,2:2:0:0:
249,228,197753,1,10,2:1:0:0:
194,31,197930,1,8,2:1:0:0:
376,131,198106,1,10,2:2:0:0:
145,288,198283,6,0,B|187:252|241:267|241:267|270:325|348:335,1,198.000006042481,12|8,2:1|2:1,0:0:0:0:
473,223,198812,2,0,P|480:174|489:125,1,99.0000030212403,10|8,2:2|2:1,0:0:0:0:
339,223,199165,1,10,2:2:0:0:
512,343,199342,1,8,2:2:0:0:
384,82,199518,1,10,2:2:0:0:
384,82,199606,1,8,2:2:0:0:
384,82,199695,2,0,L|375:130,1,49.5000015106202,8|8,2:2|2:2,0:0:0:0:
232,302,199871,6,0,B|164:301|118:337|118:337|77:336|52:297,1,198.000006042481,14|10,2:1|2:2,0:0:0:0:
157,131,200400,1,10,2:1:0:0:
157,131,200489,1,8,2:2:0:0:
157,131,200577,1,10,2:1:0:0:
5,45,200753,1,10,2:1:0:0:
114,230,200930,1,10,2:2:0:0:
263,97,201106,6,0,P|271:48|279:0,1,99.0000030212403,14|0,2:1|0:0,0:0:0:0:
345,151,201459,1,8,2:1:0:0:
88,44,201636,2,0,P|136:35|185:27,1,99.0000030212403,10|8,2:2|2:1,0:0:0:0:
185,27,201900,1,8,2:2:0:0:
185,27,201989,1,10,2:1:0:0:
355,252,202165,1,8,2:1:0:0:
157,131,202342,1,10,2:2:0:0:
377,25,202518,1,2,2:2:0:0:
253,267,202695,6,0,B|189:278|189:278|151:333|151:333|85:345,1,198.000006042481,14|10,2:1|2:2,0:0:0:0:
174,246,203224,1,10,2:1:0:0:
174,246,203312,1,8,2:2:0:0:
174,246,203400,1,10,2:1:0:0:
344,377,203577,2,0,P|295:367|246:359,1,99.0000030212403,10|10,2:1|2:2,0:0:0:0:
500,201,203930,6,0,P|437:268|326:226,1,198.000006042481,14|8,2:1|2:1,0:0:0:0:
422,15,204459,1,10,2:2:0:0:
265,114,204636,1,8,2:1:0:0:
265,114,204724,1,8,0:0:0:0:
265,114,204812,2,0,P|313:121|362:130,1,99.0000030212403,10|8,2:2|2:1,0:0:0:0:
362,130,205077,1,8,0:0:0:0:
362,130,205165,1,10,2:2:0:0:
141,180,205342,5,8,2:2:0:0:
141,180,205430,1,8,2:2:0:0:
141,180,205518,2,0,P|109:132|124:82,1,99.0000030212403,14|0,2:1|0:0,0:0:0:0:
216,0,205871,1,10,2:2:0:0:
11,122,206048,1,10,2:1:0:0:
11,122,206136,1,8,0:0:0:0:
11,122,206224,1,10,2:1:0:0:
230,237,206400,1,10,2:1:0:0:
124,82,206577,1,10,2:2:0:0:
21,332,206753,6,0,B|61:292|119:311|119:311|144:361|211:376,1,198.000006042481,14|8,2:1|2:1,0:0:0:0:
327,220,207283,2,0,P|278:229|229:236,1,99.0000030212403,10|8,2:2|2:1,0:0:0:0:
229,236,207548,1,8,2:2:0:0:
229,236,207636,1,10,2:1:0:0:
367,384,207812,1,8,2:2:0:0:
478,168,207989,2,0,P|467:216|459:265,1,99.0000030212403,10|8,2:2|2:1,0:0:0:0:
185,0,208342,5,14,2:2:0:0:
385,133,208518,1,10,2:2:0:0:
141,246,208695,1,10,2:1:0:0:
277,27,208871,6,0,P|284:75|295:124,1,99.0000030212403,14|10,2:2|2:2,0:0:0:0:
151,350,209224,2,0,P|143:301|132:252,1,99.0000030212403,10|14,2:1|2:2,0:0:0:0:
432,305,209577,6,0,P|381:252|242:279,1,198.000006042481,10|8,2:2|2:1,0:0:0:0:
75,111,210106,2,0,P|123:121|172:129,1,99.0000030212403,10|10,2:2|2:1,0:0:0:0:
172,129,210371,1,8,2:1:0:0:
172,129,210459,1,10,2:2:0:0:
0,268,210636,5,8,2:2:0:0:
47,256,210724,1,8,2:2:0:0:
93,273,210812,1,10,2:2:0:0:
122,312,210900,1,8,2:2:0:0:
151,350,210989,1,8,2:2:0:0:
197,367,211077,1,8,2:2:0:0:
244,356,211165,6,0,P|235:307|226:258,1,99.0000030212403,14|0,2:1|0:0,0:0:0:0:
397,380,211518,1,10,2:2:0:0:
480,163,211695,1,10,2:1:0:0:
480,163,211783,1,8,2:2:0:0:
480,163,211871,1,10,2:1:0:0:
329,257,212048,1,10,2:1:0:0:
512,335,212224,1,10,2:2:0:0:
374,54,212400,6,0,P|365:102|356:151,1,99.0000030212403,10|0,2:1|0:0,0:0:0:0:
267,53,212753,1,8,2:1:0:0:
426,239,212930,2,0,P|377:247|328:256,1,99.0000030212403,10|10,2:2|2:1,0:0:0:0:
328,256,213195,1,8,2:2:0:0:
328,256,213283,1,10,2:1:0:0:
105,137,213459,1,8,2:1:0:0:
274,50,213636,1,10,2:2:0:0:
201,258,213812,1,0,0:0:0:0:
9,130,213989,6,0,P|18:81|26:32,1,99.0000030212403,14|0,2:1|0:0,0:0:0:0:
208,266,214342,2,0,P|159:274|110:283,1,99.0000030212403,10|8,2:2|2:1,0:0:0:0:
110,283,214606,1,8,2:2:0:0:
110,283,214695,1,10,2:1:0:0:
210,127,214871,1,8,2:1:0:0:
310,353,215048,1,10,2:2:0:0:
478,245,215224,6,0,P|383:240|336:158,1,198.000006042481,8|8,2:1|2:1,0:0:0:0:
336,158,215753,1,10,2:2:0:0:
471,364,215930,1,8,2:1:0:0:
471,364,216018,1,8,2:2:0:0:
471,364,216106,1,10,2:1:0:0:
248,225,216283,1,8,2:1:0:0:
474,63,216459,2,0,P|464:111|456:160,1,99.0000030212403,10|8,2:2|2:1,0:0:0:0:
214,0,216812,6,0,P|224:48|232:97,1,99.0000030212403,14|0,2:1|0:0,0:0:0:0:
69,0,217165,1,10,2:2:0:0:
0,202,217342,1,10,2:1:0:0:
0,202,217430,1,8,0:0:0:0:
0,202,217518,1,10,2:1:0:0:
144,115,217695,2,0,P|95:107|46:96,1,99.0000030212403,10|10,2:1|2:2,0:0:0:0:
0,328,218048,6,0,P|64:272|179:286,1,198.000006042481,10|8,2:1|2:1,0:0:0:0:
349,379,218577,1,10,2:2:0:0:
292,188,218753,1,8,2:1:0:0:
292,188,218842,1,8,2:2:0:0:
292,188,218930,2,0,P|284:236|273:285,1,99.0000030212403,10|8,2:1|2:1,0:0:0:0:
453,384,219283,2,0,P|460:335|471:286,1,99.0000030212403,10|0,2:2|0:0,0:0:0:0:
512,69,219636,6,0,B|446:78|394:112|394:112|352:103|333:76,1,198.000006042481,14|10,2:1|2:2,0:0:0:0:
135,176,220165,1,8,2:1:0:0:
135,176,220253,1,8,2:2:0:0:
135,176,220342,2,0,P|145:127|153:78,1,99.0000030212403,10|8,2:1|2:1,0:0:0:0:
281,293,220695,6,0,P|219:272|118:353,1,198.000006042481,14|2,2:2|2:3,0:0:0:0:
120,344,221224,1,8,2:1:0:0:
250,165,221400,1,10,2:2:0:0:
46,89,221577,1,8,2:1:0:0:
185,267,221753,1,10,2:2:0:0:
301,53,221930,1,8,2:1:0:0:
301,53,222018,1,8,0:0:0:0:
301,53,222106,2,0,L|289:-10,1,49.5000015106202,10|8,2:2|2:2,0:0:0:0:
136,156,222283,5,8,2:2:0:0:
136,156,222371,1,8,2:2:0:0:
136,156,222459,2,0,P|184:163|233:174,1,99.0000030212403,14|0,2:1|0:0,0:0:0:0:
361,358,222812,1,10,2:2:0:0:
185,267,222989,1,10,2:1:0:0:
185,267,223077,1,8,2:2:0:0:
185,267,223165,1,10,2:1:0:0:
346,138,223342,2,0,P|353:186|364:235,1,99.0000030212403,10|10,2:1|2:2,0:0:0:0:
242,370,223695,6,0,P|192:316|58:329,1,198.000006042481,14|8,2:1|2:1,0:0:0:0:
213,154,224224,2,0,P|164:164|115:172,1,99.0000030212403,10|8,2:2|2:1,0:0:0:0:
115,172,224489,1,8,2:2:0:0:
115,172,224577,1,10,2:1:0:0:
270,236,224753,1,8,2:1:0:0:
37,106,224930,2,0,P|29:154|18:203,1,99.0000030212403,10|2,2:2|2:2,0:0:0:0:
251,333,225283,6,0,P|258:284|269:235,1,99.0000030212403,14|0,2:1|0:0,0:0:0:0:
431,382,225636,1,10,2:2:0:0:
509,169,225812,1,10,2:1:0:0:
509,169,225900,1,8,2:2:0:0:
509,169,225989,1,10,2:1:0:0:
367,270,226165,2,0,P|415:277|464:288,1,99.0000030212403,10|10,2:1|2:2,0:0:0:0:
355,89,226518,6,0,B|316:52|257:69|257:69|237:123|173:142,1,198.000006042481,14|8,2:1|2:1,0:0:0:0:
32,35,227048,2,0,P|80:28|129:17,1,99.0000030212403,10|8,2:2|0:0,0:0:0:0:
130,17,227312,1,8,2:2:0:0:
130,17,227401,1,10,2:2:0:0:
0,177,227577,1,8,2:1:0:0:
166,279,227753,6,0,P|169:254|174:230,1,49.5000015106202,10|8,2:1|0:0,0:0:0:0:
98,185,227930,6,0,P|94:209|89:233,1,49.5000015106202,8|8,0:0|0:0,0:0:0:0:
67,377,228106,6,0,P|110:332|247:353,1,198.000006042481,14|2,2:1|2:2,0:0:0:0:
432,281,228636,2,0,P|421:329|413:378,1,99.0000030212403,10|8,2:1|2:2,0:0:0:0:
297,180,228989,2,0,P|307:228|315:277,1,99.0000030212403,10|0,2:1|0:0,0:0:0:0:
397,68,229342,6,0,B|429:59|451:47|451:47|496:96|477:144|416:191,1,198.000006042481,14|8,2:1|2:1,0:0:0:0:
237,80,229871,1,10,2:2:0:0:
338,0,230048,1,0,0:0:0:0:
297,180,230224,2,0,P|248:187|199:198,1,99.0000030212403,10|8,2:2|2:1,0:0:0:0:
164,186,230489,1,8,0:0:0:0:
137,161,230577,1,10,2:2:0:0:
124,127,230665,1,8,2:2:0:0:
127,90,230753,1,8,2:2:0:0:
160,0,230930,5,10,2:2:0:0:
39,246,231106,1,10,2:2:0:0:
309,356,231459,5,10,2:2:0:0:
237,80,231636,1,8,2:2:0:0:
480,19,231989,5,8,2:2:0:0:
396,308,232165,1,10,2:2:0:0:
0,319,233753,5,14,2:1:0:0:
133,283,233930,1,0,0:0:0:0:
260,248,234106,1,10,2:2:0:0:
74,109,234283,5,10,2:1:0:0:
74,109,234371,1,8,2:1:0:0:
74,109,234459,2,0,P|85:167|96:220,1,90,10|10,2:1|2:1,0:0:0:0:
262,369,234812,2,0,P|273:311|284:258,1,90,10|10,2:2|2:1,0:0:0:0:
374,130,235165,5,0,0:0:0:0:
374,130,235342,1,10,2:1:0:0:
263,70,235518,1,10,2:2:0:0:
411,25,235695,1,10,2:1:0:0:
411,25,235783,1,8,2:2:0:0:
411,25,235871,1,10,2:1:0:0:
512,140,236048,1,10,2:1:0:0:
369,233,236224,2,0,P|325:220|281:211,1,90,10|10,2:2|2:1,0:0:0:0:
144,32,236577,5,14,2:1:0:0:
156,157,236753,1,0,0:0:0:0:
168,282,236930,1,10,2:2:0:0:
0,141,237106,5,10,2:1:0:0:
0,141,237195,1,8,2:2:0:0:
0,141,237283,2,0,P|43:128|87:119,1,90,10|10,2:1|2:1,0:0:0:0:
272,58,237636,1,10,2:2:0:0:
162,288,237812,6,0,B|94:277|94:277|67:243|67:243|-15:232,1,180,10|10,2:1|2:1,0:0:0:0:
248,81,238342,2,0,P|257:136|266:199,1,90,10|10,2:2|2:1,0:0:0:0:
262,169,238606,1,8,2:2:0:0:
262,169,238695,1,10,2:1:0:0:
388,253,238871,1,10,2:1:0:0:
495,158,239048,1,10,2:2:0:0:
388,253,239224,1,10,2:1:0:0:
512,382,239400,6,0,P|450:364|402:353,1,90,14|0,2:1|0:0,0:0:0:0:
203,241,239753,1,10,2:2:0:0:
473,223,239930,5,10,2:1:0:0:
473,223,240018,1,8,2:1:0:0:
473,223,240106,2,0,P|411:243|366:262,1,90,10|10,2:1|2:1,0:0:0:0:
231,384,240459,1,14,2:2:0:0:
288,200,240636,6,0,P|276:108|264:3,1,180,10|10,2:1|2:1,0:0:0:0:
36,110,241165,1,10,2:2:0:0:
189,203,241342,1,10,2:1:0:0:
189,203,241430,1,8,2:2:0:0:
189,203,241518,1,10,2:1:0:0:
302,65,241695,1,10,2:1:0:0:
79,193,241871,2,0,P|91:243|100:284,1,90,10|10,2:2|2:1,0:0:0:0:
288,165,242224,1,8,2:1:0:0:
147,27,242400,6,0,P|132:92|120:136,1,90,14|8,2:2|2:1,0:0:0:0:
34,336,242753,1,10,2:1:0:0:
375,271,242930,6,0,P|310:256|266:244,1,90,14|8,2:2|2:2,0:0:0:0:
45,117,243283,1,10,2:2:0:0:
163,320,243459,6,0,B|232:377|283:355|322:311|322:311|423:202|490:309|599:119|448:0|344:63|344:63|251:-17|91:75|156:279|240:187|322:311,1,1106.99996621704,14|0,2:1|0:0,0:0:0:0:
