osu file format v14

[General]
AudioFilename: audio.mp3
AudioLeadIn: 0
PreviewTime: 188348
Countdown: 0
SampleSet: Soft
StackLeniency: 0.4
Mode: 0
LetterboxInBreaks: 0
WidescreenStoryboard: 1

[Editor]
DistanceSpacing: 1
BeatDivisor: 4
GridSize: 32
TimelineZoom: 2.400001

[Metadata]
Title:CHASE!
TitleUnicode:CHASE!
Artist:Yuki Setsuna (CV: Kusunoki Tomori)
ArtistUnicode:優木せつ菜 (CV: 楠木ともり)
Creator:Liyuu
Version:ASAGI'S INSANE!
Source:ラブライブ!虹ヶ咲学園スクールアイドル同好会
Tags:-rielle- aquivery pile asagi ayamemymommy big sis shiwakaze kyairie red crewmate vaporfly newton- ifinixe wen wendle anime video game japanese rock love live! nijigasaki high school idol club gakuen doukoukai doukou kai nijigaku ニジガク 鈴木エレカ・JOE pop jpop jrock
BeatmapID:3928675
BeatmapSetID:1822739

[Difficulty]
HPDrainRate:5
CircleSize:3.8
OverallDifficulty:7.6
ApproachRate:9
SliderMultiplier:1.5
SliderTickRate:1

[Events]
//Background and Video events
0,0,"bgg.jpg",0,0
//Break Periods
2,94189,101683
//Storyboard Layer 0 (Background)
//Storyboard Layer 1 (Fail)
//Storyboard Layer 2 (Pass)
//Storyboard Layer 3 (Foreground)
//Storyboard Layer 4 (Overlay)
//Storyboard Sound Samples

[TimingPoints]
-599,352.941176470588,4,2,0,100,1,0
634,-100,4,2,1,50,0,0
810,-166.666666666667,4,2,2,50,0,0
1163,-166.666666666667,4,2,3,50,0,0
1340,-166.666666666667,4,2,4,50,0,0
1693,-166.666666666667,4,2,5,50,0,0
2046,-166.666666666667,4,2,6,50,0,0
2575,-166.666666666667,4,2,7,50,0,0
2751,-166.666666666667,4,2,1,50,0,0
2928,-166.666666666667,4,2,5,50,0,0
3281,-166.666666666667,4,2,8,50,0,0
3634,-166.666666666667,4,2,9,50,0,0
3987,-166.666666666667,4,2,8,50,0,0
4163,-166.666666666667,4,2,7,50,0,0
4340,-166.666666666667,4,2,1,50,0,0
4516,-166.666666666667,4,2,10,50,0,0
4693,-166.666666666667,4,2,1,50,0,0
4869,-166.666666666667,4,2,11,50,0,0
5398,-166.666666666667,4,2,12,50,0,0
5751,-166.666666666667,4,2,4,50,0,0
6104,-166.666666666667,4,2,7,50,0,0
6457,-166.666666666667,4,2,13,50,0,0
6810,-166.666666666667,4,2,3,50,0,0
6987,-166.666666666667,4,2,4,50,0,0
7340,-166.666666666667,4,2,5,50,0,0
7693,-166.666666666667,4,2,14,50,0,0
8222,-166.666666666667,4,2,7,50,0,0
8575,-166.666666666667,4,2,5,50,0,0
8928,-166.666666666667,4,2,8,50,0,0
9281,-166.666666666667,4,2,15,50,0,0
9634,-166.666666666667,4,2,1,50,0,0
10340,-166.666666666667,4,2,16,50,0,0
11046,-166.666666666667,4,2,1,50,0,0
14928,-100,4,2,1,65,0,0
15104,-100,4,2,17,65,0,0
15281,-100,4,2,18,65,0,0
15457,-100,4,2,2,65,0,0
15634,-100,4,2,3,65,0,0
15810,-100,4,2,2,65,0,0
15987,-100,4,2,19,65,0,0
16163,-100,4,2,4,65,0,0
16340,-100,4,2,2,65,0,0
16516,-100,4,2,5,65,0,0
16693,-100,4,2,20,65,0,0
16869,-100,4,2,5,65,0,0
16957,-100,4,2,1,65,0,0
17046,-100,4,2,6,65,0,0
17222,-100,4,2,5,65,0,0
17398,-100,4,2,20,65,0,0
17575,-100,4,2,5,65,0,0
17751,-100,4,2,7,65,0,0
17928,-100,4,2,17,65,0,0
18104,-100,4,2,18,65,0,0
18281,-100,4,2,2,65,0,0
18369,-100,4,2,1,65,0,0
18457,-100,4,2,3,65,0,0
18634,-100,4,2,2,65,0,0
18810,-100,4,2,19,65,0,0
18987,-100,4,2,4,65,0,0
19163,-100,4,2,2,65,0,0
19340,-100,4,2,8,65,0,0
19516,-100,4,2,21,65,0,0
19693,-100,4,2,8,65,0,0
19781,-100,4,2,1,65,0,0
19869,-100,4,2,9,65,0,0
20046,-100,4,2,8,65,0,0
20222,-100,4,2,21,65,0,0
20398,-100,4,2,8,65,0,0
20575,-100,4,2,7,65,0,0
20751,-100,4,2,17,65,0,0
20928,-100,4,2,18,65,0,0
21104,-100,4,2,2,65,0,0
21281,-100,4,2,3,65,0,0
21457,-100,4,2,2,65,0,0
21634,-100,4,2,19,65,0,0
21810,-100,4,2,4,65,0,0
21987,-100,4,2,2,65,0,0
22163,-100,4,2,5,65,0,0
22340,-100,4,2,20,65,0,0
22516,-100,4,2,5,65,0,0
22604,-100,4,2,1,65,0,0
22693,-100,4,2,6,65,0,0
22869,-100,4,2,5,65,0,0
23046,-100,4,2,20,65,0,0
23222,-100,4,2,5,65,0,0
23575,-100,4,2,22,65,0,0
23928,-100,4,2,5,65,0,0
24104,-100,4,2,22,65,0,0
24457,-100,4,2,10,65,0,0
24634,-100,4,2,11,65,0,0
24986,-100,4,2,23,65,0,0
26222,-142.857142857143,4,2,12,50,0,0
26575,-142.857142857143,4,2,3,50,0,0
27281,-142.857142857143,4,2,24,50,0,0
27457,-142.857142857143,4,2,1,50,0,0
27634,-142.857142857143,4,2,13,50,0,0
27987,-142.857142857143,4,2,3,50,0,0
28516,-142.857142857143,4,2,1,50,0,0
28693,-142.857142857143,4,2,24,50,0,0
28869,-142.857142857143,4,2,1,50,0,0
29046,-142.857142857143,4,2,13,50,0,0
29222,-142.857142857143,4,2,1,50,0,0
29398,-142.857142857143,4,2,24,50,0,0
29575,-142.857142857143,4,2,1,50,0,0
29751,-142.857142857143,4,2,3,50,0,0
29928,-142.857142857143,4,2,1,50,0,0
30104,-142.857142857143,4,2,3,50,0,0
30281,-142.857142857143,4,2,1,50,0,0
30457,-142.857142857143,4,2,13,50,0,0
30634,-142.857142857143,4,2,1,50,0,0
30810,-142.857142857143,4,2,3,50,0,0
30987,-142.857142857143,4,2,1,50,0,0
31163,-142.857142857143,4,2,3,50,0,0
31340,-142.857142857143,4,2,1,50,0,0
31516,-142.857142857143,4,2,24,50,0,0
31693,-142.857142857143,4,2,1,50,0,0
31869,-142.857142857143,4,2,14,50,0,0
32222,-142.857142857143,4,2,3,50,0,0
32928,-142.857142857143,4,2,24,50,0,0
33104,-142.857142857143,4,2,1,50,0,0
33281,-142.857142857143,4,2,13,50,0,0
33634,-142.857142857143,4,2,3,50,0,0
34163,-142.857142857143,4,2,1,50,0,0
34340,-142.857142857143,4,2,24,50,0,0
34516,-142.857142857143,4,2,1,50,0,0
34693,-142.857142857143,4,2,13,50,0,0
34869,-142.857142857143,4,2,1,50,0,0
35046,-142.857142857143,4,2,24,50,0,0
35222,-142.857142857143,4,2,1,50,0,0
35398,-142.857142857143,4,2,3,50,0,0
35575,-142.857142857143,4,2,1,50,0,0
35751,-142.857142857143,4,2,3,50,0,0
35928,-142.857142857143,4,2,12,50,0,0
36281,-142.857142857143,4,2,1,50,0,0
36634,-111.111111111111,4,2,1,50,0,0
36987,-111.111111111111,4,2,12,50,0,0
37163,-111.111111111111,4,2,1,50,0,0
37428,-111.111111111111,4,2,2,50,0,0
37516,-111.111111111111,4,2,12,60,0,0
37693,-111.111111111111,4,2,25,60,0,0
37869,-111.111111111111,4,2,1,60,0,0
38046,-111.111111111111,4,2,25,60,0,0
38222,-111.111111111111,4,2,12,60,0,0
38398,-111.111111111111,4,2,25,60,0,0
38928,-111.111111111111,4,2,1,60,0,0
39104,-111.111111111111,4,2,25,60,0,0
39281,-111.111111111111,4,2,1,60,0,0
39457,-111.111111111111,4,2,15,60,0,0
39546,-111.111111111111,4,2,1,60,0,0
39634,-111.111111111111,4,2,12,60,0,0
39810,-111.111111111111,4,2,15,60,0,0
39987,-111.111111111111,4,2,25,60,0,0
40340,-111.111111111111,4,2,1,60,0,0
40516,-111.111111111111,4,2,25,60,0,0
40693,-111.111111111111,4,2,1,60,0,0
40869,-111.111111111111,4,2,25,60,0,0
41046,-111.111111111111,4,2,12,60,0,0
41222,-111.111111111111,4,2,25,60,0,0
41751,-111.111111111111,4,2,1,60,0,0
41928,-111.111111111111,4,2,25,60,0,0
42281,-111.111111111111,4,2,15,60,0,0
42369,-111.111111111111,4,2,1,60,0,0
42634,-111.111111111111,4,2,15,60,0,0
42810,-111.111111111111,4,2,1,60,0,0
42987,-111.111111111111,4,2,15,60,0,0
43163,-111.111111111111,4,2,12,60,0,0
43340,-111.111111111111,4,2,1,60,0,0
44398,-111.111111111111,4,2,25,60,0,0
44575,-111.111111111111,4,2,1,60,0,0
45104,-111.111111111111,4,2,16,60,0,0
45193,-111.111111111111,4,2,1,60,0,0
45457,-111.111111111111,4,2,15,60,0,0
45634,-111.111111111111,4,2,1,60,0,0
45810,-111.111111111111,4,2,12,60,0,0
46163,-111.111111111111,4,2,1,60,0,0
46340,-111.111111111111,4,2,25,60,0,0
46516,-111.111111111111,4,2,1,60,0,0
46693,-111.111111111111,4,2,16,60,0,0
46869,-111.111111111111,4,2,12,60,0,0
47046,-111.111111111111,4,2,26,60,0,0
47222,-111.111111111111,4,2,12,60,0,0
47575,-111.111111111111,4,2,1,60,0,0
48281,-83.3333333333333,4,2,1,60,0,0
48810,-142.857142857143,4,2,14,55,0,0
49163,-142.857142857143,4,2,24,55,0,0
49340,-142.857142857143,4,2,12,55,0,0
49516,-142.857142857143,4,2,27,55,0,0
49693,-142.857142857143,4,2,1,55,0,0
49869,-142.857142857143,4,2,3,55,0,0
50046,-142.857142857143,4,2,12,55,0,0
50222,-142.857142857143,4,2,3,55,0,0
50398,-142.857142857143,4,2,12,55,0,0
50575,-142.857142857143,4,2,14,55,0,0
50928,-142.857142857143,4,2,28,55,0,0
51104,-142.857142857143,4,2,24,55,0,0
51457,-142.857142857143,4,2,12,55,0,0
51634,-142.857142857143,4,2,13,55,0,0
51810,-142.857142857143,4,2,1,55,0,0
51987,-142.857142857143,4,2,3,55,0,0
52163,-142.857142857143,4,2,12,55,0,0
52340,-142.857142857143,4,2,27,55,0,0
52516,-142.857142857143,4,2,1,55,0,0
52693,-142.857142857143,4,2,13,55,0,0
52869,-142.857142857143,4,2,12,55,0,0
53222,-142.857142857143,4,2,1,55,0,0
53398,-142.857142857143,4,2,14,55,0,0
53751,-142.857142857143,4,2,28,55,0,0
53928,-142.857142857143,4,2,1,55,0,0
54457,-111.111111111111,4,2,12,55,0,0
54810,-111.111111111111,4,2,24,55,0,0
55163,-111.111111111111,4,2,14,55,0,0
55516,-111.111111111111,4,2,24,55,0,0
55869,-111.111111111111,4,2,12,55,0,0
56222,-111.111111111111,4,2,27,55,0,0
56398,-111.111111111111,4,2,24,55,0,0
57281,-111.111111111111,4,2,12,55,0,0
57634,-111.111111111111,4,2,1,55,0,0
57810,-111.111111111111,4,2,12,55,0,0
58340,-111.111111111111,4,2,27,55,0,0
58516,-111.111111111111,4,2,29,55,0,0
58869,-111.111111111111,4,2,1,55,0,0
60104,-90.9090909090908,4,2,17,70,0,0
60457,-90.9090909090908,4,2,30,70,0,0
60634,-90.9090909090908,4,2,12,70,0,0
60722,-90.9090909090908,4,2,18,70,0,0
60987,-90.9090909090908,4,2,12,70,0,0
61163,-90.9090909090908,4,2,31,70,0,0
61340,-90.9090909090908,4,2,12,70,0,0
61516,-90.9090909090908,4,2,4,70,0,0
61869,-90.9090909090908,4,2,31,70,0,0
62046,-90.9090909090908,4,2,12,70,0,0
62134,-90.9090909090908,4,2,19,70,0,0
62575,-90.9090909090908,4,2,30,70,0,0
62928,-90.9090909090908,4,2,19,70,0,0
63281,-90.9090909090908,4,2,30,70,0,0
63457,-90.9090909090908,4,2,19,70,0,0
63987,-90.9090909090908,4,2,30,70,0,0
64163,-90.9090909090908,4,2,4,70,0,0
64693,-90.9090909090908,4,2,30,70,0,0
64869,-90.9090909090908,4,2,19,70,0,0
65398,-90.9090909090908,4,2,31,70,0,0
65575,-90.9090909090908,4,2,19,70,0,0
66104,-90.9090909090908,4,2,30,70,0,0
66281,-90.9090909090908,4,2,12,70,0,0
66369,-90.9090909090908,4,2,18,70,0,0
66634,-90.9090909090908,4,2,12,70,0,0
66810,-90.9090909090908,4,2,31,70,0,0
66987,-90.9090909090908,4,2,12,70,0,0
67163,-90.9090909090908,4,2,4,70,0,0
67516,-90.9090909090908,4,2,31,70,0,0
67693,-90.9090909090908,4,2,19,70,0,0
68222,-90.9090909090908,4,2,30,70,0,0
68575,-90.9090909090908,4,2,19,70,0,0
68928,-90.9090909090908,4,2,30,70,0,0
69104,-90.9090909090908,4,2,19,70,0,0
69634,-90.9090909090908,4,2,30,70,0,0
69810,-90.9090909090908,4,2,1,70,0,0
69987,-90.9090909090908,4,2,4,70,0,0
70340,-90.9090909090908,4,2,30,70,0,0
70516,-90.9090909090908,4,2,1,70,0,0
70693,-90.9090909090908,4,2,30,70,0,0
70869,-90.9090909090908,4,2,1,70,0,0
71046,-90.9090909090908,4,2,31,70,0,0
71398,-90.9090909090908,4,2,19,70,0,0
71751,-90.9090909090908,4,2,30,70,0,0
71928,-90.9090909090908,4,2,12,70,0,0
72016,-90.9090909090908,4,2,18,70,0,0
72281,-90.9090909090908,4,2,12,70,0,0
72457,-90.9090909090908,4,2,31,70,0,0
72634,-90.9090909090908,4,2,12,70,0,0
72810,-90.9090909090908,4,2,4,70,0,0
73163,-90.9090909090908,4,2,30,70,0,0
73340,-90.9090909090908,4,2,19,70,0,0
73869,-90.9090909090908,4,2,31,70,0,0
74046,-90.9090909090908,4,2,1,70,0,0
74222,-90.9090909090908,4,2,19,70,0,0
74575,-90.9090909090908,4,2,30,70,0,0
74751,-90.9090909090908,4,2,12,70,0,0
74840,-90.9090909090908,4,2,18,70,0,0
75104,-90.9090909090908,4,2,12,70,0,0
75281,-90.9090909090908,4,2,31,70,0,0
75457,-90.9090909090908,4,2,12,70,0,0
75634,-90.9090909090908,4,2,4,70,0,0
75987,-90.9090909090908,4,2,30,70,0,0
76163,-90.9090909090908,4,2,1,70,0,0
76340,-90.9090909090908,4,2,32,70,0,0
76516,-90.9090909090908,4,2,18,70,0,0
77046,-90.9090909090908,4,2,20,70,0,0
77398,-90.9090909090908,4,2,24,70,0,0
77575,-90.9090909090908,4,2,12,70,0,0
77751,-90.9090909090908,4,2,1,70,0,0
77928,-90.9090909090908,4,2,12,70,0,0
78810,-90.9090909090908,4,2,27,70,0,0
79163,-90.9090909090908,4,2,1,70,0,0
79869,-90.9090909090908,4,2,29,70,0,0
82693,-100,4,2,1,65,0,0
82869,-100,4,2,17,65,0,0
83046,-100,4,2,18,65,0,0
83222,-100,4,2,2,65,0,0
83398,-100,4,2,3,65,0,0
83575,-100,4,2,2,65,0,0
83751,-100,4,2,19,65,0,0
83928,-100,4,2,4,65,0,0
84104,-100,4,2,2,65,0,0
84281,-100,4,2,5,65,0,0
84457,-100,4,2,20,65,0,0
84634,-100,4,2,5,65,0,0
84722,-100,4,2,1,65,0,0
84810,-100,4,2,6,65,0,0
84987,-100,4,2,5,65,0,0
85163,-100,4,2,20,65,0,0
85340,-100,4,2,5,65,0,0
85516,-100,4,2,7,65,0,0
85692,-100,4,2,17,65,0,0
85869,-100,4,2,18,65,0,0
86046,-100,4,2,2,65,0,0
86134,-100,4,2,1,65,0,0
86222,-100,4,2,3,65,0,0
86398,-100,4,2,2,65,0,0
86575,-100,4,2,19,65,0,0
86751,-100,4,2,4,65,0,0
86928,-100,4,2,2,65,0,0
87104,-100,4,2,8,65,0,0
87281,-100,4,2,21,65,0,0
87457,-100,4,2,8,65,0,0
87546,-100,4,2,1,65,0,0
87634,-100,4,2,9,65,0,0
87810,-100,4,2,8,65,0,0
87987,-100,4,2,21,65,0,0
88163,-100,4,2,8,65,0,0
88340,-100,4,2,7,65,0,0
88516,-100,4,2,17,65,0,0
88693,-100,4,2,18,65,0,0
88869,-100,4,2,2,65,0,0
89046,-100,4,2,3,65,0,0
89222,-100,4,2,2,65,0,0
89398,-100,4,2,19,65,0,0
89575,-100,4,2,4,65,0,0
89751,-100,4,2,2,65,0,0
89928,-100,4,2,5,65,0,0
90104,-100,4,2,20,65,0,0
90281,-100,4,2,5,65,0,0
90369,-100,4,2,1,65,0,0
90457,-100,4,2,6,65,0,0
90634,-100,4,2,5,65,0,0
90810,-100,4,2,20,65,0,0
90987,-100,4,2,5,65,0,0
91340,-100,4,2,22,65,0,0
91693,-100,4,2,5,65,0,0
91869,-100,4,2,22,65,0,0
92222,-100,4,2,10,65,0,0
92398,-100,4,2,11,65,0,0
92751,-100,4,2,23,65,0,0
93987,-100,4,2,12,50,0,0
95046,-100,4,2,1,50,0,0
102281,-125,4,2,12,50,0,0
102457,-125,4,2,29,60,0,0
102634,-125,4,2,29,40,0,0
102810,-125,4,2,29,45,0,0
102987,-125,4,2,29,50,0,0
103163,-125,4,2,29,55,0,0
103340,-125,4,2,29,60,0,0
103516,-125,4,2,29,65,0,0
103693,-125,4,2,14,50,0,0
104046,-125,4,2,1,50,0,0
104398,-111.111111111111,4,2,1,50,0,0
104751,-111.111111111111,4,2,12,50,0,0
104928,-111.111111111111,4,2,1,50,0,0
105193,-111.111111111111,4,2,2,50,0,0
105281,-111.111111111111,4,2,12,60,0,0
105457,-111.111111111111,4,2,25,60,0,0
105634,-111.111111111111,4,2,1,60,0,0
105810,-111.111111111111,4,2,25,60,0,0
105987,-111.111111111111,4,2,12,60,0,0
106163,-111.111111111111,4,2,25,60,0,0
106693,-111.111111111111,4,2,1,60,0,0
106869,-111.111111111111,4,2,25,60,0,0
107046,-111.111111111111,4,2,1,60,0,0
107222,-111.111111111111,4,2,15,60,0,0
107310,-111.111111111111,4,2,1,60,0,0
107398,-111.111111111111,4,2,12,60,0,0
107575,-111.111111111111,4,2,15,60,0,0
107751,-111.111111111111,4,2,25,60,0,0
108104,-111.111111111111,4,2,1,60,0,0
108281,-111.111111111111,4,2,25,60,0,0
108457,-111.111111111111,4,2,1,60,0,0
108634,-111.111111111111,4,2,25,60,0,0
108722,-111.111111111111,4,2,1,60,0,0
108810,-111.111111111111,4,2,12,60,0,0
108987,-111.111111111111,4,2,25,60,0,0
109516,-111.111111111111,4,2,1,60,0,0
109693,-111.111111111111,4,2,25,60,0,0
110046,-111.111111111111,4,2,15,60,0,0
110134,-111.111111111111,4,2,1,60,0,0
110398,-111.111111111111,4,2,15,60,0,0
110575,-111.111111111111,4,2,1,60,0,0
110751,-111.111111111111,4,2,15,60,0,0
110928,-111.111111111111,4,2,12,60,0,0
111104,-111.111111111111,4,2,1,60,0,0
112163,-111.111111111111,4,2,25,60,0,0
112340,-111.111111111111,4,2,1,60,0,0
112869,-111.111111111111,4,2,16,60,0,0
112957,-111.111111111111,4,2,1,60,0,0
113222,-111.111111111111,4,2,15,60,0,0
113398,-111.111111111111,4,2,1,60,0,0
113575,-111.111111111111,4,2,12,60,0,0
113928,-111.111111111111,4,2,1,60,0,0
114104,-111.111111111111,4,2,25,60,0,0
114281,-111.111111111111,4,2,1,60,0,0
114457,-111.111111111111,4,2,16,60,0,0
114634,-111.111111111111,4,2,12,60,0,0
114810,-111.111111111111,4,2,26,60,0,0
114987,-111.111111111111,4,2,12,60,0,0
115340,-111.111111111111,4,2,1,60,0,0
116222,-83.3333333333333,4,2,1,60,0,0
116575,-142.857142857143,4,2,14,55,0,0
116928,-142.857142857143,4,2,24,55,0,0
117104,-142.857142857143,4,2,12,55,0,0
117281,-142.857142857143,4,2,27,55,0,0
117457,-142.857142857143,4,2,1,55,0,0
117634,-142.857142857143,4,2,3,55,0,0
117810,-142.857142857143,4,2,12,55,0,0
117987,-142.857142857143,4,2,3,55,0,0
118163,-142.857142857143,4,2,12,55,0,0
118340,-142.857142857143,4,2,14,55,0,0
118693,-142.857142857143,4,2,28,55,0,0
118869,-142.857142857143,4,2,24,55,0,0
119222,-142.857142857143,4,2,12,55,0,0
119398,-142.857142857143,4,2,13,55,0,0
119575,-142.857142857143,4,2,1,55,0,0
119751,-142.857142857143,4,2,3,55,0,0
119928,-142.857142857143,4,2,12,55,0,0
120104,-142.857142857143,4,2,27,55,0,0
120281,-142.857142857143,4,2,1,55,0,0
120457,-142.857142857143,4,2,14,55,0,0
120634,-142.857142857143,4,2,12,55,0,0
120987,-142.857142857143,4,2,1,55,0,0
121163,-142.857142857143,4,2,14,55,0,0
121516,-142.857142857143,4,2,28,55,0,0
121693,-142.857142857143,4,2,1,55,0,0
122222,-111.111111111111,4,2,12,55,0,0
122575,-111.111111111111,4,2,24,55,0,0
122928,-111.111111111111,4,2,14,55,0,0
123281,-111.111111111111,4,2,24,55,0,0
123634,-111.111111111111,4,2,12,55,0,0
123987,-111.111111111111,4,2,27,55,0,0
124163,-111.111111111111,4,2,24,55,0,0
125046,-111.111111111111,4,2,12,55,0,0
125398,-111.111111111111,4,2,1,55,0,0
125575,-111.111111111111,4,2,12,55,0,0
126104,-111.111111111111,4,2,27,55,0,0
126281,-111.111111111111,4,2,29,55,0,0
126634,-111.111111111111,4,2,1,55,0,0
127869,-90.9090909090909,4,2,17,70,0,0
128222,-90.9090909090909,4,2,30,70,0,0
128398,-90.9090909090909,4,2,12,70,0,0
128487,-90.9090909090909,4,2,18,70,0,0
128751,-90.9090909090909,4,2,12,70,0,0
128928,-90.9090909090909,4,2,31,70,0,0
129104,-90.9090909090909,4,2,12,70,0,0
129281,-90.9090909090909,4,2,4,70,0,0
129634,-90.9090909090909,4,2,31,70,0,0
129810,-90.9090909090909,4,2,12,70,0,0
129898,-90.9090909090909,4,2,19,70,0,0
130340,-90.9090909090909,4,2,30,70,0,0
130693,-90.9090909090909,4,2,19,70,0,0
131046,-90.9090909090909,4,2,30,70,0,0
131222,-90.9090909090909,4,2,19,70,0,0
131751,-90.9090909090909,4,2,30,70,0,0
131928,-90.9090909090909,4,2,4,70,0,0
132457,-90.9090909090909,4,2,30,70,0,0
132634,-90.9090909090909,4,2,19,70,0,0
133163,-90.9090909090909,4,2,31,70,0,0
133340,-90.9090909090909,4,2,19,70,0,0
133869,-90.9090909090909,4,2,30,70,0,0
134046,-90.9090909090909,4,2,12,70,0,0
134134,-90.9090909090909,4,2,18,70,0,0
134398,-90.9090909090909,4,2,12,70,0,0
134575,-90.9090909090909,4,2,31,70,0,0
134751,-90.9090909090909,4,2,12,70,0,0
134928,-90.9090909090909,4,2,4,70,0,0
135281,-90.9090909090909,4,2,31,70,0,0
135457,-90.9090909090909,4,2,19,70,0,0
135987,-90.9090909090909,4,2,30,70,0,0
136340,-90.9090909090909,4,2,19,70,0,0
136693,-90.9090909090909,4,2,30,70,0,0
136869,-90.9090909090909,4,2,19,70,0,0
137398,-90.9090909090909,4,2,30,70,0,0
137575,-90.9090909090909,4,2,1,70,0,0
137751,-90.9090909090909,4,2,4,70,0,0
138104,-90.9090909090909,4,2,30,70,0,0
138281,-90.9090909090909,4,2,1,70,0,0
138457,-90.9090909090909,4,2,30,70,0,0
138634,-90.9090909090909,4,2,2,70,0,0
138722,-90.9090909090909,4,2,31,70,0,0
139163,-90.9090909090909,4,2,19,70,0,0
139516,-90.9090909090909,4,2,30,70,0,0
139693,-90.9090909090909,4,2,12,70,0,0
139781,-90.9090909090909,4,2,18,70,0,0
140046,-90.9090909090909,4,2,12,70,0,0
140222,-90.9090909090909,4,2,31,70,0,0
140398,-90.9090909090909,4,2,12,70,0,0
140575,-90.9090909090909,4,2,4,70,0,0
140928,-90.9090909090909,4,2,30,70,0,0
141104,-90.9090909090909,4,2,19,70,0,0
141634,-90.9090909090909,4,2,31,70,0,0
141810,-90.9090909090909,4,2,1,70,0,0
141987,-90.9090909090909,4,2,19,70,0,0
142163,-90.9090909090909,4,2,1,70,0,0
142340,-90.9090909090909,4,2,30,70,0,0
142516,-90.9090909090909,4,2,12,70,0,0
142604,-90.9090909090909,4,2,18,70,0,0
142869,-90.9090909090909,4,2,12,70,0,0
143046,-90.9090909090909,4,2,31,70,0,0
143222,-90.9090909090909,4,2,12,70,0,0
143398,-90.9090909090909,4,2,4,70,0,0
143751,-90.9090909090909,4,2,30,70,0,0
143928,-90.9090909090909,4,2,1,70,0,0
144104,-90.9090909090909,4,2,32,70,0,0
144281,-90.9090909090909,4,2,18,70,0,0
144810,-90.9090909090909,4,2,20,70,0,0
145163,-90.9090909090909,4,2,24,70,0,0
145340,-90.9090909090909,4,2,12,70,0,0
145516,-90.9090909090909,4,2,1,70,0,0
145693,-90.9090909090909,4,2,12,70,0,0
146575,-90.9090909090909,4,2,27,70,0,0
146751,-90.9090909090909,4,2,1,70,0,0
147634,-90.9090909090909,4,2,29,70,0,0
150104,-90.9090909090909,4,2,21,70,0,0
150457,-90.9090909090909,4,2,21,65,0,0
150810,-90.9090909090909,4,2,31,65,0,0
150987,-90.9090909090909,4,2,18,65,0,0
151516,-90.9090909090909,4,2,30,65,0,0
151604,-90.9090909090909,4,2,1,65,0,0
151693,-90.9090909090909,4,2,12,65,0,0
151781,-90.9090909090909,4,2,1,65,0,0
151869,-90.9090909090909,4,2,30,65,0,0
152046,-90.9090909090909,4,2,12,65,0,0
152222,-90.9090909090909,4,2,30,65,0,0
152398,-90.9090909090909,4,2,12,65,0,0
152487,-90.9090909090909,4,2,18,65,0,0
152751,-90.9090909090909,4,2,12,65,0,0
152928,-90.9090909090909,4,2,31,65,0,0
153281,-90.9090909090909,4,2,19,65,0,0
153457,-90.9090909090909,4,2,1,65,0,0
153634,-90.9090909090909,4,2,30,65,0,0
153810,-90.9090909090909,4,2,12,65,0,0
153898,-90.9090909090909,4,2,19,65,0,0
154163,-90.9090909090909,4,2,12,65,0,0
154340,-90.9090909090909,4,2,30,65,0,0
154516,-90.9090909090909,4,2,12,65,0,0
154693,-90.9090909090909,4,2,4,65,0,0
154869,-90.9090909090909,4,2,12,65,0,0
155046,-90.9090909090909,4,2,30,65,0,0
155222,-90.9090909090909,4,2,12,65,0,0
155310,-90.9090909090909,4,2,19,65,0,0
155575,-90.9090909090909,4,2,1,65,0,0
155751,-90.9090909090909,4,2,19,65,0,0
155928,-90.9090909090909,4,2,1,65,0,0
156104,-90.9090909090909,4,2,19,65,0,0
156193,-90.9090909090909,4,2,1,65,0,0
156457,-90.9090909090909,4,2,30,65,0,0
156546,-90.9090909090909,4,2,1,65,0,0
156634,-90.9090909090909,4,2,12,65,0,0
156722,-90.9090909090909,4,2,1,65,0,0
156810,-90.9090909090909,4,2,19,65,0,0
156898,-90.9090909090909,4,2,1,65,0,0
156987,-90.9090909090909,4,2,12,65,0,0
157075,-90.9090909090909,4,2,1,65,0,0
157163,-90.9090909090909,4,2,30,65,0,0
157251,-90.9090909090909,4,2,1,65,0,0
157340,-90.9090909090909,4,2,12,65,0,0
157428,-90.9090909090909,4,2,1,65,0,0
157516,-90.9090909090909,4,2,30,65,0,0
157604,-90.9090909090909,4,2,1,65,0,0
157693,-90.9090909090909,4,2,12,65,0,0
157781,-90.9090909090909,4,2,1,65,0,0
157869,-90.9090909090909,4,2,30,65,0,0
157957,-90.9090909090909,4,2,1,65,0,0
158046,-90.9090909090909,4,2,12,65,0,0
158134,-90.9090909090909,4,2,1,65,0,0
158222,-90.9090909090909,4,2,19,65,0,0
158310,-90.9090909090909,4,2,1,65,0,0
158398,-90.9090909090909,4,2,12,65,0,0
158487,-90.9090909090909,4,2,1,65,0,0
158575,-90.9090909090909,4,2,30,65,0,0
158663,-90.9090909090909,4,2,1,65,0,0
158928,-90.9090909090909,4,2,19,65,0,0
159016,-90.9090909090909,4,2,1,65,0,0
159281,-90.9090909090909,4,2,30,65,0,0
159369,-90.9090909090909,4,2,1,65,0,0
159457,-90.9090909090909,4,2,12,65,0,0
159546,-90.9090909090909,4,2,1,65,0,0
159634,-90.9090909090909,4,2,19,65,0,0
159722,-90.9090909090909,4,2,1,65,0,0
159810,-90.9090909090909,4,2,12,65,0,0
159898,-90.9090909090909,4,2,1,65,0,0
159987,-90.9090909090909,4,2,30,65,0,0
160075,-90.9090909090909,4,2,1,65,0,0
160163,-90.9090909090909,4,2,12,65,0,0
160251,-90.9090909090909,4,2,1,65,0,0
160340,-90.9090909090909,4,2,30,65,0,0
160428,-90.9090909090909,4,2,1,65,0,0
160516,-90.9090909090909,4,2,12,65,0,0
160604,-90.9090909090909,4,2,1,65,0,0
160693,-90.9090909090909,4,2,30,65,0,0
160781,-90.9090909090909,4,2,1,65,0,0
160869,-90.9090909090909,4,2,12,65,0,0
160957,-90.9090909090909,4,2,1,65,0,0
161046,-90.9090909090909,4,2,19,65,0,0
161134,-90.9090909090909,4,2,1,65,0,0
161222,-90.9090909090909,4,2,12,65,0,0
161310,-90.9090909090909,4,2,1,65,0,0
161398,-90.9090909090909,4,2,30,65,0,0
161487,-90.9090909090909,4,2,1,65,0,0
161751,-90.9090909090909,4,2,12,65,0,0
161928,-90.9090909090909,4,2,29,65,0,0
162104,-90.9090909090909,4,2,12,65,0,0
162457,-90.9090909090909,4,2,29,65,0,0
162634,-90.9090909090909,4,2,12,65,0,0
162987,-90.9090909090909,4,2,20,65,0,0
163516,-90.9090909090909,4,2,1,65,0,0
164222,-90.9090909090909,4,2,5,65,0,0
164398,-90.9090909090909,4,2,1,65,0,0
164575,-125,4,2,13,55,0,0
164928,-125,4,2,3,55,0,0
165281,-125,4,2,24,55,0,0
165457,-125,4,2,1,55,0,0
165634,-125,4,2,24,55,0,0
165810,-125,4,2,12,55,0,0
165987,-125,4,2,3,55,0,0
166163,-125,4,2,12,55,0,0
166340,-125,4,2,14,55,0,0
166516,-125,4,2,1,55,0,0
166693,-125,4,2,28,55,0,0
166869,-125,4,2,12,55,0,0
167046,-125,4,2,3,55,0,0
167222,-125,4,2,12,55,0,0
167751,-125,4,2,3,55,0,0
167928,-125,4,2,12,55,0,0
168104,-125,4,2,27,55,0,0
168281,-125,4,2,1,55,0,0
168457,-125,4,2,3,55,0,0
168634,-125,4,2,12,55,0,0
168810,-125,4,2,3,55,0,0
168987,-125,4,2,1,55,0,0
169163,-125,4,2,14,55,0,0
169340,-125,4,2,1,55,0,0
169516,-125,4,2,28,55,0,0
169693,-125,4,2,12,55,0,0
169869,-125,4,2,3,55,0,0
170046,-125,4,2,12,55,0,0
170398,-125,4,2,1,55,0,0
170575,-125,4,2,14,55,0,0
170751,-125,4,2,12,55,0,0
170928,-125,4,2,24,55,0,0
171104,-125,4,2,12,55,0,0
171281,-125,4,2,3,55,0,0
171457,-125,4,2,12,55,0,0
171810,-125,4,2,1,55,0,0
171987,-125,4,2,14,55,0,0
172163,-125,4,2,1,55,0,0
172340,-125,4,2,33,55,0,0
172516,-125,4,2,12,55,0,0
172693,-125,4,2,3,55,0,0
172869,-125,4,2,1,55,0,0
173046,-125,4,2,12,55,0,0
173398,-125,4,2,24,55,0,0
174281,-125,4,2,24,55,0,0
174457,-125,4,2,12,55,0,0
174634,-125,4,2,1,55,0,0
174810,-125,4,2,13,55,0,0
175163,-125,4,2,33,55,0,0
175340,-125,4,2,1,55,0,0
175693,-111.111111111111,4,2,12,60,0,0
176222,-111.111111111111,4,2,24,60,0,0
176398,-111.111111111111,4,2,12,60,0,0
176575,-111.111111111111,4,2,3,60,0,0
176751,-111.111111111111,4,2,12,60,0,0
176928,-111.111111111111,4,2,27,60,0,0
177104,-111.111111111111,4,2,12,60,0,0
177281,-111.111111111111,4,2,3,60,0,0
177634,-111.111111111111,4,2,27,60,0,0
177810,-111.111111111111,4,2,1,60,0,0
177987,-111.111111111111,4,2,14,60,0,0
178163,-111.111111111111,4,2,12,60,0,0
178340,-111.111111111111,4,2,24,60,0,0
178516,-111.111111111111,4,2,12,60,0,0
179046,-111.111111111111,4,2,27,60,0,0
179222,-111.111111111111,4,2,12,60,0,0
179398,-111.111111111111,4,2,3,60,0,0
179575,-111.111111111111,4,2,12,60,0,0
179751,-111.111111111111,4,2,27,60,0,0
179928,-111.111111111111,4,2,12,60,0,0
180457,-111.111111111111,4,2,24,60,0,0
180810,-111.111111111111,4,2,13,60,0,0
181163,-111.111111111111,4,2,24,60,0,0
181516,-111.111111111111,4,2,12,60,0,0
181869,-111.111111111111,4,2,24,60,0,0
182222,-111.111111111111,4,2,14,60,0,0
182575,-111.111111111111,4,2,24,60,0,0
182928,-111.111111111111,4,2,12,60,0,0
183281,-111.111111111111,4,2,27,60,0,0
183457,-111.111111111111,4,2,1,60,0,0
183634,-111.111111111111,4,2,14,60,0,0
183987,-111.111111111111,4,2,24,60,0,0
184340,-111.111111111111,4,2,12,60,0,0
184693,-111.111111111111,4,2,29,60,0,0
184869,-111.111111111111,4,2,12,60,0,0
185398,-111.111111111111,4,2,29,60,0,0
186457,-111.111111111111,4,2,1,30,0,0
186810,-111.111111111111,4,2,1,40,0,0
187163,-111.111111111111,4,2,1,45,0,0
187340,-111.111111111111,4,2,1,50,0,0
187516,-111.111111111111,4,2,1,55,0,0
187693,-111.111111111111,4,2,1,60,0,0
187869,-111.111111111111,4,2,29,60,0,0
188575,-90.9090909090909,4,2,12,60,0,0
188928,-90.9090909090909,4,2,1,60,0,0
189104,-76.9230769230769,4,2,12,60,0,0
189810,-125,4,2,12,60,0,0
190693,-125,4,2,1,60,0,0
191310,-125,4,2,2,60,0,0
191398,-90.9090909090908,4,2,17,70,0,0
191751,-90.9090909090908,4,2,30,70,0,0
191928,-90.9090909090908,4,2,19,70,0,0
192457,-90.9090909090908,4,2,30,70,0,0
192634,-90.9090909090908,4,2,4,70,0,0
193163,-90.9090909090908,4,2,30,70,0,0
193340,-90.9090909090908,4,2,19,70,0,0
193869,-90.9090909090908,4,2,31,70,0,0
194046,-90.9090909090908,4,2,19,70,0,0
194575,-90.9090909090908,4,2,30,70,0,0
194751,-90.9090909090908,4,2,12,70,0,0
194840,-90.9090909090908,4,2,18,70,0,0
195104,-90.9090909090908,4,2,12,70,0,0
195281,-90.9090909090908,4,2,31,70,0,0
195457,-90.9090909090908,4,2,12,70,0,0
195634,-90.9090909090908,4,2,4,70,0,0
195987,-90.9090909090908,4,2,31,70,0,0
196163,-90.9090909090908,4,2,19,70,0,0
196693,-90.9090909090908,4,2,30,70,0,0
197046,-90.9090909090908,4,2,19,70,0,0
197398,-90.9090909090908,4,2,30,70,0,0
197575,-90.9090909090908,4,2,19,70,0,0
198104,-90.9090909090908,4,2,30,70,0,0
198281,-90.9090909090908,4,2,1,70,0,0
198457,-90.9090909090908,4,2,4,70,0,0
198810,-90.9090909090908,4,2,30,70,0,0
198987,-90.9090909090908,4,2,1,70,0,0
199163,-90.9090909090908,4,2,30,70,0,0
199340,-90.9090909090908,4,2,2,70,0,0
199516,-90.9090909090908,4,2,31,70,0,0
199869,-90.9090909090908,4,2,19,70,0,0
200222,-90.9090909090908,4,2,30,70,0,0
200398,-90.9090909090908,4,2,12,70,0,0
200487,-90.9090909090908,4,2,18,70,0,0
200751,-90.9090909090908,4,2,12,70,0,0
200928,-90.9090909090908,4,2,31,70,0,0
201104,-90.9090909090908,4,2,12,70,0,0
201281,-90.9090909090908,4,2,4,70,0,0
201634,-90.9090909090908,4,2,30,70,0,0
201810,-90.9090909090908,4,2,19,70,0,0
202340,-90.9090909090908,4,2,31,70,0,0
202516,-90.9090909090908,4,2,1,70,0,0
202693,-90.9090909090908,4,2,19,70,0,0
203046,-90.9090909090908,4,2,30,70,0,0
203222,-90.9090909090908,4,2,12,70,0,0
203310,-90.9090909090908,4,2,18,70,0,0
203575,-90.9090909090908,4,2,12,70,0,0
203751,-90.9090909090908,4,2,31,70,0,0
203928,-90.9090909090908,4,2,12,70,0,0
204104,-90.9090909090908,4,2,4,70,0,0
204457,-90.9090909090908,4,2,30,70,0,0
204634,-90.9090909090908,4,2,1,70,0,0
204810,-90.9090909090908,4,2,32,70,0,0
204987,-90.9090909090908,4,2,1,70,0,0
205163,-90.9090909090908,4,2,34,70,0,0
205340,-90.9090909090908,4,2,19,70,0,0
205869,-90.9090909090908,4,2,30,70,0,0
206046,-90.9090909090908,4,2,12,70,0,0
206134,-90.9090909090908,4,2,18,70,0,0
206398,-90.9090909090908,4,2,12,70,0,0
206575,-90.9090909090908,4,2,31,70,0,0
206751,-90.9090909090908,4,2,12,70,0,0
206928,-90.9090909090908,4,2,4,70,0,0
207281,-90.9090909090908,4,2,31,70,0,0
207457,-90.9090909090908,4,2,19,70,0,0
207987,-90.9090909090908,4,2,30,70,0,0
208163,-90.9090909090908,4,2,1,70,0,0
208340,-90.9090909090908,4,2,35,70,0,0
208516,-90.9090909090908,4,2,29,70,0,0
208693,-90.9090909090908,4,2,22,70,0,0
208869,-90.9090909090908,4,2,29,70,0,0
209046,-90.9090909090908,4,2,36,70,0,0
209222,-90.9090909090908,4,2,12,70,0,0
209398,-90.9090909090908,4,2,36,70,0,0
209575,-90.9090909090908,4,2,29,70,0,0
209751,-90.9090909090908,4,2,6,70,0,0
210104,-90.9090909090908,4,2,37,70,0,0
210281,-90.9090909090908,4,2,12,70,0,0
210457,-90.9090909090908,4,2,38,70,0,0
210810,-90.9090909090908,4,2,37,70,0,0
211163,-86.9565217391304,4,2,17,70,0,0
211516,-86.9565217391304,4,2,30,70,0,0
211693,-86.9565217391304,4,2,12,70,0,0
211781,-86.9565217391304,4,2,18,70,0,0
212046,-86.9565217391304,4,2,12,70,0,0
212222,-86.9565217391304,4,2,31,70,0,0
212398,-86.9565217391304,4,2,12,70,0,0
212575,-86.9565217391304,4,2,4,70,0,0
212928,-86.9565217391304,4,2,31,70,0,0
213104,-86.9565217391304,4,2,12,70,0,0
213193,-86.9565217391304,4,2,19,70,0,0
213634,-86.9565217391304,4,2,30,70,0,0
213987,-86.9565217391304,4,2,19,70,0,0
214340,-86.9565217391304,4,2,30,70,0,0
214516,-86.9565217391304,4,2,19,70,0,0
215046,-86.9565217391304,4,2,30,70,0,0
215222,-86.9565217391304,4,2,4,70,0,0
215751,-86.9565217391304,4,2,30,70,0,0
215928,-86.9565217391304,4,2,19,70,0,0
216457,-86.9565217391304,4,2,31,70,0,0
216634,-86.9565217391304,4,2,19,70,0,0
217163,-86.9565217391304,4,2,30,70,0,0
217340,-86.9565217391304,4,2,12,70,0,0
217428,-86.9565217391304,4,2,18,70,0,0
217693,-86.9565217391304,4,2,12,70,0,0
217869,-86.9565217391304,4,2,31,70,0,0
218046,-86.9565217391304,4,2,12,70,0,0
218222,-86.9565217391304,4,2,4,70,0,0
218575,-86.9565217391304,4,2,31,70,0,0
218751,-86.9565217391304,4,2,19,70,0,0
219281,-86.9565217391304,4,2,30,70,0,0
219634,-86.9565217391304,4,2,19,70,0,0
219987,-86.9565217391304,4,2,30,70,0,0
220163,-86.9565217391304,4,2,19,70,0,0
220693,-86.9565217391304,4,2,30,70,0,0
220869,-86.9565217391304,4,2,4,70,0,0
221398,-86.9565217391304,4,2,30,70,0,0
221575,-86.9565217391304,4,2,1,70,0,0
221751,-86.9565217391304,4,2,30,70,0,0
221928,-86.9565217391304,4,2,1,70,0,0
222104,-86.9565217391304,4,2,31,70,0,0
222457,-86.9565217391304,4,2,19,70,0,0
222810,-86.9565217391304,4,2,30,70,0,0
222987,-86.9565217391304,4,2,12,70,0,0
223075,-86.9565217391304,4,2,18,70,0,0
223340,-86.9565217391304,4,2,12,70,0,0
223516,-86.9565217391304,4,2,31,70,0,0
223693,-86.9565217391304,4,2,12,70,0,0
223869,-86.9565217391304,4,2,4,70,0,0
224222,-86.9565217391304,4,2,30,70,0,0
224398,-86.9565217391304,4,2,19,70,0,0
224928,-86.9565217391304,4,2,31,70,0,0
225104,-86.9565217391304,4,2,1,70,0,0
225281,-86.9565217391304,4,2,19,70,0,0
225634,-86.9565217391304,4,2,30,70,0,0
225810,-86.9565217391304,4,2,12,70,0,0
225898,-86.9565217391304,4,2,18,70,0,0
226163,-86.9565217391304,4,2,12,70,0,0
226340,-86.9565217391304,4,2,31,70,0,0
226516,-86.9565217391304,4,2,12,70,0,0
226693,-86.9565217391304,4,2,4,70,0,0
227046,-86.9565217391304,4,2,30,70,0,0
227222,-86.9565217391304,4,2,1,70,0,0
227398,-86.9565217391304,4,2,32,70,0,0
227575,-86.9565217391304,4,2,18,70,0,0
228104,-86.9565217391304,4,2,20,70,0,0
228457,-86.9565217391304,4,2,24,70,0,0
228634,-86.9565217391304,4,2,12,70,0,0
228810,-86.9565217391304,4,2,1,70,0,0
228987,-86.9565217391304,4,2,12,70,0,0
229869,-86.9565217391304,4,2,27,70,0,0
230222,-86.9565217391304,4,2,1,70,0,0
230928,-86.9565217391304,4,2,29,70,0,0
233751,-100,4,2,1,65,0,0
233928,-100,4,2,17,65,0,0
234104,-100,4,2,18,65,0,0
234281,-100,4,2,2,65,0,0
234457,-100,4,2,3,65,0,0
234634,-100,4,2,2,65,0,0
234810,-100,4,2,19,65,0,0
234987,-100,4,2,4,65,0,0
235163,-100,4,2,2,65,0,0
235340,-100,4,2,5,65,0,0
235516,-100,4,2,20,65,0,0
235693,-100,4,2,5,65,0,0
235781,-100,4,2,1,65,0,0
235869,-100,4,2,6,65,0,0
236046,-100,4,2,5,65,0,0
236222,-100,4,2,20,65,0,0
236398,-100,4,2,5,65,0,0
236575,-100,4,2,7,65,0,0
236751,-100,4,2,17,65,0,0
236928,-100,4,2,18,65,0,0
237104,-100,4,2,2,65,0,0
237193,-100,4,2,1,65,0,0
237281,-100,4,2,3,65,0,0
237457,-100,4,2,2,65,0,0
237634,-100,4,2,19,65,0,0
237810,-100,4,2,4,65,0,0
237987,-100,4,2,2,65,0,0
238163,-100,4,2,8,65,0,0
238340,-100,4,2,21,65,0,0
238516,-100,4,2,8,65,0,0
238604,-100,4,2,1,65,0,0
238693,-100,4,2,9,65,0,0
238869,-100,4,2,8,65,0,0
239046,-100,4,2,21,65,0,0
239222,-100,4,2,8,65,0,0
239398,-100,4,2,7,65,0,0
239575,-100,4,2,17,65,0,0
239751,-100,4,2,18,65,0,0
239928,-100,4,2,2,65,0,0
240104,-100,4,2,3,65,0,0
240281,-100,4,2,2,65,0,0
240457,-100,4,2,19,65,0,0
240634,-100,4,2,4,65,0,0
240810,-100,4,2,2,65,0,0
240987,-100,4,2,5,65,0,0
241163,-100,4,2,20,65,0,0
241340,-100,4,2,5,65,0,0
241428,-100,4,2,1,65,0,0
241516,-100,4,2,6,65,0,0
241693,-100,4,2,5,65,0,0
241869,-100,4,2,20,65,0,0
242046,-100,4,2,5,65,0,0
242398,-100,4,2,17,65,0,0
242751,-100,4,2,23,65,0,0
242928,-100,4,2,39,65,0,0
243104,-100,4,2,40,65,0,0
243457,-100,4,2,24,45,0,0

[Colours]
Combo1 : 247,247,51
Combo2 : 237,61,61
Combo3 : 255,128,0

[HitObjects]
117,39,636,5,2,2:2:0:0:
117,39,812,2,0,P|107:86|105:131,1,89.9999972534181,2|2,2:2|2:2,0:0:0:0:
83,214,1342,2,0,P|40:210|6:237,2,89.9999972534181,2|2|2,2:2|2:2|2:2,0:0:0:0:
351,335,2753,5,2,2:2:0:0:
351,335,2930,2,0,P|304:340|274:309,1,89.9999972534181,2|2,2:2|2:2,0:0:0:0:
389,169,3636,2,0,P|438:165|490:175,2,89.9999972534181,2|2|2,2:2|2:2|2:2,0:0:0:0:
146,34,4695,6,0,B|253:27|212:88|314:79,1,179.999994506836,2|2,2:2|2:2,0:0:0:0:
186,207,5753,2,0,P|158:173|165:130,1,89.9999972534181,2|2,2:2|2:2,0:0:0:0:
422,234,6459,6,0,P|412:278|408:322,1,89.9999972534181,2|2,2:2|2:2,0:0:0:0:
319,370,6989,2,0,P|273:359|230:356,2,89.9999972534181,2|2|2,2:2|2:2|2:2,0:0:0:0:
67,48,8577,6,0,P|76:91|82:136,1,89.9999972534181,2|2,2:2|2:2,0:0:0:0:
184,369,9283,2,0,P|190:324|200:280,1,89.9999972534181,2|2,2:2|2:2,0:0:0:0:
245,91,9989,1,2,2:2:0:0:
469,269,10342,6,0,P|385:287|332:221,1,179.999994506836,2|2,2:2|2:2,0:0:0:0:
332,221,11400,1,2,2:2:0:0:
256,192,11489,12,0,14224,0:0:0:0:
41,128,14930,6,0,B|58:186|124:181|124:181|134:162|157:148,1,150,14|10,2:1|2:2,0:0:0:0:
424,85,15459,1,10,2:1:0:0:
424,85,15548,1,8,2:1:0:0:
424,85,15636,2,0,P|389:94|343:95,1,75,10|10,2:1|2:1,0:0:0:0:
202,217,15989,1,10,2:2:0:0:
250,38,16165,6,0,P|270:110|278:185,1,150,10|10,2:1|2:1,0:0:0:0:
426,365,16695,2,0,P|429:327|439:291,1,75,10|10,2:2|2:1,0:0:0:0:
438,291,16959,1,8,2:2:0:0:
438,291,17048,1,10,2:1:0:0:
353,191,17224,1,10,2:1:0:0:
247,305,17400,2,0,P|284:307|320:316,1,75,10|10,2:2|2:1,0:0:0:0:
466,149,17753,6,0,P|421:205|352:190,1,150,14|10,2:1|2:2,0:0:0:0:
330,21,18283,1,10,2:1:0:0:
330,21,18371,1,8,2:2:0:0:
330,21,18459,2,0,P|320:57|316:101,1,75,10|10,2:1|2:1,0:0:0:0:
235,220,18812,1,10,2:2:0:0:
70,83,18989,6,0,B|160:75|121:131|210:122,1,150,10|10,2:1|2:1,0:0:0:0:
80,173,19518,1,10,2:2:0:0:
277,248,19695,1,10,2:1:0:0:
277,248,19783,1,8,2:2:0:0:
277,248,19871,1,10,2:1:0:0:
99,335,20048,1,10,2:1:0:0:
171,191,20224,2,0,P|179:227|181:264,1,75,10|10,2:2|2:1,0:0:0:0:
441,343,20577,6,0,B|417:289|353:293|353:293|342:311|325:323,1,150,14|10,2:1|2:2,0:0:0:0:
499,240,21106,1,10,2:1:0:0:
499,240,21195,1,8,2:1:0:0:
499,240,21283,2,0,P|502:200|515:153,1,75,10|10,2:1|2:1,0:0:0:0:
409,16,21636,5,14,2:2:0:0:
303,144,21812,2,0,P|373:157|423:105,1,150,10|10,2:1|2:1,0:0:0:0:
253,22,22342,1,10,2:2:0:0:
201,176,22518,1,10,2:1:0:0:
201,176,22606,1,8,2:2:0:0:
201,176,22695,1,10,2:1:0:0:
343,77,22871,1,10,2:1:0:0:
153,11,23048,2,0,P|161:47|164:84,1,75,10|10,2:2|2:1,0:0:0:0:
83,178,23400,5,8,2:1:0:0:
251,369,23577,2,0,P|253:331|262:295,1,75,14|0,2:2|0:0,0:0:0:0:
348,214,23930,5,10,2:1:0:0:
150,312,24106,2,0,P|113:310|86:285,1,75,14|0,2:2|0:0,0:0:0:0:
288,122,24459,5,10,2:1:0:0:
343,337,24636,1,14,2:1:0:0:
256,192,24724,12,0,26048,0:0:0:0:
102,110,26224,6,0,P|50:111|20:60,2,104.999996795654,14|0|0,2:1|0:0|0:0,0:0:0:0:
267,40,27106,1,0,0:0:0:0:
196,128,27283,2,0,P|194:101|188:76,1,52.4999983978272,2|2,2:2|2:2,0:0:0:0:
361,182,27636,6,0,P|312:173|277:210,1,104.999996795654,10|0,2:1|0:0,0:0:0:0:
330,369,28165,2,0,P|333:316|344:265,1,104.999996795654,0|2,0:0|2:2,0:0:0:0:
166,210,28695,5,2,2:2:0:0:
232,340,28871,2,0,P|229:313|223:288,1,52.4999983978272,2|10,2:2|2:1,0:0:0:0:
108,365,29224,5,2,2:2:0:0:
108,365,29400,1,2,2:2:0:0:
0,284,29577,2,0,P|52:280|103:268,1,104.999996795654,2|2,2:2|2:2,0:0:0:0:
130,112,30106,1,0,0:0:0:0:
61,185,30283,6,0,P|35:190|9:191,1,52.4999983978272,2|10,2:2|2:1,0:0:0:0:
0,61,30636,2,0,P|26:59|51:54,1,52.4999983978272,2|2,2:2|2:3,0:0:0:0:
210,139,30989,2,0,P|178:100|129:111,1,104.999996795654,2|2,2:2|2:2,0:0:0:0:
223,235,31518,1,2,2:2:0:0:
223,235,31695,1,2,2:2:0:0:
315,115,31871,6,0,P|319:62|328:10,2,104.999996795654,10|0|0,2:1|0:0|0:0,0:0:0:0:
402,235,32753,1,0,0:0:0:0:
452,150,32930,2,0,P|426:149|400:144,1,52.4999983978272,2|2,2:2|2:2,0:0:0:0:
225,226,33283,6,0,B|251:195|294:198|294:198|309:216|334:227,1,104.999996795654,10|0,2:1|0:0,0:0:0:0:
467,302,33812,2,0,P|439:344|389:342,1,104.999996795654,0|2,0:0|2:2,0:0:0:0:
224,367,34342,1,2,2:2:0:0:
311,301,34518,6,0,P|306:323|304:354,1,52.4999983978272,2|10,2:2|2:1,0:0:0:0:
237,238,34871,1,2,2:2:0:0:
237,238,35048,1,2,2:2:0:0:
100,291,35224,6,0,P|127:291|153:296,1,52.4999983978272,2|2,2:2|2:3,0:0:0:0:
285,146,35577,2,0,P|258:145|232:141,1,52.4999983978272,2|2,2:2|2:3,0:0:0:0:
64,24,35930,1,14,2:1:0:0:
64,24,36636,6,0,P|66:40|67:57,2,33.7499989700318,10|8|8,2:2|2:2|2:2,0:0:0:0:
0,161,36989,1,10,2:1:0:0:
88,253,37165,1,8,2:2:0:0:
114,256,37253,1,8,2:3:0:0:
140,248,37342,1,4,2:3:0:0:
163,235,37430,1,8,2:3:0:0:
176,211,37518,6,0,P|173:178|166:145,1,67.4999979400635,14|2,2:1|2:2,0:0:0:0:
280,0,37871,2,0,P|283:33|290:66,1,67.4999979400635,10|2,2:2|2:2,0:0:0:0:
266,200,38224,1,10,2:1:0:0:
118,63,38400,2,0,P|154:60|184:50,1,67.4999979400635,2|8,2:2|2:2,0:0:0:0:
463,131,38753,6,0,B|430:92|377:98|377:98|369:115|338:140,1,134.999995880127,2|2,2:2|2:2,0:0:0:0:
294,242,39283,1,10,2:2:0:0:
469,313,39459,1,10,2:1:0:0:
469,313,39548,1,8,2:2:0:0:
469,313,39636,1,10,2:1:0:0:
400,198,39812,2,0,P|391:225|385:268,1,67.4999979400635,10|8,2:1|2:2,0:0:0:0:
192,379,40165,6,0,B|175:360|162:350|162:350|169:309|175:256,1,134.999995880127,2|2,2:2|2:2,0:0:0:0:
118,112,40695,1,10,2:2:0:0:
78,279,40871,1,2,2:2:0:0:
78,279,40959,1,0,0:0:0:0:
78,279,41048,1,10,2:1:0:0:
0,181,41224,2,0,P|33:180|66:187,1,67.4999979400635,2|8,2:2|2:2,0:0:0:0:
251,69,41577,6,0,P|215:67|183:61,1,67.4999979400635,2|0,2:2|0:0,0:0:0:0:
196,231,41930,2,0,P|204:198|204:164,1,67.4999979400635,2|8,2:2|2:2,0:0:0:0:
352,56,42283,1,10,2:1:0:0:
352,56,42371,1,8,2:2:0:0:
352,56,42459,1,8,2:1:0:0:
366,211,42636,1,10,2:1:0:0:
491,132,42812,2,0,P|457:131|425:124,1,67.4999979400635,10|10,2:2|2:1,0:0:0:0:
341,305,43165,6,0,P|384:256|448:266,2,134.999995880127,10|8|8,2:1|2:2|2:1,0:0:0:0:
171,382,44048,1,2,2:3:0:0:
257,261,44224,2,0,P|251:293|250:328,1,67.4999979400635,10|2,2:2|2:2,0:0:0:0:
28,258,44576,6,0,B|104:248|76:296|157:289,1,134.999995880127,8|8,2:1|2:2,0:0:0:0:
250,136,45106,1,10,2:1:0:0:
250,136,45195,1,8,2:2:0:0:
250,136,45283,1,8,2:1:0:0:
143,198,45459,2,0,P|140:164|133:131,1,67.4999979400635,10|8,2:1|2:2,0:0:0:0:
374,37,45812,6,0,P|354:62|321:66,1,67.4999979400635,10|12,2:1|2:1,0:0:0:0:
151,43,46165,1,2,2:2:0:0:
304,151,46342,1,10,2:2:0:0:
229,3,46518,2,0,P|235:37|237:70,1,67.4999979400635,2|10,2:2|2:1,0:0:0:0:
401,209,46871,2,0,P|395:175|393:142,1,67.4999979400635,10|10,2:1|2:2,0:0:0:0:
215,320,47224,6,0,P|263:325|292:286,1,101.249996910095,14|0,2:1|0:0,0:0:0:0:
292,286,47577,1,10,2:2:0:0:
96,373,47753,2,0,P|63:365|29:364,1,67.4999979400635,10|8,2:2|2:1,0:0:0:0:
172,236,48106,1,8,2:2:0:0:
49,38,48283,5,8,2:1:0:0:
49,38,48371,1,8,0:0:0:0:
49,38,48459,2,0,B|28:58|11:72|11:72|18:110|23:154,1,134.999995880127,8|8,2:1|2:1,0:0:0:0:
44,169,48812,6,0,P|96:168|146:153,1,104.999996795654,14|2,2:1|2:2,0:0:0:0:
146,153,49342,1,10,2:1:0:0:
248,291,49518,2,0,P|217:250|165:256,1,104.999996795654,10|2,2:2|2:3,0:0:0:0:
344,364,50048,6,0,P|346:337|350:311,1,52.4999983978272,10|0,2:1|0:0,0:0:0:0:
450,256,50400,1,10,2:1:0:0:
321,165,50577,2,0,P|318:191|314:217,1,52.4999983978272,10|0,2:1|0:0,0:0:0:0:
486,124,50930,2,0,P|435:127|406:85,1,104.999996795654,10|2,2:2|2:2,0:0:0:0:
161,76,51459,5,10,2:1:0:0:
161,76,51548,1,8,2:1:0:0:
161,76,51636,2,0,B|188:52|227:55|227:55|241:74|274:88,1,104.999996795654,14|2,2:1|2:3,0:0:0:0:
341,165,52165,1,10,2:1:0:0:
189,219,52342,5,10,2:2:0:0:
301,11,52518,1,10,2:2:0:0:
301,11,52871,6,0,P|294:50|291:90,1,78.7499975967408,14|0,2:1|0:0,0:0:0:0:
291,88,53224,1,10,2:2:0:0:
197,195,53400,2,0,P|202:220|204:246,1,52.4999983978272,10|0,2:1|0:0,0:0:0:0:
320,359,53753,1,10,2:2:0:0:
497,246,53930,5,8,2:1:0:0:
474,224,54018,1,8,0:0:0:0:
444,214,54106,1,10,2:2:0:0:
412,219,54195,1,8,2:2:0:0:
386,237,54283,1,8,2:2:0:0:
370,264,54371,1,8,2:2:0:0:
364,296,54459,6,0,P|398:297|434:305,1,67.4999979400635,14|0,2:1|0:0,0:0:0:0:
339,140,54812,2,0,P|304:138|269:131,1,67.4999979400635,10|0,2:2|0:0,0:0:0:0:
130,63,55165,1,10,2:1:0:0:
179,225,55342,1,8,2:1:0:0:
0,187,55518,2,0,P|24:161|57:158,1,67.4999979400635,10|0,2:2|0:0,0:0:0:0:
182,367,55871,6,0,P|179:299|169:232,1,134.999995880127,14|10,2:1|2:2,0:0:0:0:
340,288,56400,1,8,2:1:0:0:
340,288,56489,1,8,2:2:0:0:
340,288,56577,2,0,P|310:306|263:303,1,67.4999979400635,10|8,2:2|2:1,0:0:0:0:
402,168,56930,1,10,2:2:0:0:
275,114,57106,5,8,2:1:0:0:
275,114,57195,1,8,2:1:0:0:
275,114,57283,2,0,P|283:165|285:214,1,101.249996910095,14|0,2:1|0:0,0:0:0:0:
285,214,57636,1,10,2:2:0:0:
500,104,57812,6,0,P|437:94|403:150,1,134.999995880127,14|10,2:1|2:1,0:0:0:0:
330,1,58342,1,10,2:2:0:0:
174,106,58518,2,0,P|207:105|240:98,1,67.4999979400635,10|0,2:2|0:0,0:0:0:0:
317,327,58871,5,10,2:2:0:0:
52,240,59048,1,10,2:2:0:0:
52,240,60106,6,0,B|153:233|109:288|209:281,1,165.000005035401,14|10,2:1|2:2,0:0:0:0:
383,107,60636,1,10,2:1:0:0:
383,107,60724,1,8,0:0:0:0:
383,107,60812,1,10,2:1:0:0:
191,186,60989,1,10,2:1:0:0:
388,249,61165,1,10,2:2:0:0:
277,50,61342,6,0,P|293:132|299:214,1,165.000005035401,10|8,2:1|2:1,0:0:0:0:
415,340,61871,1,10,2:2:0:0:
491,279,62048,1,10,2:1:0:0:
491,279,62136,1,8,2:2:0:0:
491,279,62224,2,0,P|467:248|427:242,1,82.5000025177003,10|8,2:1|2:1,0:0:0:0:
249,328,62577,2,0,P|273:359|313:365,1,82.5000025177003,10|0,2:2|0:0,0:0:0:0:
426,146,62930,6,0,P|429:105|436:65,1,82.5000025177003,14|0,2:1|0:0,0:0:0:0:
207,183,63283,1,10,2:2:0:0:
310,6,63459,1,8,2:1:0:0:
310,6,63548,1,8,2:2:0:0:
310,6,63636,2,0,P|307:47|300:87,1,82.5000025177003,10|8,2:1|2:1,0:0:0:0:
327,289,63989,1,10,2:2:0:0:
512,257,64165,6,0,P|475:188|397:192,1,165.000005035401,8|8,2:1|2:1,0:0:0:0:
168,328,64695,2,0,P|196:356|237:356,1,82.5000025177003,10|8,2:2|2:1,0:0:0:0:
237,357,64959,1,8,2:2:0:0:
237,357,65048,1,10,2:1:0:0:
272,160,65224,1,8,2:1:0:0:
7,246,65400,1,10,2:2:0:0:
7,246,65753,6,0,P|86:232|170:225,1,165.000005035401,14|10,2:1|2:2,0:0:0:0:
369,119,66283,1,10,2:1:0:0:
369,119,66371,1,8,2:2:0:0:
369,119,66459,1,10,2:1:0:0:
236,287,66636,1,10,2:1:0:0:
214,82,66812,1,10,2:2:0:0:
450,167,66989,6,0,B|429:224|363:223|363:223|346:201|315:192,1,165.000005035401,10|8,2:1|2:1,0:0:0:0:
197,71,67518,1,10,2:2:0:0:
384,12,67695,1,8,2:1:0:0:
384,12,67783,1,8,2:2:0:0:
384,12,67871,2,0,P|372:51|368:96,1,82.5000025177003,10|8,2:1|2:1,0:0:0:0:
221,259,68224,2,0,P|217:218|204:178,1,82.5000025177003,10|0,2:2|0:0,0:0:0:0:
0,64,68577,6,0,P|27:93|67:93,1,82.5000025177003,14|0,2:1|0:0,0:0:0:0:
311,36,68930,2,0,P|269:34|229:25,1,82.5000025177003,10|8,2:2|2:1,0:0:0:0:
229,25,69195,1,8,2:2:0:0:
229,25,69283,1,10,2:1:0:0:
82,207,69459,1,8,2:1:0:0:
268,126,69636,1,10,2:2:0:0:
144,18,69812,6,0,P|163:98|174:179,1,165.000005035401,12|8,2:1|2:1,0:0:0:0:
351,376,70342,2,0,P|354:334|368:283,1,82.5000025177003,10|8,2:2|2:1,0:0:0:0:
298,120,70695,1,10,2:2:0:0:
215,336,70871,1,8,2:1:0:0:
34,247,71048,1,10,2:2:0:0:
59,225,71136,1,8,2:2:0:0:
90,216,71224,1,8,2:2:0:0:
122,221,71312,1,8,2:2:0:0:
151,236,71400,6,0,P|192:239|232:231,1,82.5000025177003,14|0,2:1|0:0,0:0:0:0:
488,145,71753,2,0,P|448:142|419:169,1,82.5000025177003,10|10,2:2|2:1,0:0:0:0:
418,169,72018,1,8,2:2:0:0:
418,169,72106,1,10,2:1:0:0:
335,319,72283,1,10,2:1:0:0:
290,101,72459,1,10,2:2:0:0:
151,236,72636,6,0,P|72:244|28:178,1,165.000005035401,14|8,2:1|2:1,0:0:0:0:
207,129,73165,1,10,2:2:0:0:
0,86,73342,1,8,2:1:0:0:
0,86,73430,1,8,2:2:0:0:
0,86,73518,1,10,2:1:0:0:
191,4,73695,1,8,2:1:0:0:
110,162,73871,2,0,P|107:120|99:80,1,82.5000025177003,10|2,2:2|2:2,0:0:0:0:
303,198,74224,6,0,P|274:226|234:228,1,82.5000025177003,14|0,2:1|0:0,0:0:0:0:
397,96,74577,2,0,P|438:95|478:87,1,82.5000025177003,10|10,2:2|2:1,0:0:0:0:
479,87,74841,1,8,2:2:0:0:
479,87,74930,1,10,2:1:0:0:
389,202,75106,1,10,2:1:0:0:
291,52,75283,1,10,2:2:0:0:
375,290,75459,6,0,B|438:316|486:256|486:256|476:237|471:193,1,165.000005035401,14|8,2:1|2:1,0:0:0:0:
264,156,75989,1,10,2:2:0:0:
271,339,76165,1,8,0:0:0:0:
271,339,76253,1,8,2:2:0:0:
271,339,76342,1,10,2:2:0:0:
389,202,76518,1,8,2:1:0:0:
172,264,76695,2,0,P|133:251|92:248,1,82.5000025177003,10|0,2:1|0:0,0:0:0:0:
8,43,77048,6,0,P|85:35|117:107,1,165.000005035401,14|2,2:1|2:2,0:0:0:0:
18,255,77577,2,0,P|27:215|31:173,1,82.5000025177003,10|8,2:1|2:2,0:0:0:0:
227,79,77930,2,0,P|217:118|213:160,1,82.5000025177003,10|0,2:1|0:0,0:0:0:0:
375,365,78283,6,0,B|361:300|292:293|292:293|275:313|241:327,1,165.000005035401,14|8,2:1|2:1,0:0:0:0:
49,302,78812,1,10,2:2:0:0:
232,206,78989,1,0,0:0:0:0:
163,379,79165,2,0,P|159:339|151:297,1,82.5000025177003,10|8,2:2|2:1,0:0:0:0:
49,158,79518,1,10,2:2:0:0:
49,158,79606,1,8,2:2:0:0:
49,158,79695,1,8,2:2:0:0:
230,34,79871,5,10,2:2:0:0:
125,210,80048,1,10,2:2:0:0:
321,343,80400,5,10,2:2:0:0:
210,158,80577,1,8,2:2:0:0:
377,42,80930,5,8,2:2:0:0:
257,243,81107,1,10,2:2:0:0:
308,99,82695,6,0,P|345:39|414:52,1,150,14|10,2:1|2:2,0:0:0:0:
485,199,83224,1,10,2:1:0:0:
485,199,83312,1,8,2:1:0:0:
485,199,83400,2,0,P|476:235|473:284,1,75,10|10,2:1|2:1,0:0:0:0:
385,123,83753,1,10,2:2:0:0:
326,282,83930,6,0,B|300:295|286:308|286:308|234:300|184:295,1,150,10|10,2:1|2:1,0:0:0:0:
4,188,84459,2,0,P|40:185|67:209,1,75,10|10,2:2|2:1,0:0:0:0:
67,209,84724,1,8,2:2:0:0:
67,209,84812,1,10,2:1:0:0:
271,142,84989,1,10,2:1:0:0:
174,280,85165,2,0,P|175:240|184:202,1,75,10|10,2:2|2:1,0:0:0:0:
5,65,85518,6,0,B|35:118|95:108|95:108|109:89|136:77,1,150,14|10,2:1|2:2,0:0:0:0:
384,31,86048,1,10,2:1:0:0:
384,31,86136,1,8,2:2:0:0:
384,31,86224,2,0,P|343:30|306:23,1,75,10|10,2:1|2:1,0:0:0:0:
165,161,86577,1,10,2:2:0:0:
221,10,86753,6,0,P|236:83|243:157,1,150,10|10,2:1|2:1,0:0:0:0:
360,286,87283,1,10,2:2:0:0:
183,338,87459,1,10,2:1:0:0:
183,338,87548,1,8,2:2:0:0:
183,338,87636,1,10,2:1:0:0:
285,232,87812,1,10,2:1:0:0:
355,376,87989,2,0,P|391:368|429:366,1,75,10|10,2:2|2:1,0:0:0:0:
509,128,88342,6,0,P|440:110|397:167,1,150,14|10,2:1|2:2,0:0:0:0:
245,273,88871,1,10,2:1:0:0:
245,273,88959,1,8,2:1:0:0:
245,273,89048,2,0,P|241:236|230:199,1,75,10|10,2:1|2:1,0:0:0:0:
287,8,89400,5,14,2:2:0:0:
74,68,89577,2,0,B|167:57|125:114|222:96,1,150,10|10,2:1|2:1,0:0:0:0:
155,305,90106,1,10,2:2:0:0:
95,161,90283,1,10,2:1:0:0:
95,161,90371,1,8,2:2:0:0:
95,161,90459,1,10,2:1:0:0:
234,221,90636,1,10,2:1:0:0:
63,330,90812,2,0,P|59:293|50:257,1,75,10|10,2:2|2:1,0:0:0:0:
95,161,91165,5,8,2:1:0:0:
232,321,91342,2,0,P|268:325|298:303,1,75,14|0,2:2|0:0,0:0:0:0:
332,203,91695,5,10,2:1:0:0:
208,45,91871,2,0,P|219:80|224:118,1,75,14|0,2:2|0:0,0:0:0:0:
422,297,92224,5,10,2:1:0:0:
325,82,92400,1,14,2:1:0:0:
256,192,92489,12,10,93989,2:1:0:0:
113,239,102283,5,10,2:1:0:0:
113,239,102371,1,8,2:1:0:0:
113,239,102459,2,0,L|106:179,1,60,12|0,2:2|0:0,0:0:0:0:
268,107,102812,5,10,2:2:0:0:
214,248,102989,1,10,2:2:0:0:
182,124,103165,5,8,2:2:0:0:
364,184,103342,1,10,2:2:0:0:
440,50,103518,5,8,2:2:0:0:
273,141,103695,1,10,2:1:0:0:
447,333,104400,6,0,P|444:349|441:366,2,33.7499989700318,10|8|8,2:2|2:2|2:2,0:0:0:0:
384,157,104753,1,10,2:1:0:0:
507,276,104930,1,8,2:2:0:0:
488,256,105018,1,8,2:3:0:0:
462,247,105106,1,4,2:3:0:0:
434,249,105195,1,8,2:3:0:0:
409,259,105283,6,0,P|406:225|397:192,1,67.4999979400635,14|2,2:1|2:2,0:0:0:0:
505,39,105636,2,0,P|496:71|493:105,1,67.4999979400635,10|2,2:2|2:2,0:0:0:0:
312,175,105989,1,10,2:1:0:0:
331,73,106165,2,0,P|365:71|397:62,1,67.4999979400635,2|8,2:2|2:2,0:0:0:0:
211,149,106518,6,0,P|166:101|104:121,1,134.999995880127,2|2,2:2|2:2,0:0:0:0:
33,285,107048,1,10,2:2:0:0:
145,208,107224,1,10,2:1:0:0:
145,208,107312,1,8,2:2:0:0:
145,208,107400,1,10,2:1:0:0:
7,111,107577,2,0,P|13:144|16:177,1,67.4999979400635,10|8,2:1|2:2,0:0:0:0:
123,340,107930,6,0,B|195:352|219:321|219:321|215:301|215:262,1,134.999995880127,2|2,2:2|2:2,0:0:0:0:
349,199,108459,1,10,2:2:0:0:
332,372,108636,1,10,2:2:0:0:
332,372,108724,1,8,2:1:0:0:
332,372,108812,1,10,2:1:0:0:
468,312,108989,2,0,P|446:288|406:289,1,67.4999979400635,2|8,2:2|2:2,0:0:0:0:
434,103,109342,6,0,P|467:103|500:96,1,67.4999979400635,2|8,2:2|2:1,0:0:0:0:
349,199,109695,2,0,P|315:198|282:205,1,67.4999979400635,2|8,2:2|2:2,0:0:0:0:
302,27,110048,2,0,P|308:60|310:93,1,67.4999979400635,10|8,2:1|2:1,0:0:0:0:
181,260,110400,5,10,2:1:0:0:
224,79,110577,1,10,2:2:0:0:
209,251,110753,1,10,2:1:0:0:
3,183,110930,6,0,P|35:127|99:128,2,134.999995880127,10|8|8,2:1|2:2|2:1,0:0:0:0:
125,278,111812,1,2,2:3:0:0:
196,146,111989,2,0,P|194:112|187:79,1,67.4999979400635,10|2,2:2|2:2,0:0:0:0:
423,71,112342,6,0,B|349:66|369:106|294:101,1,134.999995880127,8|8,2:1|2:2,0:0:0:0:
428,167,112871,1,10,2:1:0:0:
428,167,112959,1,8,2:2:0:0:
428,167,113048,1,8,2:1:0:0:
256,235,113224,1,10,2:1:0:0:
440,284,113400,1,8,2:2:0:0:
339,196,113577,6,0,P|346:228|347:262,1,67.4999979400635,10|12,2:1|2:1,0:0:0:0:
442,377,113930,1,2,2:2:0:0:
442,377,114106,1,10,2:2:0:0:
498,307,114283,2,0,P|472:286|439:283,1,67.4999979400635,10|10,2:2|2:1,0:0:0:0:
281,368,114636,2,0,P|314:361|347:360,1,67.4999979400635,10|10,2:1|2:2,0:0:0:0:
137,227,114989,6,0,P|145:282|145:340,1,101.249996910095,14|0,2:1|0:0,0:0:0:0:
146,328,115342,1,10,2:2:0:0:
0,168,115518,2,0,P|33:167|71:161,1,67.4999979400635,10|8,2:2|2:1,0:0:0:0:
235,225,115871,1,8,2:2:0:0:
234,41,116048,5,8,2:1:0:0:
234,41,116136,1,8,0:0:0:0:
234,41,116224,2,0,P|166:49|152:106,1,134.999995880127,8|8,2:1|2:1,0:0:0:0:
160,124,116577,6,0,P|211:119|264:125,1,104.999996795654,14|2,2:1|2:2,0:0:0:0:
264,125,117106,1,10,2:1:0:0:
405,213,117283,2,0,B|377:238|340:236|340:236|330:224|312:214,1,104.999996795654,10|2,2:2|2:3,0:0:0:0:
349,91,117812,6,0,P|356:116|359:142,1,52.4999983978272,10|0,2:1|0:0,0:0:0:0:
452,140,118165,1,10,2:1:0:0:
500,214,118342,2,0,P|494:239|490:265,1,52.4999983978272,10|0,2:1|0:0,0:0:0:0:
314,377,118695,2,0,P|273:347|277:297,1,104.999996795654,10|2,2:2|2:2,0:0:0:0:
468,298,119224,5,10,2:1:0:0:
468,298,119312,1,8,2:1:0:0:
468,298,119400,2,0,B|452:306|436:316|436:316|407:311|368:309,1,104.999996795654,14|2,2:1|2:3,0:0:0:0:
306,220,119930,1,10,2:1:0:0:
185,356,120106,5,10,2:2:0:0:
132,113,120283,1,10,2:2:0:0:
132,113,120636,6,0,P|139:151|141:190,1,78.7499975967408,14|0,2:1|0:0,0:0:0:0:
141,190,120989,1,10,2:2:0:0:
0,172,121165,2,0,P|26:172|52:167,1,52.4999983978272,10|0,2:1|0:0,0:0:0:0:
181,299,121518,1,10,2:2:0:0:
335,199,121695,5,8,2:1:0:0:
350,171,121783,1,8,0:0:0:0:
356,140,121871,1,10,2:2:0:0:
351,108,121959,1,8,2:2:0:0:
331,82,122048,1,8,2:2:0:0:
303,67,122136,1,8,2:2:0:0:
272,66,122224,6,0,P|239:72|191:76,1,67.4999979400635,14|0,2:1|0:0,0:0:0:0:
437,191,122577,2,0,P|470:185|504:183,1,67.4999979400635,10|0,2:2|0:0,0:0:0:0:
288,162,122930,1,10,2:1:0:0:
465,79,123106,1,8,2:1:0:0:
360,26,123283,2,0,P|367:62|368:92,1,67.4999979400635,10|0,2:2|0:0,0:0:0:0:
465,283,123636,6,0,P|429:229|366:241,1,134.999995880127,14|10,2:1|2:2,0:0:0:0:
217,370,124165,1,8,2:1:0:0:
217,370,124254,1,8,2:2:0:0:
217,370,124342,2,0,P|215:336|209:303,1,67.4999979400635,10|8,2:2|2:1,0:0:0:0:
356,131,124695,1,10,2:2:0:0:
150,165,124871,5,8,2:1:0:0:
150,165,124959,1,8,2:1:0:0:
150,165,125048,2,0,P|182:205|247:188,1,101.249996910095,14|0,2:1|0:0,0:0:0:0:
228,203,125400,1,10,2:2:0:0:
415,71,125577,2,0,B|331:64|365:110|267:103,1,134.999995880127,14|10,2:1|2:1,0:0:0:0:
125,172,126106,5,10,2:2:0:0:
205,10,126283,2,0,P|198:42|197:79,1,67.4999979400635,10|0,2:2|0:0,0:0:0:0:
79,297,126636,5,10,2:2:0:0:
21,86,126812,1,10,2:2:0:0:
21,86,127342,5,8,2:1:0:0:
89,272,127518,1,8,2:2:0:0:
118,287,127606,1,8,2:2:0:0:
151,288,127695,1,10,2:2:0:0:
184,281,127783,1,8,2:2:0:0:
211,262,127871,6,0,P|204:179|188:98,1,165.000005035401,14|10,2:1|2:2,0:0:0:0:
429,62,128400,1,10,2:1:0:0:
429,62,128489,1,8,0:0:0:0:
429,62,128577,1,10,2:1:0:0:
306,226,128753,1,10,2:1:0:0:
287,17,128930,1,10,2:2:0:0:
511,87,129106,6,0,P|464:151|386:143,1,165.000005035401,10|8,2:1|2:1,0:0:0:0:
189,35,129636,1,10,2:2:0:0:
264,201,129812,1,10,2:1:0:0:
264,201,129900,1,8,2:2:0:0:
264,201,129989,2,0,P|268:158|280:109,1,82.5000025177003,10|8,2:1|2:1,0:0:0:0:
80,14,130342,2,0,P|76:57|66:104,1,82.5000025177003,10|0,2:2|0:0,0:0:0:0:
2,288,130695,6,0,P|29:259|69:257,1,82.5000025177003,14|0,2:1|0:0,0:0:0:0:
248,362,131048,1,10,2:2:0:0:
153,208,131224,1,8,2:1:0:0:
153,208,131312,1,8,2:2:0:0:
153,208,131400,2,0,P|160:248|161:289,1,82.5000025177003,10|8,2:1|2:1,0:0:0:0:
305,180,131753,1,10,2:2:0:0:
482,316,131930,6,0,B|444:255|380:274|380:274|367:302|330:326,1,165.000005035401,8|8,2:1|2:1,0:0:0:0:
142,124,132459,2,0,P|168:155|214:153,1,82.5000025177003,10|8,2:2|2:1,0:0:0:0:
207,156,132724,1,8,2:2:0:0:
207,156,132812,1,10,2:1:0:0:
363,6,132989,5,8,2:1:0:0:
315,238,133165,1,10,2:2:0:0:
315,238,133518,6,0,P|307:155|289:75,1,165.000005035401,14|10,2:1|2:2,0:0:0:0:
73,36,134048,1,10,2:1:0:0:
73,36,134136,1,8,2:2:0:0:
73,36,134224,1,10,2:1:0:0:
162,220,134400,1,10,2:1:0:0:
208,19,134577,1,10,2:2:0:0:
0,102,134753,6,0,B|92:93|53:154|163:135,1,165.000005035401,10|8,2:1|2:1,0:0:0:0:
175,324,135283,1,10,2:2:0:0:
27,280,135459,1,8,2:1:0:0:
27,280,135548,1,8,2:2:0:0:
27,280,135636,2,0,P|25:236|18:197,1,82.5000025177003,10|8,2:1|2:1,0:0:0:0:
224,113,135989,2,0,P|226:155|234:195,1,82.5000025177003,10|0,2:2|0:0,0:0:0:0:
430,338,136342,6,0,P|412:302|373:293,1,82.5000025177003,14|0,2:1|0:0,0:0:0:0:
171,343,136695,2,0,P|212:344|252:351,1,82.5000025177003,10|8,2:2|2:1,0:0:0:0:
253,352,136959,1,8,2:2:0:0:
253,352,137048,1,10,2:1:0:0:
340,201,137224,1,8,2:1:0:0:
189,103,137400,1,10,2:2:0:0:
384,289,137577,6,0,B|405:276|429:264|429:264|433:210|440:151,1,165.000005035401,12|8,2:1|2:1,0:0:0:0:
286,13,138106,2,0,P|283:55|278:95,1,82.5000025177003,10|8,2:2|2:1,0:0:0:0:
448,49,138459,1,10,2:2:0:0:
314,195,138636,5,8,2:2:0:0:
281,197,138724,1,8,2:2:0:0:
248,192,138812,1,10,2:2:0:0:
219,175,138900,1,8,2:2:0:0:
197,149,138989,1,8,2:2:0:0:
190,116,139077,1,8,2:2:0:0:
198,84,139165,6,0,P|238:88|280:89,1,82.5000025177003,14|0,2:1|0:0,0:0:0:0:
105,4,139518,1,10,2:2:0:0:
10,110,139695,1,10,2:1:0:0:
10,110,139783,1,8,2:2:0:0:
10,110,139871,2,0,P|8:150|-1:198,1,82.5000025177003,10|10,2:1|2:1,0:0:0:0:
40,365,140224,5,10,2:2:0:0:
183,282,140400,2,0,B|154:220|82:242|82:242|69:266|42:284,1,165.000005035401,14|8,2:1|2:1,0:0:0:0:
271,363,140930,2,0,P|275:321|282:281,1,82.5000025177003,10|8,2:2|2:1,0:0:0:0:
281,281,141195,1,8,2:2:0:0:
281,281,141283,1,10,2:1:0:0:
249,128,141459,1,8,2:1:0:0:
424,230,141636,1,10,2:2:0:0:
380,46,141812,1,2,2:2:0:0:
177,203,141989,6,0,P|119:151|139:72,1,165.000005035401,14|10,2:1|2:2,0:0:0:0:
350,131,142518,1,10,2:1:0:0:
350,131,142606,1,8,2:2:0:0:
350,131,142695,1,10,2:1:0:0:
251,282,142871,1,10,2:1:0:0:
226,77,143048,1,10,2:2:0:0:
444,196,143224,6,0,B|421:212|406:225|406:225|355:215|289:208,1,165.000005035401,14|8,2:1|2:1,0:0:0:0:
392,23,143753,2,0,P|381:65|376:104,1,82.5000025177003,10|0,2:2|0:0,0:0:0:0:
376,103,144018,1,8,2:2:0:0:
376,103,144106,1,10,2:2:0:0:
267,220,144283,1,8,2:1:0:0:
177,64,144459,2,0,P|112:59|81:108,1,123.75000377655,10|8,2:1|0:0,0:0:0:0:
85,129,144812,6,0,P|93:168|96:210,1,82.5000025177003,14|0,2:1|0:0,0:0:0:0:
240,349,145165,1,2,2:2:0:0:
292,160,145342,2,0,P|253:168|210:170,1,82.5000025177003,10|8,2:1|2:2,0:0:0:0:
79,302,145695,2,0,P|120:306|152:281,1,82.5000025177003,10|0,2:1|0:0,0:0:0:0:
452,376,146048,6,0,B|434:315|362:317|362:317|345:341|311:361,1,165.000005035401,14|8,2:1|2:1,0:0:0:0:
168,250,146577,1,10,2:2:0:0:
351,158,146753,1,8,2:1:0:0:
278,266,146930,2,0,P|272:226|259:187,1,82.5000025177003,10|8,2:2|2:1,0:0:0:0:
412,28,147283,1,10,2:2:0:0:
412,28,147371,1,8,2:2:0:0:
412,28,147459,1,8,2:2:0:0:
420,195,147636,5,10,2:2:0:0:
235,64,147812,1,10,2:2:0:0:
133,250,148165,5,10,2:2:0:0:
331,127,148342,1,8,2:2:0:0:
386,320,148695,5,8,2:2:0:0:
186,153,148871,1,10,2:2:0:0:
146,321,149224,5,8,2:2:0:0:
372,238,149400,1,10,2:2:0:0:
98,175,149577,1,10,2:2:0:0:
454,88,150106,5,8,2:2:0:0:
431,63,150195,1,8,2:2:0:0:
398,53,150283,1,8,2:2:0:0:
365,59,150371,1,8,2:2:0:0:
340,81,150459,6,0,B|282:94|282:94|263:128|263:128|197:139,1,165.000005035401,14|10,2:1|2:2,0:0:0:0:
20,27,150989,1,8,2:1:0:0:
20,27,151077,1,8,2:1:0:0:
20,27,151165,1,10,2:1:0:0:
208,57,151342,1,8,2:1:0:0:
92,173,151518,2,0,L|87:128,2,41.2500012588501,10|8|10,2:2|0:0|2:1,0:0:0:0:
29,359,151871,6,0,P|69:358|97:329,1,82.5000025177003,2|10,2:2|2:1,0:0:0:0:
270,223,152224,1,10,2:2:0:0:
198,366,152400,1,10,2:1:0:0:
198,366,152489,1,8,2:2:0:0:
198,366,152577,2,0,L|188:282,1,82.5000025177003,10|10,2:1|2:1,0:0:0:0:
355,108,152930,2,0,B|385:166|385:166|362:221,1,123.75000377655,10|0,2:2|0:0,0:0:0:0:
344,235,153283,6,0,P|304:243|270:223,1,82.5000025177003,14|2,2:1|2:2,0:0:0:0:
229,37,153636,1,10,2:2:0:0:
84,149,153812,1,10,2:1:0:0:
84,149,153900,1,8,2:2:0:0:
84,150,153989,2,0,B|169:141,1,82.5000025177003,10|10,2:1|2:1,0:0:0:0:
344,235,154342,1,10,2:2:0:0:
310,40,154518,6,0,B|264:15|264:15|276:126,1,165.000005035401,10|10,2:1|2:1,0:0:0:0:
493,264,155048,1,10,2:2:0:0:
386,99,155224,1,10,2:1:0:0:
386,99,155312,1,8,2:2:0:0:
386,99,155400,1,10,2:1:0:0:
355,284,155577,1,10,2:2:0:0:
512,172,155753,2,0,B|471:161|471:161|430:190,1,82.5000025177003,10|10,2:1|2:2,0:0:0:0:
256,347,156106,5,14,2:1:0:0:
225,358,156194,1,2,2:2:0:0:
192,356,156282,1,2,2:2:0:0:
163,342,156370,1,2,2:2:0:0:
142,317,156458,1,10,2:2:0:0:
133,285,156547,1,2,2:2:0:0:
137,253,156635,1,10,2:1:0:0:
154,225,156723,1,10,2:2:0:0:
183,208,156812,2,0,L|231:201,3,41.2500012588501,10|2|10|2,2:1|2:2|2:1|2:2,0:0:0:0:
280,265,157165,2,0,L|320:269,3,41.2500012588501,10|2|14|2,2:2|2:2|2:1|2:2,0:0:0:0:
390,209,157518,5,2,2:2:0:0:
420,220,157606,1,2,2:2:0:0:
453,218,157694,1,10,2:1:0:0:
482,204,157782,1,2,2:2:0:0:
503,179,157870,1,10,2:2:0:0:
512,147,157959,1,2,2:2:0:0:
508,115,158047,1,10,2:1:0:0:
491,87,158135,1,10,2:2:0:0:
463,70,158224,2,0,L|415:63,3,41.2500012588501,10|2|10|2,2:1|2:2|2:1|2:2,0:0:0:0:
366,127,158577,2,0,L|326:131,3,41.2500012588501,10|2|2|2,2:2|2:2|2:2|2:2,0:0:0:0:
263,67,158930,5,14,2:1:0:0:
228,43,159018,1,2,2:2:0:0:
186,42,159106,1,2,2:2:0:0:
149,63,159195,1,2,2:2:0:0:
128,98,159283,2,0,P|131:118|134:138,3,41.2500012588501,10|2|10|10,2:2|2:2|2:1|2:2,0:0:0:0:
200,215,159636,5,10,2:1:0:0:
184,253,159724,1,2,2:2:0:0:
147,272,159812,1,10,2:1:0:0:
105,270,159900,1,2,2:2:0:0:
68,249,159989,2,0,L|62:205,3,41.2500012588501,10|2|14|2,2:2|2:2|2:1|2:2,0:0:0:0:
0,124,160342,5,2,2:2:0:0:
0,124,160430,1,2,2:2:0:0:
0,124,160518,2,0,L|62:114,1,41.2500012588501,10|2,2:1|2:2,0:0:0:0:
108,51,160695,1,10,2:2:0:0:
108,51,160783,1,2,2:2:0:0:
108,51,160871,2,0,L|170:61,1,41.2500012588501,10|10,2:1|2:2,0:0:0:0:
254,18,161048,6,0,L|247:62,3,41.2500012588501,10|2|10|2,2:1|2:2|2:1|2:2,0:0:0:0:
319,114,161400,2,0,L|312:156,3,41.2500012588501,10|2|2|2,2:2|2:2|2:2|2:2,0:0:0:0:
226,194,161753,5,10,2:1:0:0:
399,357,161930,2,0,P|439:348|480:348,1,82.5000025177003,14|10,2:2|2:1,0:0:0:0:
270,271,162283,1,10,2:1:0:0:
418,161,162459,2,0,P|418:201|424:243,1,82.5000025177003,14|10,2:2|2:1,0:0:0:0:
297,372,162812,1,10,2:1:0:0:
138,233,162989,6,0,P|195:222|228:271,1,123.75000377655,14|0,2:1|0:0,0:0:0:0:
228,271,163342,1,8,2:1:0:0:
24,243,163518,2,0,P|21:201|14:161,1,82.5000025177003,10|8,2:2|2:1,0:0:0:0:
208,35,163871,1,10,2:2:0:0:
115,195,164048,1,8,2:2:0:0:
92,15,164224,1,10,2:3:0:0:
217,140,164400,1,4,2:3:0:0:
413,59,164577,6,0,B|339:54|368:93|282:85,1,120,14|2,2:1|2:3,0:0:0:0:
342,223,165106,1,8,2:1:0:0:
500,153,165283,2,0,P|501:123|506:93,1,60,10|0,2:2|0:0,0:0:0:0:
404,148,165636,1,2,2:2:0:0:
504,286,165812,6,0,B|470:246|423:263|423:263|413:283|388:306,1,120,10|10,2:1|2:1,0:0:0:0:
251,375,166342,1,10,2:1:0:0:
318,273,166518,2,0,P|320:302|327:332,1,60,2|10,2:2|2:2,0:0:0:0:
159,281,166871,2,0,P|188:281|218:275,1,60,10|2,2:1|2:3,0:0:0:0:
174,165,167224,1,14,2:1:0:0:
65,236,167400,5,0,0:0:0:0:
0,118,167577,2,0,P|29:115|54:132,1,60,10|2,2:1|2:3,0:0:0:0:
185,21,167930,2,0,P|155:28|125:31,1,60,10|10,2:1|2:2,0:0:0:0:
200,164,168283,2,0,P|229:157|259:154,1,60,2|2,2:2|2:3,0:0:0:0:
473,71,168636,6,0,P|442:15|385:21,1,120,10|10,2:1|2:2,0:0:0:0:
286,72,169165,1,10,2:1:0:0:
391,168,169342,2,0,P|391:133|398:101,1,60,2|10,2:2|2:2,0:0:0:0:
264,172,169695,2,0,P|264:207|257:239,1,60,10|2,2:1|2:3,0:0:0:0:
409,345,170048,6,0,B|456:375|498:350|498:350|500:329|503:313,1,120,14|2,2:1|2:2,0:0:0:0:
499,198,170577,2,0,P|469:198|439:191,1,60,10|10,2:1|2:1,0:0:0:0:
267,286,170930,2,0,P|296:237|353:245,1,120,10|2,2:2|2:3,0:0:0:0:
142,325,171459,6,0,B|72:322|97:358|30:354,1,120,14|10,2:1|2:2,0:0:0:0:
23,207,171989,2,0,P|29:236|32:266,1,60,10|2,2:1|2:2,0:0:0:0:
131,204,172342,1,10,2:2:0:0:
209,125,172518,2,0,P|202:95|199:65,1,60,10|2,2:1|2:3,0:0:0:0:
43,90,172871,5,10,2:2:0:0:
43,90,172959,1,8,0:0:0:0:
43,90,173048,2,0,P|64:110|96:109,1,60,14|0,2:1|0:0,0:0:0:0:
228,221,173400,2,0,P|198:220|168:225,1,60,2|8,2:2|2:1,0:0:0:0:
274,85,173753,2,0,P|303:85|333:82,1,60,10|8,2:2|2:1,0:0:0:0:
470,162,174106,1,10,2:2:0:0:
427,66,174283,6,0,P|425:47|424:36,2,30,8|8|14,0:0|0:0|2:1,0:0:0:0:
488,251,174636,2,0,P|456:202|400:209,1,120,8|0,2:2|0:0,0:0:0:0:
309,352,175165,1,10,2:2:0:0:
258,189,175342,1,10,2:2:0:0:
258,189,175430,1,8,2:2:0:0:
258,189,175518,1,10,2:2:0:0:
6,313,175695,6,0,B|92:303|56:353|141:341,1,134.999995880127,14|10,2:1|2:1,0:0:0:0:
344,213,176224,1,10,2:2:0:0:
241,369,176400,2,0,P|238:335|232:302,1,67.4999979400635,10|2,2:1|2:3,0:0:0:0:
399,310,176753,2,0,P|365:311|332:318,1,67.4999979400635,10|10,2:1|2:2,0:0:0:0:
165,145,177106,6,0,B|203:194|252:177|252:177|263:156|287:136,1,134.999995880127,10|8,2:1|2:1,0:0:0:0:
450,51,177636,1,10,2:2:0:0:
352,28,177812,1,8,2:1:0:0:
352,28,177900,1,8,2:2:0:0:
352,28,177989,2,0,P|359:64|363:103,1,67.4999979400635,10|10,2:1|2:1,0:0:0:0:
310,282,178342,1,10,2:2:0:0:
511,264,178518,6,0,P|480:207|417:211,1,134.999995880127,14|10,2:1|2:1,0:0:0:0:
358,366,179048,1,10,2:2:0:0:
224,257,179224,2,0,P|256:264|290:265,1,67.4999979400635,10|2,2:1|2:3,0:0:0:0:
211,142,179577,1,10,2:1:0:0:
92,239,179753,1,10,2:2:0:0:
6,57,179930,6,0,B|59:25|104:67|104:67|100:82|99:97,1,134.999995880127,14|10,2:1|2:1,0:0:0:0:
259,221,180459,1,10,2:2:0:0:
214,52,180636,1,8,0:0:0:0:
214,52,180724,1,8,2:2:0:0:
214,52,180812,2,0,P|206:83|202:120,1,67.4999979400635,10|8,2:1|2:1,0:0:0:0:
109,281,181165,1,10,2:2:0:0:
15,174,181342,5,8,2:2:0:0:
15,174,181430,1,8,2:2:0:0:
14,174,181518,2,0,P|46:172|72:192,1,67.4999979400635,14|0,2:1|0:0,0:0:0:0:
193,369,181871,2,0,P|196:335|204:302,1,67.4999979400635,10|0,2:2|0:0,0:0:0:0:
186,121,182224,1,10,2:1:0:0:
109,281,182400,1,8,2:1:0:0:
263,219,182577,2,0,P|225:215|186:204,1,67.4999979400635,10|0,2:2|0:0,0:0:0:0:
394,326,182930,6,0,P|456:317|491:372,1,134.999995880127,14|10,2:1|2:2,0:0:0:0:
360,236,183459,1,8,2:1:0:0:
360,236,183548,1,8,2:2:0:0:
360,236,183636,2,0,P|365:201|364:154,1,67.4999979400635,10|8,2:1|2:1,0:0:0:0:
310,31,183989,1,10,2:2:0:0:
499,43,184165,5,8,0:0:0:0:
499,43,184253,1,8,0:0:0:0:
499,43,184342,2,0,P|465:85|409:74,1,101.249996910095,14|0,2:1|0:0,0:0:0:0:
421,82,184695,1,10,2:2:0:0:
174,53,184871,2,0,B|208:7|268:26|268:26|277:46|304:71,1,134.999995880127,10|10,2:1|2:1,0:0:0:0:
253,238,185400,1,8,2:2:0:0:
450,174,185577,2,0,P|416:174|372:164,1,67.4999979400635,10|0,2:2|0:0,0:0:0:0:
272,370,185930,5,10,2:2:0:0:
231,117,186106,1,10,2:2:0:0:
231,117,186459,6,0,L|225:158,3,33.7499989700318,8|8|8|8,2:2|2:2|2:2|2:2,0:0:0:0:
258,173,186812,2,0,L|264:214,3,33.7499989700318,8|8|8|8,2:2|2:2|2:2|2:2,0:0:0:0:
254,242,187165,1,8,2:2:0:0:
241,262,187253,1,8,2:2:0:0:
218,277,187342,1,8,2:2:0:0:
188,282,187430,1,8,2:2:0:0:
154,276,187518,1,8,2:2:0:0:
124,253,187606,1,8,2:2:0:0:
109,214,187695,1,8,2:2:0:0:
278,152,187871,5,8,2:2:0:0:
230,368,188048,1,8,2:2:0:0:
21,130,188577,6,0,P|103:131|178:97,1,165.000005035401,14|0,2:1|0:0,0:0:0:0:
365,36,189106,6,0,P|360:59|358:84,1,48.7499977684022,14|0,2:1|0:0,0:0:0:0:
186,315,189459,6,0,P|184:290|178:266,1,48.7499977684022,14|0,2:1|0:0,0:0:0:0:
479,220,189812,6,0,B|356:202|413:292|265:262,1,210,14|0,2:1|0:0,0:0:0:0:
282,265,190518,1,10,2:1:0:0:
456,314,190695,5,10,2:2:0:0:
235,352,190871,1,8,2:2:0:0:
205,331,190959,1,8,2:2:0:0:
185,296,191048,1,10,2:2:0:0:
182,260,191136,1,8,2:3:0:0:
191,225,191224,1,4,2:3:0:0:
215,199,191312,1,8,2:3:0:0:
247,178,191400,6,0,P|246:136|239:96,1,82.5000025177003,14|0,2:1|0:0,0:0:0:0:
480,42,191753,2,0,P|464:81|417:88,1,82.5000025177003,10|8,2:2|2:1,0:0:0:0:
427,90,192017,1,8,2:2:0:0:
427,90,192106,1,10,2:1:0:0:
280,255,192283,1,8,2:1:0:0:
465,198,192459,1,10,2:2:0:0:
326,29,192636,6,0,P|345:110|356:191,1,165.000005035401,8|8,2:1|2:1,0:0:0:0:
475,372,193165,2,0,P|479:330|490:291,1,82.5000025177003,10|8,2:2|2:1,0:0:0:0:
490,291,193430,1,8,2:2:0:0:
490,291,193518,1,10,2:1:0:0:
333,370,193695,5,8,2:1:0:0:
409,142,193871,1,10,2:2:0:0:
409,142,194224,6,0,B|312:129|351:188|239:172,1,165.000005035401,14|10,2:1|2:2,0:0:0:0:
72,153,194753,1,10,2:1:0:0:
72,153,194842,1,8,2:2:0:0:
72,153,194930,1,10,2:1:0:0:
266,80,195106,1,10,2:1:0:0:
65,29,195283,1,10,2:2:0:0:
4,224,195459,6,0,B|46:286|113:262|113:262|121:241|136:224,1,165.000005035401,10|8,2:1|2:1,0:0:0:0:
312,230,195989,1,10,2:2:0:0:
215,367,196165,1,8,2:1:0:0:
215,367,196253,1,8,2:2:0:0:
215,367,196342,2,0,P|211:324|195:262,1,82.5000025177003,10|8,2:1|2:1,0:0:0:0:
402,268,196695,2,0,P|385:304|342:316,1,82.5000025177003,10|0,2:2|0:0,0:0:0:0:
151,193,197048,6,0,P|193:193|232:182,1,82.5000025177003,14|0,2:1|0:0,0:0:0:0:
404,105,197400,1,10,2:2:0:0:
274,15,197577,1,8,2:1:0:0:
274,15,197665,1,8,2:2:0:0:
274,15,197753,2,0,P|286:56|292:114,1,82.5000025177003,10|8,2:1|2:1,0:0:0:0:
431,12,198106,1,10,2:2:0:0:
499,221,198283,6,0,B|475:158|403:165|403:165|387:183|364:199,1,165.000005035401,12|8,2:1|2:1,0:0:0:0:
414,381,198812,2,0,P|417:339|425:299,1,82.5000025177003,10|8,2:2|2:1,0:0:0:0:
242,145,199165,1,10,2:2:0:0:
291,323,199342,1,8,2:2:0:0:
111,366,199518,1,10,2:2:0:0:
83,335,199606,1,8,2:2:0:0:
82,293,199695,1,8,2:2:0:0:
98,255,199783,1,8,2:2:0:0:
132,233,199871,6,0,P|172:232|224:218,1,82.5000025177003,14|0,2:1|0:0,0:0:0:0:
157,42,200224,2,0,P|165:82|170:123,1,82.5000025177003,10|10,2:2|2:1,0:0:0:0:
170,123,200489,1,8,2:2:0:0:
170,123,200577,1,10,2:1:0:0:
343,183,200753,1,10,2:1:0:0:
263,16,200930,1,10,2:2:0:0:
207,215,201106,6,0,P|128:221|83:157,1,165.000005035401,14|8,2:1|2:1,0:0:0:0:
289,42,201636,2,0,P|330:43|370:35,1,82.5000025177003,10|8,2:2|2:1,0:0:0:0:
370,34,201900,1,8,2:2:0:0:
370,34,201989,1,10,2:1:0:0:
463,247,202165,1,8,2:1:0:0:
267,156,202342,1,10,2:2:0:0:
479,120,202518,1,2,2:2:0:0:
384,311,202695,6,0,B|373:294|357:274|357:274|363:222|369:155,1,165.000005035401,14|10,2:1|2:2,0:0:0:0:
176,81,203224,1,10,2:1:0:0:
176,81,203312,1,8,2:2:0:0:
176,81,203400,1,10,2:1:0:0:
223,290,203577,1,10,2:1:0:0:
324,97,203753,1,10,2:2:0:0:
89,193,203930,6,0,B|153:139|209:175|209:175|214:193|229:211,1,165.000005035401,14|8,2:1|2:1,0:0:0:0:
399,356,204459,2,0,P|403:314|418:269,1,82.5000025177003,10|8,2:2|2:1,0:0:0:0:
415,275,204724,1,8,0:0:0:0:
415,275,204812,1,10,2:2:0:0:
241,338,204989,2,0,P|223:334|200:331,2,41.2500012588501,8|8|10,2:1|0:0|2:2,0:0:0:0:
406,160,205342,5,8,2:2:0:0:
406,160,205430,1,8,2:2:0:0:
406,160,205518,2,0,P|382:192|329:188,1,82.5000025177003,14|0,2:1|0:0,0:0:0:0:
152,101,205871,2,0,P|148:59|139:19,1,82.5000025177003,10|10,2:2|2:1,0:0:0:0:
139,19,206136,1,8,0:0:0:0:
139,19,206224,1,10,2:1:0:0:
261,126,206400,1,10,2:1:0:0:
80,202,206577,1,10,2:2:0:0:
246,32,206753,6,0,B|323:11|361:70|361:70|356:87|352:107,1,165.000005035401,14|8,2:1|2:1,0:0:0:0:
363,283,207283,1,10,2:2:0:0:
502,199,207459,1,8,2:1:0:0:
502,199,207548,1,8,2:2:0:0:
502,199,207636,2,0,P|456:195|408:179,1,82.5000025177003,10|8,2:1|2:2,0:0:0:0:
373,378,207989,2,0,P|413:374|437:343,1,82.5000025177003,10|8,2:2|2:1,0:0:0:0:
240,162,208342,5,14,2:2:0:0:
220,377,208518,1,10,2:2:0:0:
368,228,208695,1,10,2:1:0:0:
149,286,208871,2,0,P|144:245|132:205,1,82.5000025177003,14|10,2:2|2:2,0:0:0:0:
174,7,209224,1,10,2:1:0:0:
240,195,209400,1,14,2:2:0:0:
31,59,209577,6,0,B|137:48|86:119|206:104,1,165.000005035401,10|8,2:2|2:1,0:0:0:0:
404,20,210106,2,0,P|364:30|323:32,1,82.5000025177003,10|10,2:2|2:1,0:0:0:0:
286,244,210459,1,10,2:2:0:0:
502,214,210636,5,8,2:2:0:0:
502,172,210724,1,8,2:2:0:0:
483,137,210812,1,10,2:2:0:0:
448,114,210900,1,8,2:2:0:0:
408,114,210988,1,8,2:2:0:0:
372,133,211077,1,8,2:2:0:0:
353,166,211165,6,0,P|337:250|336:336,1,172.500003290176,14|10,2:1|2:2,0:0:0:0:
122,231,211695,1,10,2:1:0:0:
122,231,211783,1,8,2:2:0:0:
122,231,211871,1,10,2:1:0:0:
243,85,212048,1,10,2:1:0:0:
227,324,212224,1,10,2:2:0:0:
37,165,212400,6,0,B|90:107|155:131|155:131|167:153|195:171,1,172.500003290176,10|8,2:1|2:1,0:0:0:0:
384,121,212930,1,10,2:2:0:0:
259,24,213106,1,10,2:1:0:0:
259,24,213195,1,8,2:2:0:0:
258,23,213283,2,0,P|268:65|271:108,1,86.2500016450882,10|8,2:1|2:1,0:0:0:0:
486,231,213636,2,0,P|476:189|474:146,1,86.2500016450882,10|0,2:2|0:0,0:0:0:0:
298,318,213989,6,0,P|329:346|371:343,1,86.2500016450882,14|0,2:1|0:0,0:0:0:0:
258,171,214342,1,10,2:2:0:0:
156,324,214518,1,8,2:1:0:0:
156,324,214606,1,8,2:2:0:0:
156,324,214695,1,10,2:1:0:0:
364,243,214871,1,8,2:1:0:0:
149,175,215048,1,10,2:2:0:0:
239,24,215224,6,0,B|261:40|283:50|283:50|277:106|275:171,1,172.500003290176,8|8,2:1|2:1,0:0:0:0:
43,334,215753,2,0,P|49:291|49:247,1,86.2500016450882,10|8,2:2|2:1,0:0:0:0:
50,249,216018,1,8,2:2:0:0:
50,249,216106,1,10,2:1:0:0:
174,154,216283,1,8,2:1:0:0:
241,360,216459,2,0,P|287:357|316:324,1,86.2500016450882,10|8,2:2|2:1,0:0:0:0:
512,116,216812,6,0,B|419:108|448:169|350:158,1,172.500003290176,14|10,2:1|2:2,0:0:0:0:
137,73,217342,1,10,2:1:0:0:
137,73,217430,1,8,0:0:0:0:
137,73,217518,1,10,2:1:0:0:
248,260,217695,1,10,2:1:0:0:
295,50,217871,1,10,2:2:0:0:
60,205,218048,6,0,P|-3:153|12:72,1,172.500003290176,10|8,2:1|2:1,0:0:0:0:
184,11,218577,1,10,2:2:0:0:
292,160,218753,1,8,2:1:0:0:
292,160,218842,1,8,2:2:0:0:
292,160,218930,2,0,P|285:204|284:252,1,86.2500016450882,10|8,2:1|2:1,0:0:0:0:
99,372,219283,2,0,P|105:329|105:286,1,86.2500016450882,10|0,2:2|0:0,0:0:0:0:
345,307,219636,6,0,P|312:336|253:322,1,86.2500016450882,14|0,2:1|0:0,0:0:0:0:
420,166,219989,2,0,P|459:173|508:173,1,86.2500016450882,10|8,2:2|2:1,0:0:0:0:
506,174,220253,1,8,2:2:0:0:
506,174,220342,1,10,2:1:0:0:
375,38,220518,1,8,2:1:0:0:
294,258,220695,6,0,B|222:283|176:225|176:225|182:203|182:179,1,172.500003290176,14|2,2:2|2:3,0:0:0:0:
391,136,221224,1,8,2:1:0:0:
289,17,221400,2,0,P|280:59|278:102,1,86.2500016450882,10|8,2:2|2:1,0:0:0:0:
94,185,221753,1,10,2:2:0:0:
0,46,221930,5,8,2:1:0:0:
37,36,222018,1,8,0:0:0:0:
75,40,222106,1,10,2:2:0:0:
108,60,222195,1,8,2:2:0:0:
129,92,222283,1,8,2:2:0:0:
159,116,222371,1,8,2:2:0:0:
196,127,222459,6,0,P|240:125|283:116,1,86.2500016450882,14|0,2:1|0:0,0:0:0:0:
268,320,222812,2,0,P|266:276|258:234,1,86.2500016450882,10|10,2:2|2:1,0:0:0:0:
259,235,223077,1,8,2:2:0:0:
259,235,223165,1,10,2:1:0:0:
426,171,223342,1,10,2:1:0:0:
382,369,223518,1,10,2:2:0:0:
505,131,223695,6,0,B|485:67|408:66|408:66|393:88|360:103,1,172.500003290176,14|8,2:1|2:1,0:0:0:0:
118,52,224224,2,0,P|162:49|210:39,1,86.2500016450882,10|8,2:2|2:1,0:0:0:0:
203,40,224489,1,8,2:2:0:0:
203,40,224577,1,10,2:1:0:0:
314,208,224753,1,8,2:1:0:0:
333,20,224930,1,10,2:2:0:0:
205,147,225106,1,2,2:2:0:0:
388,298,225283,6,0,B|407:280|432:266|432:266|435:208|440:148,1,172.500003290176,14|10,2:1|2:2,0:0:0:0:
189,237,225812,1,10,2:1:0:0:
189,237,225900,1,8,2:2:0:0:
189,237,225989,1,10,2:1:0:0:
319,103,226165,1,10,2:1:0:0:
298,321,226342,1,10,2:2:0:0:
167,142,226518,6,0,B|270:134|230:199|328:193,1,172.500003290176,14|8,2:1|2:1,0:0:0:0:
184,45,227048,1,10,2:2:0:0:
46,173,227224,1,8,0:0:0:0:
46,173,227312,1,8,2:2:0:0:
46,172,227400,2,0,P|43:129|35:87,1,86.2500016450882,10|8,2:2|2:1,0:0:0:0:
0,297,227753,5,10,2:1:0:0:
38,305,227842,1,8,0:0:0:0:
76,303,227930,1,8,0:0:0:0:
110,285,228018,1,8,0:0:0:0:
139,259,228106,6,0,B|205:225|263:259|263:259|268:280|285:307,1,172.500003290176,14|2,2:1|2:2,0:0:0:0:
488,374,228636,2,0,P|491:331|500:288,1,86.2500016450882,10|8,2:1|2:2,0:0:0:0:
364,162,228989,2,0,P|360:204|351:247,1,86.2500016450882,10|0,2:1|0:0,0:0:0:0:
512,23,229342,6,0,P|457:84|376:63,1,172.500003290176,14|8,2:1|2:1,0:0:0:0:
177,148,229871,2,0,P|220:151|259:133,1,86.2500016450882,10|0,2:2|0:0,0:0:0:0:
154,13,230224,1,10,2:2:0:0:
38,126,230400,5,8,2:1:0:0:
41,146,230489,1,8,0:0:0:0:
44,167,230577,1,10,2:2:0:0:
47,188,230665,1,8,2:2:0:0:
51,209,230753,1,8,2:2:0:0:
167,335,230930,5,10,2:2:0:0:
383,240,231106,1,10,2:2:0:0:
110,121,231459,5,10,2:2:0:0:
296,220,231636,1,8,2:2:0:0:
426,62,231989,5,8,2:2:0:0:
214,198,232165,1,10,2:2:0:0:
471,333,233753,6,0,P|439:269|368:275,1,150,14|10,2:1|2:2,0:0:0:0:
227,370,234283,1,10,2:1:0:0:
227,370,234371,1,8,2:1:0:0:
227,370,234459,2,0,P|224:331|216:289,1,75,10|10,2:1|2:1,0:0:0:0:
230,137,234812,1,10,2:2:0:0:
43,143,234989,6,0,P|81:203|151:194,1,150,10|10,2:1|2:1,0:0:0:0:
251,38,235518,2,0,P|215:46|178:47,1,75,10|10,2:2|2:1,0:0:0:0:
178,47,235783,1,8,2:2:0:0:
178,46,235871,1,10,2:1:0:0:
338,117,236048,1,10,2:1:0:0:
241,210,236224,2,0,P|238:173|230:137,1,75,10|10,2:2|2:1,0:0:0:0:
472,175,236577,6,0,B|382:166|420:220|328:212,1,150,14|10,2:1|2:2,0:0:0:0:
450,349,237106,1,10,2:1:0:0:
450,349,237195,1,8,2:2:0:0:
450,349,237283,2,0,P|453:307|463:265,1,75,10|10,2:1|2:1,0:0:0:0:
320,198,237636,1,10,2:2:0:0:
219,351,237812,6,0,B|152:368|114:322|114:322|118:304|119:285,1,150,10|10,2:1|2:1,0:0:0:0:
1,105,238342,1,10,2:2:0:0:
27,292,238518,1,10,2:1:0:0:
27,292,238606,1,8,2:2:0:0:
27,292,238695,1,10,2:1:0:0:
120,125,238871,1,10,2:1:0:0:
0,193,239048,2,0,P|37:193|73:201,1,75,10|10,2:2|2:1,0:0:0:0:
255,102,239400,6,0,P|222:38|151:46,1,150,14|10,2:1|2:2,0:0:0:0:
8,105,239930,1,10,2:1:0:0:
8,105,240018,1,8,2:1:0:0:
8,105,240106,2,0,P|5:63|-2:25,1,75,10|10,2:1|2:1,0:0:0:0:
120,125,240459,1,14,2:2:0:0:
171,265,240636,6,0,B|195:279|211:295|211:295|265:288|310:286,1,150,10|10,2:1|2:1,0:0:0:0:
425,120,241165,1,10,2:2:0:0:
259,193,241342,1,10,2:1:0:0:
259,193,241430,1,8,2:2:0:0:
259,193,241518,1,10,2:1:0:0:
434,250,241695,1,10,2:1:0:0:
339,144,241871,2,0,P|348:180|350:217,1,75,10|10,2:2|2:1,0:0:0:0:
309,310,242224,5,8,2:1:0:0:
79,351,242400,2,0,P|54:323|53:286,1,75,14|8,2:2|2:1,0:0:0:0:
84,194,242753,5,10,2:1:0:0:
246,23,242930,2,0,P|270:50|271:87,1,75,14|8,2:2|2:2,0:0:0:0:
142,293,243283,5,10,2:2:0:0:
181,81,243459,1,14,2:1:0:0:
256,192,243548,12,0,250695,0:0:0:0:
