osu file format v14

[General]
AudioFilename: audio.mp3
AudioLeadIn: -4500
PreviewTime: 59855
Countdown: 0
SampleSet: Soft
StackLeniency: 0.7
Mode: 0
LetterboxInBreaks: 0
WidescreenStoryboard: 1

[Editor]
DistanceSpacing: 1
BeatDivisor: 4
GridSize: 4
TimelineZoom: 1.5

[Metadata]
Title:CHASE! (Cut Ver.)
TitleUnicode:CHASE! (Cut Ver.)
Artist:Yuki Setsuna (CV: Kusunoki Tomori)
ArtistUnicode:優木せつ菜 (CV: 楠木ともり)
Creator:Doormat
Version:Insane
Source:ラブライブ!虹ヶ咲学園スクールアイドル同好会
Tags:love live! nijigasaki high school idol club gakuen doukoukai doukou kai nijigaku ニジガク nakagawa nana 中川菜々 llas sifas スクスタ festival all stars スクールアイドルフェスティバル perfect dream project pdp tokimeki runners anime video game japanese rock
BeatmapID:2641818
BeatmapSetID:1271270

[Difficulty]
HPDrainRate:5.5
CircleSize:4
OverallDifficulty:8
ApproachRate:8.8
SliderMultiplier:1.6
SliderTickRate:1

[Events]
//Background and Video events
0,0,"setsuna.jpg",0,0
Video,-1420,"chase mv.mp4"
//Break Periods
//Storyboard Layer 0 (Background)
//Storyboard Layer 1 (Fail)
//Storyboard Layer 2 (Pass)
//Storyboard Layer 3 (Foreground)
//Storyboard Layer 4 (Overlay)
//Storyboard Sound Samples

[TimingPoints]
840,352.941176470588,4,2,1,50,1,0
840,-125,4,2,1,50,0,0
14251,-100,4,2,1,10,0,0
14957,-100,4,2,1,60,0,0
26251,-125,4,2,1,50,0,0
36663,-100,4,2,1,60,0,0
37545,-100,4,2,1,60,0,0
48839,-125,4,2,1,50,0,0
54487,-100,4,2,1,60,0,0
60134,-90.9090909090909,4,2,1,80,0,1
82634,-90.9090909090909,4,2,1,80,0,0
82722,-83.3333333333333,4,2,1,80,0,1
94016,-90.9090909090909,4,2,1,80,0,1
99663,-100,4,2,1,80,0,1
102487,-100,4,2,1,60,0,0
105310,-100,4,2,1,60,0,0
113781,-100,4,2,1,60,0,0
120839,-100,4,2,1,5,0,0

[Colours]
Combo1 : 250,200,10
Combo2 : 255,70,70
Combo3 : 255,255,15
Combo4 : 225,15,15

[HitObjects]
128,128,840,6,0,L|272:96,1,128,2|2,0:0|0:0,0:0:0:0:
336,140,1369,1,2,0:0:0:0:
164,248,1722,1,2,0:0:0:0:
343,342,2075,2,0,P|432:351|473:270,1,192,2|0,0:0|0:0,0:0:0:0:
412,200,2781,1,2,0:0:0:0:
412,200,2957,2,0,L|348:220,1,64,2|0,0:0|0:0,0:0:0:0:
324,128,3310,2,0,L|388:108,1,64,2|0,0:0|0:0,0:0:0:0:
326,26,3663,6,0,P|295:20|265:9,1,64,2|0,0:0|0:0,0:0:0:0:
232,96,4016,2,0,P|200:102|170:113,1,64,2|0,0:0|0:0,0:0:0:0:
144,24,4369,2,0,P|112:17|82:6,1,64,2|0,0:0|0:0,0:0:0:0:
23,80,4722,2,0,P|24:172|120:191,1,192,2|0,0:0|0:0,0:0:0:0:
180,256,5428,2,0,L|172:332,1,64,2|0,0:0|0:0,0:0:0:0:
246,184,5781,2,0,L|224:58,1,128,2|0,0:0|0:0,0:0:0:0:
224,59,6487,6,0,P|274:23|335:35,1,128,2|2,0:0|0:0,0:0:0:0:
408,88,7016,1,2,0:0:0:0:
296,256,7369,1,2,0:0:0:0:
205,74,7722,2,0,P|119:34|40:88,1,192,2|0,0:0|0:0,0:0:0:0:
43,81,8604,2,0,L|52:160,1,64,2|0,0:0|0:0,0:0:0:0:
151,165,8957,2,0,L|144:244,1,64,2|0,0:0|0:0,0:0:0:0:
176,328,9310,6,0,P|201:309|231:296,1,64,2|0,0:0|0:0,0:0:0:0:
292,224,9663,2,0,P|266:205|236:192,1,64,2|0,0:0|0:0,0:0:0:0:
176,120,10016,2,0,P|201:101|231:88,1,64,2|0,0:0|0:0,0:0:0:0:
324,104,10369,2,0,P|375:179|466:169,1,192,2|0,0:0|0:0,0:0:0:0:
512,252,11075,2,0,L|504:320,1,64,2|0,0:0|0:0,0:0:0:0:
404,272,11428,1,2,0:0:0:0:
256,192,11516,12,0,14251,0:0:0:0:
372,20,14957,6,0,P|360:80|344:192,1,160,6|8,1:0|0:0,0:0:0:0:
232,120,15487,1,0,1:0:0:0:
232,120,15575,1,8,0:0:0:0:
232,120,15663,2,0,P|228:72|220:28,1,80,0|0,1:0|1:0,0:0:0:0:
80,140,16016,6,0,P|150:171|161:247,1,160,8|0,0:0|0:0,0:0:0:0:
108,332,16545,1,0,1:0:0:0:
244,380,16722,2,0,L|260:252,1,120,8|8,0:0|0:0,0:0:0:0:
252,248,17075,1,0,1:0:0:0:
348,304,17251,1,0,1:0:0:0:
400,184,17428,2,0,L|320:164,1,80,8|0,0:0|0:0,0:0:0:0:
364,8,17781,6,0,P|400:56|496:60,1,160,4|8,1:2|0:0,0:0:0:0:
488,192,18310,1,0,1:0:0:0:
488,192,18398,1,8,0:0:0:0:
488,192,18487,2,0,P|476:236|472:284,1,80,0|0,1:0|1:0,0:0:0:0:
307,228,18839,6,0,P|261:166|290:95,1,160,8|0,0:0|0:0,0:0:0:0:
392,88,19369,1,0,1:0:0:0:
260,0,19545,2,0,L|116:32,1,120,8|8,0:0|0:0,0:0:0:0:
136,36,19898,1,0,1:0:0:0:
224,120,20075,1,0,1:0:0:0:
104,200,20251,2,0,L|20:176,1,80,8|0,0:0|0:0,0:0:0:0:
224,120,20604,6,0,L|412:80,1,160,4|8,1:2|0:0,0:0:0:0:
368,240,21134,1,0,1:0:0:0:
368,240,21222,1,8,0:0:0:0:
368,240,21310,2,0,L|272:224,1,80,0|0,1:0|1:0,0:0:0:0:
416,8,21663,6,0,P|468:40|444:144,1,160,4|0,1:2|0:0,0:0:0:0:
352,112,22192,1,0,1:0:0:0:
452,240,22369,1,8,0:0:0:0:
342,222,22545,5,0,1:0:0:0:
342,222,22634,1,8,0:0:0:0:
342,222,22722,2,0,L|248:248,1,80,0|0,1:0|1:0,0:0:0:0:
197,155,23075,2,0,L|352:112,1,160,8|0,0:0|1:0,0:0:0:0:
452,240,23604,5,4,1:2:0:0:
328,308,23781,2,0,L|316:228,1,80,0|0,1:0|1:0,0:0:0:0:
512,124,24134,5,4,1:2:0:0:
388,56,24310,2,0,L|376:135,1,80,0|0,1:0|1:0,0:0:0:0:
208,296,24663,6,0,P|163:233|195:164,1,160,4|0,1:2|0:0,0:0:0:0:
288,124,25192,1,0,0:0:0:0:
206,64,25369,1,0,0:0:0:0:
195,164,25545,1,0,0:0:0:0:
195,165,26251,6,0,B|164:265|208:357|208:357|268:325|284:249,1,320,6|0,1:2|0:0,0:0:0:0:
301,171,27310,1,2,0:0:0:0:
368,236,27487,1,2,0:0:0:0:
391,144,27663,2,0,B|345:97|324:31|324:31|282:83|220:94,1,256,0|0,1:0|0:0,0:0:0:0:
136,32,28545,5,2,0:0:0:0:
155,186,28722,1,2,0:0:0:0:
136,32,28898,2,0,L|57:46,1,64,2|0,0:0|1:0,0:0:0:0:
240,108,29251,5,2,0:0:0:0:
259,262,29428,1,2,0:0:0:0:
240,108,29604,2,0,L|319:94,1,64,2|0,0:0|0:0,0:0:0:0:
259,262,29957,2,0,L|121:286,1,128,2|2,0:0|0:0,0:0:0:0:
32,171,30487,6,0,P|79:130|83:68,1,128,0|0,1:0|0:0,0:0:0:0:
172,28,31016,2,0,L|184:92,1,64,2|0,0:0|0:0,0:0:0:0:
284,116,31369,1,2,0:0:0:0:
284,116,31545,2,0,L|295:53,1,64,2|2,0:0|0:0,0:0:0:0:
408,104,31898,6,0,B|444:176|416:244|416:244|376:236|340:204|340:204|324:248|272:272,1,320,2|0,1:2|0:0,0:0:0:0:
204,216,32957,1,2,0:0:0:0:
197,309,33134,1,2,0:0:0:0:
119,257,33310,2,0,B|96:196|104:84|104:84|104:128|128:164,1,256,0|0,1:0|0:0,0:0:0:0:
204,72,34192,5,2,0:0:0:0:
44,12,34369,1,2,0:0:0:0:
204,72,34545,2,0,L|216:-8,1,64,2|0,0:0|1:0,0:0:0:0:
96,128,34898,5,2,0:0:0:0:
256,188,35075,1,2,0:0:0:0:
96,128,35251,2,0,L|86:191,1,64,2|0,0:0|0:0,0:0:0:0:
256,188,35604,2,0,L|265:124,1,64,2|0,0:0|0:0,0:0:0:0:
172,304,35957,1,2,1:2:0:0:
340,80,36663,5,0,3:0:0:0:
340,80,36751,1,0,3:0:0:0:
340,80,36839,1,8,1:3:0:0:
232,161,37016,1,4,1:3:0:0:
356,213,37192,1,0,3:0:0:0:
384,205,37281,1,0,3:0:0:0:
413,197,37369,1,0,3:0:0:0:
442,189,37457,1,0,3:0:0:0:
471,181,37545,6,0,L|468:261,1,80,6|2,1:2|0:2,0:0:0:0:
352,112,37898,2,0,L|355:32,1,80,10|2,0:2|0:2,0:0:0:0:
228,116,38251,1,2,1:2:0:0:
316,248,38428,2,0,L|392:224,1,80,2|8,1:2|0:0,0:0:0:0:
228,116,38781,6,0,L|151:92,1,80,2|0,0:2|1:0,0:0:0:0:
280,8,39134,1,2,0:2:0:0:
329,169,39310,2,0,L|316:248,1,80,10|2,0:2|1:2,0:0:0:0:
316,248,39575,1,8,0:0:0:0:
316,248,39663,1,2,1:2:0:0:
196,148,39839,2,0,L|209:69,1,80,2|8,1:2|0:0,0:0:0:0:
56,204,40192,6,0,P|119:248|119:325,1,160,2|2,0:2|0:2,0:0:0:0:
184,172,40722,1,10,0:2:0:0:
0,280,40898,1,2,1:2:0:0:
0,280,40987,1,8,0:0:0:0:
0,280,41075,1,2,1:2:0:0:
36,112,41251,2,0,L|124:124,1,80,2|8,1:2|0:0,0:0:0:0:
208,284,41604,6,0,P|130:291|85:355,1,160,2|2,0:2|0:2,0:0:0:0:
128,192,42134,1,8,0:0:0:0:
184,384,42310,1,2,1:2:0:0:
184,384,42398,1,8,0:0:0:0:
184,384,42487,2,0,L|262:366,1,80,0|2,1:0|1:2,0:0:0:0:
328,256,42839,1,10,0:2:0:0:
160,208,43016,5,2,1:2:0:0:
160,208,43104,1,8,0:0:0:0:
159,207,43192,2,0,P|134:134|191:79,2,160,2|8|0,1:2|0:0|1:0,0:0:0:0:
256,172,44075,1,0,1:0:0:0:
196,304,44251,1,10,0:2:0:0:
292,268,44428,6,0,L|370:285,1,80,2|0,0:0|1:0,0:0:0:0:
159,207,44781,2,0,L|81:224,1,80,0|8,3:0|0:0,0:0:0:0:
180,100,45134,1,0,3:2:0:0:
180,100,45222,1,8,0:0:0:0:
180,100,45310,1,0,1:0:0:0:
280,192,45487,1,2,1:2:0:0:
200,304,45663,2,0,P|206:343|211:383,1,80,10|2,0:2|0:2,0:0:0:0:
386,257,46016,6,0,P|379:217|374:177,1,80,4|2,1:2|0:2,0:0:0:0:
408,64,46369,1,10,0:2:0:0:
272,144,46545,1,2,1:2:0:0:
272,144,46634,1,8,0:0:0:0:
272,144,46722,1,0,1:0:0:0:
408,228,46898,2,0,L|496:212,1,80,2|8,1:2|0:0,0:0:0:0:
452,48,47251,6,0,P|390:1|315:22,1,160,6|2,1:2|1:2,0:0:0:0:
200,128,47781,1,10,0:2:0:0:
204,17,47957,1,0,1:0:0:0:
310,132,48134,2,0,L|297:211,2,80,8|8|4,0:0|1:3|1:3,0:0:0:0:
76,168,48839,6,0,L|104:369,1,192,4|0,1:2|1:0,0:0:0:0:
204,384,49545,2,0,P|243:337|236:275,1,128,8|0,0:0|0:0,0:0:0:0:
212,185,50075,6,0,L|152:207,1,64,8|0,1:3|0:0,0:0:0:0:
124,121,50428,1,0,1:0:0:0:
124,121,50604,2,0,L|183:98,1,64,0|0,1:0|0:0,0:0:0:0:
280,69,50957,2,0,P|320:101|304:185,1,128,10|0,0:0|0:0,0:0:0:0:
256,257,51487,5,0,3:0:0:0:
256,257,51575,1,0,3:0:0:0:
256,257,51663,2,0,L|452:277,1,192,4|0,1:2|1:0,0:0:0:0:
352,161,52369,1,8,0:0:0:0:
300,353,52545,2,0,L|236:358,1,64,8|8,0:0|0:3,0:0:0:0:
136,281,52898,6,0,P|172:253|164:161,1,128,4|8,1:2|0:0,0:0:0:0:
208,85,53428,2,0,L|271:92,1,64,0|0,1:0|0:0,0:0:0:0:
174,175,53781,2,0,L|110:167,1,64,10|0,0:0|1:0,0:0:0:0:
172,281,54134,5,0,3:0:0:0:
200,294,54222,1,0,3:0:0:0:
232,293,54310,1,0,3:0:0:0:
261,279,54398,1,0,3:0:0:0:
281,255,54487,6,0,L|287:334,1,80,6|0,1:2|0:0,0:0:0:0:
156,193,54839,2,0,L|162:113,1,80,10|0,0:0|1:0,0:0:0:0:
297,271,55192,6,0,L|303:350,1,80,2|0,1:2|1:0,0:0:0:0:
172,209,55545,2,0,L|178:129,1,80,10|0,0:2|0:0,0:0:0:0:
316,33,55898,6,0,P|374:82|365:158,1,160,6|8,1:2|0:0,0:0:0:0:
312,325,56428,1,0,1:0:0:0:
312,325,56516,1,8,0:0:0:0:
312,325,56604,2,0,L|404:337,1,80,2|0,1:2|0:0,0:0:0:0:
248,149,56957,2,0,L|116:181,1,120,10|8,0:2|0:0,0:0:0:0:
120,173,57310,6,0,P|141:245|87:299,1,160,6|10,1:2|0:2,0:0:0:0:
332,364,57839,2,0,P|310:291|364:237,1,160,6|2,1:2|1:2,0:0:0:0:
512,188,58369,1,8,0:0:0:0:
272,136,58545,1,10,1:2:0:0:
272,136,58898,5,10,1:2:0:0:
512,188,59075,1,10,1:2:0:0:
512,188,60134,6,0,P|449:248|359:213,1,176.000005371094,6|10,1:0|0:2,0:0:0:0:
296,140,60663,2,0,L|310:53,1,88.000002685547,2|0,1:2|0:0,0:0:0:0:
160,176,61016,2,0,L|176:272,1,88.000002685547,2|8,1:2|0:0,0:0:0:0:
416,208,61369,6,0,P|480:153|469:70,1,176.000005371094,2|0,1:2|1:0,0:0:0:0:
332,0,61898,1,8,0:0:0:0:
254,153,62075,1,2,1:2:0:0:
254,153,62163,1,8,0:0:0:0:
254,153,62251,2,0,L|154:133,1,88.000002685547,2|0,1:2|1:0,0:0:0:0:
382,87,62604,2,0,L|482:67,1,88.000002685547,10|0,0:2|0:0,0:0:0:0:
455,248,62957,6,0,P|445:290|443:334,1,88.000002685547,2|0,1:2|0:0,0:0:0:0:
238,238,63310,2,0,P|248:195|252:152,1,88.000002685547,10|0,0:2|1:0,0:0:0:0:
252,152,63575,1,8,0:0:0:0:
252,152,63663,1,2,1:2:0:0:
364,248,63839,1,0,1:0:0:0:
172,336,64016,6,0,P|112:320|-28:296,1,176.000005371094,10|0,0:2|0:0,0:0:0:0:
80,120,64545,1,0,1:0:0:0:
164,208,64722,2,0,P|207:201|250:190,1,88.000002685547,10|0,0:2|1:0,0:0:0:0:
256,200,64987,1,8,0:0:0:0:
261,210,65075,2,0,L|251:307,1,88.000002685547,2|0,1:2|0:0,0:0:0:0:
428,376,65428,2,0,L|418:288,1,88.000002685547,8|0,0:0|0:0,0:0:0:0:
220,108,65781,6,0,P|152:157|167:239,1,176.000005371094,6|10,1:2|0:2,0:0:0:0:
332,176,66310,1,2,1:2:0:0:
332,176,66398,1,8,0:0:0:0:
332,176,66487,1,0,1:0:0:0:
384,364,66663,2,0,L|297:379,1,88.000002685547,2|8,1:2|0:0,0:0:0:0:
300,88,67016,6,0,P|384:90|425:163,1,176.000005371094,2|0,1:2|1:0,0:0:0:0:
340,268,67545,1,8,0:0:0:0:
180,152,67722,1,0,1:0:0:0:
180,152,67810,1,8,0:0:0:0:
180,152,67898,2,0,L|192:60,1,88.000002685547,2|0,1:2|1:0,0:0:0:0:
376,32,68251,2,0,L|388:120,1,88.000002685547,10|0,0:2|0:0,0:0:0:0:
416,312,68604,6,0,P|459:310|491:281,1,88.000002685547,6|0,1:2|0:0,0:0:0:0:
280,344,68957,2,0,P|248:315|204:313,1,88.000002685547,10|0,0:2|1:0,0:0:0:0:
198,322,69222,1,8,0:0:0:0:
191,330,69310,2,0,L|183:242,1,88.000002685547,2|0,1:2|1:0,0:0:0:0:
356,56,69663,6,0,L|340:248,1,176.000005371094,10|0,0:2|0:0,0:0:0:0:
460,100,70192,1,0,1:0:0:0:
280,4,70369,2,0,L|192:20,1,88.000002685547,10|0,0:2|0:0,0:0:0:0:
220,284,70722,5,10,1:2:0:0:
272,88,70898,1,8,1:2:0:0:
369,207,71075,1,0,3:0:0:0:
402,203,71163,1,0,3:0:0:0:
435,199,71251,1,0,3:0:0:0:
468,195,71339,1,0,3:0:0:0:
501,192,71428,6,0,P|537:267|488:335,1,176.000005371094,6|10,1:2|0:2,0:0:0:0:
376,128,71957,1,2,1:2:0:0:
376,128,72045,1,8,0:0:0:0:
376,128,72134,1,0,1:0:0:0:
280,240,72310,2,0,L|296:332,1,88.000002685547,2|8,1:2|0:0,0:0:0:0:
468,96,72663,6,0,P|413:31|329:43,1,176.000005371094,6|0,1:2|1:0,0:0:0:0:
276,255,73192,2,0,L|361:235,1,88.000002685547,10|0,0:2|1:0,0:0:0:0:
361,234,73457,1,8,0:0:0:0:
361,234,73545,1,2,1:2:0:0:
284,128,73722,1,0,1:0:0:0:
204,360,73898,1,8,0:0:0:0:
126,251,74075,1,2,0:2:0:0:
340,348,74251,6,0,P|425:328|512:314,1,176.000005371094,6|10,1:2|0:2,0:0:0:0:
392,132,74781,1,2,1:2:0:0:
392,132,74869,1,8,0:0:0:0:
392,132,74957,1,0,1:0:0:0:
304,224,75134,2,0,P|260:220|208:208,1,88.000002685547,2|8,1:2|0:0,0:0:0:0:
376,376,75487,6,0,P|426:308|520:312,1,176.000005371094,6|0,1:2|1:0,0:0:0:0:
391,131,76016,2,0,L|305:150,1,88.000002685547,10|0,0:2|1:0,0:0:0:0:
305,150,76281,1,8,0:0:0:0:
305,150,76369,1,2,1:2:0:0:
372,8,76545,1,0,1:0:0:0:
372,8,76634,1,0,1:0:0:0:
372,8,76722,1,8,0:0:0:0:
488,164,76898,5,0,1:0:0:0:
488,164,76987,1,0,1:0:0:0:
488,164,77075,2,0,P|515:243|436:312,1,176.000005371094,6|10,1:2|0:2,0:0:0:0:
320,208,77604,1,2,1:2:0:0:
320,208,77692,1,8,0:0:0:0:
320,208,77781,1,0,1:0:0:0:
264,332,77957,2,0,L|152:316,1,88.000002685547,2|8,1:2|0:0,0:0:0:0:
288,128,78310,6,0,P|372:112|483:98,1,176.000005371094,6|0,1:2|1:0,0:0:0:0:
280,4,78839,1,8,0:0:0:0:
184,176,79016,1,0,1:0:0:0:
184,176,79104,1,8,0:0:0:0:
184,176,79192,2,0,L|202:261,1,88.000002685547,2|0,1:2|1:0,0:0:0:0:
376,316,79545,2,0,L|394:230,1,88.000002685547,10|0,0:2|0:0,0:0:0:0:
316,12,79898,5,6,1:2:0:0:
512,104,80075,1,2,1:2:0:0:
512,104,80251,1,2,1:2:0:0:
224,180,80428,5,6,1:2:0:0:
408,72,80604,1,0,1:0:0:0:
408,72,80781,1,2,1:2:0:0:
200,20,80957,1,8,1:2:0:0:
148,292,81134,6,0,P|235:280|321:264,1,176.000005371094,6|0,1:2|1:0,0:0:0:0:
152,132,81663,2,0,P|110:124|54:104,1,88.000002685547,10|0,0:2|3:0,0:0:0:0:
321,263,82016,2,0,P|362:255|418:235,1,88.000002685547,10|0,3:2|3:0,0:0:0:0:
439,213,82281,1,0,3:0:0:0:
455,173,82369,1,0,3:0:0:0:
449,130,82457,1,0,3:0:0:0:
423,95,82545,1,0,3:0:0:0:
384,77,82634,1,0,3:0:0:0:
340,81,82722,6,0,P|268:93|145:103,1,191.999994140625,6|10,1:0|0:2,0:0:0:0:
284,236,83251,2,0,L|384:252,1,95.9999970703126,2|0,1:2|0:0,0:0:0:0:
224,368,83604,2,0,L|116:384,1,95.9999970703126,2|8,1:2|0:0,0:0:0:0:
44,188,83957,6,0,P|24:98|100:36,1,191.999994140625,2|0,1:2|1:0,0:0:0:0:
212,120,84487,1,8,0:0:0:0:
96,316,84663,1,2,1:2:0:0:
96,316,84751,1,8,0:0:0:0:
96,316,84839,2,0,L|-8:304,1,95.9999970703126,2|0,1:2|1:0,0:0:0:0:
8,80,85192,2,0,L|112:68,1,95.9999970703126,14|0,0:2|0:0,0:0:0:0:
208,256,85545,6,0,P|201:303|192:350,1,95.9999970703126,6|0,1:2|0:0,0:0:0:0:
363,183,85898,2,0,P|353:136|348:89,1,95.9999970703126,10|0,0:2|1:0,0:0:0:0:
348,89,86163,1,8,0:0:0:0:
348,89,86251,1,2,1:2:0:0:
512,248,86428,1,0,1:0:0:0:
292,328,86604,6,0,P|228:316|88:296,1,191.999994140625,10|0,0:2|0:0,0:0:0:0:
184,72,87134,1,0,1:0:0:0:
284,196,87310,2,0,P|340:184|408:164,1,95.9999970703126,10|0,0:2|1:0,0:0:0:0:
384,184,87575,1,8,0:0:0:0:
390,194,87663,2,0,L|378:298,1,95.9999970703126,2|0,1:2|0:0,0:0:0:0:
172,167,88016,2,0,L|184:63,1,95.9999970703126,8|0,0:0|0:0,0:0:0:0:
24,300,88369,6,0,P|115:299|164:384,1,191.999994140625,6|10,1:2|0:2,0:0:0:0:
240,192,88898,2,0,P|227:145|216:98,1,95.9999970703126,2|0,1:2|0:0,0:0:0:0:
388,212,89251,2,0,P|376:264|364:308,1,95.9999970703126,2|8,1:2|0:0,0:0:0:0:
275,27,89604,6,0,P|183:19|122:89,1,191.999994140625,6|0,1:2|1:0,0:0:0:0:
84,284,90134,1,8,0:0:0:0:
0,168,90310,1,0,1:0:0:0:
0,168,90398,1,8,0:0:0:0:
0,168,90487,2,0,L|16:72,1,95.9999970703126,2|0,1:2|1:0,0:0:0:0:
208,204,90839,2,0,L|223:298,1,95.9999970703126,10|0,0:2|0:0,0:0:0:0:
400,80,91192,6,0,P|315:88|254:0,1,191.999994140625,6|10,1:2|0:2,0:0:0:0:
112,212,91722,1,0,1:0:0:0:
112,212,91810,1,8,0:0:0:0:
112,212,91898,1,2,1:2:0:0:
96,40,92075,1,0,0:0:0:0:
296,192,92251,6,0,L|269:382,1,191.999994140625,6|0,1:2|0:0,0:0:0:0:
172,272,92781,1,0,1:0:0:0:
400,200,92957,2,0,L|504:222,1,95.9999970703126,10|0,1:2|1:0,0:0:0:0:
172,272,93310,2,0,L|67:294,1,95.9999970703126,10|0,1:2|3:0,0:0:0:0:
40,279,93575,1,0,3:0:0:0:
12,251,93663,1,0,3:0:0:0:
1,213,93751,1,0,3:0:0:0:
8,174,93839,1,0,3:0:0:0:
32,142,93928,1,0,3:0:0:0:
68,126,94016,6,0,P|149:139|253:149,1,176.000005371094,6|10,1:2|0:2,0:0:0:0:
192,20,94545,1,2,1:2:0:0:
192,20,94634,1,8,0:0:0:0:
192,20,94722,1,0,1:0:0:0:
80,236,94898,2,0,L|87:323,1,88.000002685547,2|8,1:2|0:0,0:0:0:0:
312,228,95251,6,0,P|351:153|310:79,1,176.000005371094,6|0,1:2|1:0,0:0:0:0:
511,23,95781,2,0,L|501:111,1,88.000002685547,10|0,0:2|1:0,0:0:0:0:
501,111,96045,1,8,0:0:0:0:
501,111,96134,1,2,1:2:0:0:
392,16,96310,1,0,1:0:0:0:
302,140,96487,2,0,L|314:252,1,88.000002685547,8|2,0:0|0:2,0:0:0:0:
84,144,96839,6,0,P|153:95|149:11,1,176.000005371094,6|10,1:2|0:2,0:0:0:0:
200,256,97369,1,2,1:2:0:0:
200,256,97457,1,8,0:0:0:0:
200,256,97545,1,0,1:0:0:0:
302,140,97722,2,0,L|402:152,1,88.000002685547,2|8,1:2|0:0,0:0:0:0:
292,352,98075,6,0,P|208:356|100:376,1,176.000005371094,6|0,1:2|1:2,0:0:0:0:
220,136,98604,1,10,0:2:0:0:
320,240,98781,1,0,1:0:0:0:
320,240,98869,1,8,0:0:0:0:
320,240,98957,2,0,L|420:224,1,88.000002685547,2|0,1:2|1:0,0:0:0:0:
220,136,99310,5,8,3:0:0:0:
189,147,99398,1,8,3:0:0:0:
156,145,99486,1,8,3:0:0:0:
126,131,99574,1,8,3:0:0:0:
103,107,99663,6,0,P|52:165|63:241,1,160,4|2,1:2|0:3,0:0:0:0:
128,328,100192,1,0,1:0:0:0:
220,136,100369,1,8,0:0:0:0:
284,222,100545,2,0,L|272:301,1,80,0|2,1:0|0:3,0:0:0:0:
88,232,100898,6,0,P|56:184|112:88,1,160,4|8,1:2|0:0,0:0:0:0:
247,170,101428,2,0,L|236:250,1,80,2|0,0:3|1:0,0:0:0:0:
160,56,101781,1,8,0:0:0:0:
364,136,101957,1,0,3:0:0:0:
395,128,102045,1,0,3:0:0:0:
426,120,102133,1,0,3:0:0:0:
457,112,102221,1,0,3:0:0:0:
488,105,102309,1,0,3:0:0:0:
280,0,102487,5,8,1:2:0:0:
208,276,102663,1,8,1:2:0:0:
200,289,103016,5,8,1:2:0:0:
472,200,103192,1,8,1:2:0:0:
476,192,103545,5,8,1:2:0:0:
200,110,103722,1,8,1:2:0:0:
200,110,105310,6,0,P|164:146|208:258,1,160,6|8,1:0|0:0,0:0:0:0:
320,304,105839,1,0,1:0:0:0:
320,304,105928,1,8,0:0:0:0:
320,304,106016,2,0,L|336:200,1,80,0|0,1:0|1:0,0:0:0:0:
424,84,106369,6,0,P|370:28|293:39,1,160,8|0,0:0|0:0,0:0:0:0:
240,160,106898,1,0,1:0:0:0:
168,8,107075,2,0,L|32:20,1,120,8|8,0:0|0:0,0:0:0:0:
44,32,107428,1,0,1:0:0:0:
132,124,107604,1,0,1:0:0:0:
32,216,107781,2,0,L|48:308,1,80,8|0,0:0|0:0,0:0:0:0:
252,200,108134,6,0,P|294:135|268:63,1,160,4|8,1:2|0:0,0:0:0:0:
452,144,108663,1,0,1:0:0:0:
452,144,108751,1,8,0:0:0:0:
452,144,108839,2,0,P|433:179|432:218,1,80,0|0,1:0|1:0,0:0:0:0:
452,376,109192,6,0,L|288:348,1,160,8|0,0:0|0:0,0:0:0:0:
208,248,109722,1,0,1:0:0:0:
376,240,109898,2,0,L|516:212,1,120,8|8,0:0|0:0,0:0:0:0:
500,204,110251,1,0,1:0:0:0:
356,112,110428,1,0,1:0:0:0:
292,280,110604,2,0,P|304:318|310:357,1,80,8|0,0:0|0:0,0:0:0:0:
64,264,110957,6,0,P|62:186|123:139,1,160,4|8,1:2|0:0,0:0:0:0:
220,224,111487,1,0,1:0:0:0:
220,224,111575,1,8,0:0:0:0:
220,224,111663,2,0,L|200:332,1,80,0|0,1:0|1:0,0:0:0:0:
288,52,112016,6,0,P|317:123|392:136,1,160,4|0,1:2|0:0,0:0:0:0:
484,76,112545,1,0,1:0:0:0:
440,288,112722,1,8,0:0:0:0:
288,212,112898,5,0,1:0:0:0:
288,212,112987,1,8,0:0:0:0:
288,212,113075,2,0,L|304:108,1,80,0|0,1:0|1:0,0:0:0:0:
484,76,113428,2,0,L|508:252,1,160,8|0,0:0|1:0,0:0:0:0:
384,348,113957,5,4,1:2:0:0:
316,228,114134,2,0,L|393:206,1,80,0|0,1:0|1:0,0:0:0:0:
180,136,114487,5,4,1:2:0:0:
112,256,114664,2,0,L|189:277,1,80,0|0,1:0|0:0,0:0:0:0:
340,116,115016,5,4,1:2:0:0:
256,192,115104,12,0,120839,0:0:0:0:
