osu file format v14

[General]
AudioFilename: audio.mp3
AudioLeadIn: -4500
PreviewTime: 59855
Countdown: 0
SampleSet: Soft
StackLeniency: 0.7
Mode: 0
LetterboxInBreaks: 0
WidescreenStoryboard: 1

[Editor]
DistanceSpacing: 1
BeatDivisor: 4
GridSize: 4
TimelineZoom: 1.5

[Metadata]
Title:CHASE! (Cut Ver.)
TitleUnicode:CHASE! (Cut Ver.)
Artist:Yuki Setsuna (CV: Kusunoki Tomori)
ArtistUnicode:優木せつ菜 (CV: 楠木ともり)
Creator:Doormat
Version:Hard
Source:ラブライブ!虹ヶ咲学園スクールアイドル同好会
Tags:love live! nijigasaki high school idol club gakuen doukoukai doukou kai nijigaku ニジガク nakagawa nana 中川菜々 llas sifas スクスタ festival all stars スクールアイドルフェスティバル perfect dream project pdp tokimeki runners anime video game japanese rock
BeatmapID:2641817
BeatmapSetID:1271270

[Difficulty]
HPDrainRate:5
CircleSize:4
OverallDifficulty:6.5
ApproachRate:7.5
SliderMultiplier:1.4
SliderTickRate:1

[Events]
//Background and Video events
0,0,"setsuna.jpg",0,0
Video,-1420,"chase mv.mp4"
//Break Periods
//Storyboard Layer 0 (Background)
//Storyboard Layer 1 (Fail)
//Storyboard Layer 2 (Pass)
//Storyboard Layer 3 (Foreground)
//Storyboard Layer 4 (Overlay)
//Storyboard Sound Samples

[TimingPoints]
840,352.941176470588,4,2,1,50,1,0
840,-125,4,2,1,50,0,0
14251,-100,4,2,1,10,0,0
14957,-100,4,2,1,60,0,0
26251,-125,4,2,1,50,0,0
36663,-100,4,2,1,60,0,0
37545,-100,4,2,1,60,0,0
48839,-125,4,2,1,50,0,0
54487,-100,4,2,1,60,0,0
60134,-100,4,2,1,80,0,1
82634,-100,4,2,1,80,0,0
82722,-90.9090909090909,4,2,1,80,0,1
94016,-100,4,2,1,80,0,1
102487,-100,4,2,1,60,0,0
105310,-100,4,2,1,60,0,0
113781,-100,4,2,1,60,0,0
120839,-100,4,2,1,5,0,0

[Colours]
Combo1 : 250,200,10
Combo2 : 255,70,70
Combo3 : 255,255,15
Combo4 : 225,15,15

[HitObjects]
320,108,840,6,0,P|280:145|227:138,1,112,2|2,0:0|0:0,0:0:0:0:
188,63,1369,1,2,0:0:0:0:
160,231,1722,1,2,0:0:0:0:
319,171,2075,2,0,P|360:163|428:255,1,168,2|0,0:0|0:0,0:0:0:0:
400,335,2781,1,2,0:0:0:0:
400,335,2957,2,0,L|336:323,1,56,2|0,0:0|0:0,0:0:0:0:
428,251,3310,2,0,L|483:240,1,56,2|0,0:0|0:0,0:0:0:0:
508,160,3663,6,0,P|524:108|495:62,1,112,2|2,0:0|0:0,0:0:0:0:
416,32,4192,1,0,0:0:0:0:
348,84,4369,2,0,L|360:144,1,56,2|0,0:0|0:0,0:0:0:0:
304,204,4722,2,0,P|223:180|140:168,1,168,2|0,0:0|0:0,0:0:0:0:
64,208,5428,2,0,L|74:262,1,56,2|0,0:0|0:0,0:0:0:0:
140,168,5781,2,0,P|161:132|145:64,1,112,2|0,0:0|0:0,0:0:0:0:
147,67,6487,6,0,L|275:83,1,112,2|2,0:0|0:0,0:0:0:0:
338,53,7016,1,2,0:0:0:0:
282,213,7369,1,2,0:0:0:0:
122,157,7722,2,0,P|86:149|15:255,1,168,2|0,0:0|0:0,0:0:0:0:
10,236,8604,2,0,L|16:292,1,56,2|0,0:0|0:0,0:0:0:0:
104,328,8957,2,0,L|109:272,1,56,2|0,0:0|0:0,0:0:0:0:
92,176,9310,5,2,0:0:0:0:
232,284,9663,1,2,0:0:0:0:
272,112,10016,1,2,0:0:0:0:
232,284,10369,2,0,P|248:332|364:332,1,168,2|0,0:0|0:0,0:0:0:0:
428,288,11075,2,0,L|414:233,1,56,2|0,0:0|0:0,0:0:0:0:
512,236,11428,1,2,0:0:0:0:
256,192,11516,12,0,14251,0:0:0:0:
156,104,14957,6,0,L|296:68,1,140,6|8,1:0|0:0,0:0:0:0:
384,128,15487,1,0,1:0:0:0:
384,128,15575,1,8,0:0:0:0:
384,128,15663,2,0,L|376:208,1,70,0|0,1:0|1:0,0:0:0:0:
472,184,16016,6,0,P|504:140|472:60,1,140,8|0,0:0|0:0,0:0:0:0:
392,24,16545,1,0,1:0:0:0:
364,116,16722,2,0,L|256:100,1,105,8|8,0:0|0:0,0:0:0:0:
252,112,17075,2,0,L|256:184,1,70,0|0,1:0|1:0,0:0:0:0:
160,188,17428,2,0,L|156:116,1,70,8|0,0:0|0:0,0:0:0:0:
55,68,17781,6,0,P|9:118|24:183,1,140,4|8,1:2|0:0,0:0:0:0:
88,272,18310,1,0,1:0:0:0:
88,272,18398,1,8,0:0:0:0:
88,272,18487,2,0,L|8:292,1,70,0|0,1:0|1:0,0:0:0:0:
4,384,18839,6,0,L|159:345,1,140,8|0,0:0|0:0,0:0:0:0:
184,264,19369,1,0,1:0:0:0:
92,236,19545,2,0,P|82:185|111:142,1,105,8|8,0:0|0:0,0:0:0:0:
124,136,19898,2,0,L|55:126,1,70,0|0,1:0|1:0,0:0:0:0:
72,32,20251,2,0,L|142:41,1,70,8|0,0:0|0:0,0:0:0:0:
248,12,20604,6,0,P|272:77|286:146,1,140,4|8,1:2|0:0,0:0:0:0:
376,212,21134,1,0,1:0:0:0:
376,212,21222,1,8,0:0:0:0:
376,212,21310,2,0,P|386:178|404:148,1,70,0|0,1:0|1:0,0:0:0:0:
484,72,21663,6,0,P|436:24|370:35,1,140,4|0,1:2|0:0,0:0:0:0:
312,112,22192,1,0,1:0:0:0:
252,36,22369,2,0,L|144:52,1,105,8|8,0:0|0:0,0:0:0:0:
140,64,22722,2,0,P|152:98|159:130,1,70,0|0,1:0|1:0,0:0:0:0:
64,160,23075,2,0,P|48:228|36:300,1,140,8|0,0:0|1:0,0:0:0:0:
112,376,23604,5,4,1:2:0:0:
112,376,23781,2,0,L|202:361,1,70,0|0,1:0|1:0,0:0:0:0:
207,258,24134,1,4,1:2:0:0:
207,258,24310,2,0,L|137:247,1,70,0|0,1:0|1:0,0:0:0:0:
160,140,24663,6,0,P|207:88|279:107,1,140,4|0,1:2|0:0,0:0:0:0:
344,160,25192,1,0,0:0:0:0:
344,160,25369,1,0,0:0:0:0:
420,104,25545,1,0,0:0:0:0:
420,104,26251,6,0,B|308:84|308:84|276:128|276:128|144:100,1,280,6|0,1:2|0:0,0:0:0:0:
90,152,27310,1,2,0:0:0:0:
90,152,27487,1,2,0:0:0:0:
116,240,27663,2,0,P|181:322|281:288,1,224,0|0,1:0|0:0,0:0:0:0:
368,316,28545,2,0,L|373:371,1,56,2|2,0:0|0:0,0:0:0:0:
464,384,28898,6,0,L|451:261,1,112,2|2,0:0|0:0,0:0:0:0:
416,188,29428,1,2,0:0:0:0:
344,244,29604,2,0,L|272:232,1,56,2|0,0:0|0:0,0:0:0:0:
272,324,29957,2,0,L|161:339,1,112,2|2,0:0|0:0,0:0:0:0:
88,284,30487,2,0,P|108:233|160:215,1,112,0|0,1:0|0:0,0:0:0:0:
216,144,31016,2,0,L|196:88,1,56,2|0,0:0|0:0,0:0:0:0:
280,52,31369,1,2,0:0:0:0:
280,52,31545,2,0,L|300:108,1,56,2|2,0:0|0:0,0:0:0:0:
368,164,31898,6,0,B|416:156|448:92|448:92|432:188|464:257,1,280,2|0,1:2|0:0,0:0:0:0:
444,348,32957,1,2,0:0:0:0:
444,348,33134,1,2,0:0:0:0:
368,300,33310,2,0,P|265:277|208:365,1,224,0|0,1:0|0:0,0:0:0:0:
120,340,34192,2,0,L|112:276,1,56,2|2,0:0|0:0,0:0:0:0:
88,196,34545,6,0,L|160:172,1,56,2|0,0:0|1:0,0:0:0:0:
220,136,34898,1,2,0:0:0:0:
220,136,35075,1,2,0:0:0:0:
268,212,35251,2,0,L|261:267,1,56,2|0,0:0|0:0,0:0:0:0:
220,136,35604,2,0,L|226:80,1,56,2|0,0:0|0:0,0:0:0:0:
280,8,35957,1,2,1:2:0:0:
211,256,36663,5,0,3:0:0:0:
211,256,36751,1,0,3:0:0:0:
211,256,36839,2,0,L|223:336,1,70,8|4,1:3|1:3,0:0:0:0:
108,360,37192,5,0,3:0:0:0:
91,339,37281,1,0,3:0:0:0:
84,314,37369,1,0,3:0:0:0:
87,288,37457,1,0,3:0:0:0:
101,266,37545,6,0,L|21:250,1,70,6|2,1:2|0:2,0:0:0:0:
68,160,37898,2,0,L|148:144,1,70,10|2,0:2|0:2,0:0:0:0:
228,196,38251,1,2,1:2:0:0:
228,196,38428,2,0,L|212:296,1,70,2|8,1:2|0:0,0:0:0:0:
308,308,38781,6,0,P|353:258|338:192,1,140,2|2,0:2|0:2,0:0:0:0:
280,112,39310,1,10,0:2:0:0:
379,101,39487,2,0,L|424:108,2,35,2|8|2,1:2|0:0|1:2,0:0:0:0:
319,20,39839,2,0,L|249:9,1,70,2|8,1:2|0:0,0:0:0:0:
160,52,40192,6,0,P|170:121|175:190,1,140,2|2,0:2|0:2,0:0:0:0:
268,228,40722,2,0,L|284:159,1,70,10|2,0:2|1:2,0:0:0:0:
283,159,40987,1,8,0:0:0:0:
283,159,41075,1,2,1:2:0:0:
372,204,41251,2,0,L|388:272,1,70,2|8,1:2|0:0,0:0:0:0:
320,344,41604,6,0,P|251:331|181:327,1,140,2|2,0:2|0:2,0:0:0:0:
96,376,42134,1,8,0:0:0:0:
47,290,42310,1,2,1:2:0:0:
47,290,42398,1,8,0:0:0:0:
47,290,42487,2,0,L|59:221,1,70,0|2,1:0|1:2,0:0:0:0:
152,192,42839,2,0,L|139:123,1,70,10|2,0:2|1:2,0:0:0:0:
128,24,43192,6,0,P|60:15|8:58,2,140,2|8|0,1:2|0:0|1:0,0:0:0:0:
204,88,44075,1,0,1:0:0:0:
268,12,44251,1,10,0:2:0:0:
288,140,44428,6,0,L|280:216,1,70,2|0,0:0|1:0,0:0:0:0:
380,224,44781,2,0,L|387:154,1,70,0|8,3:0|0:0,0:0:0:0:
492,164,45134,1,0,3:2:0:0:
492,164,45222,1,8,0:0:0:0:
492,164,45310,2,0,L|484:233,1,70,0|2,1:0|1:2,0:0:0:0:
424,312,45663,2,0,L|435:380,1,70,10|2,0:2|0:2,0:0:0:0:
324,376,46016,6,0,L|252:364,1,70,4|2,1:2|0:2,0:0:0:0:
216,272,46369,1,10,0:2:0:0:
124,304,46545,2,0,L|120:373,1,70,2|0,1:2|1:0,0:0:0:0:
22,372,46898,2,0,L|26:292,1,70,2|8,1:2|0:0,0:0:0:0:
8,192,47251,6,0,P|62:153|125:178,1,140,6|2,1:2|1:2,0:0:0:0:
204,120,47781,2,0,L|220:48,1,70,10|0,0:2|1:0,0:0:0:0:
132,8,48134,2,0,L|116:76,2,70,8|8|4,0:0|1:3|1:3,0:0:0:0:
336,40,48839,6,0,P|415:41|446:114,1,168,4|0,1:2|1:0,0:0:0:0:
372,164,49545,2,0,P|377:214|383:285,1,112,8|0,0:0|0:0,0:0:0:0:
347,360,50075,2,0,P|304:326|250:337,1,112,8|0,1:3|1:0,0:0:0:0:
168,312,50604,2,0,L|160:380,1,56,0|0,1:0|0:0,0:0:0:0:
72,376,50957,2,0,L|89:245,1,112,10|0,0:0|0:0,0:0:0:0:
80,148,51487,5,0,3:0:0:0:
80,148,51575,1,0,3:0:0:0:
80,148,51663,2,0,B|136:132|136:132|176:160|176:160|240:140,1,168,4|0,1:2|1:0,0:0:0:0:
300,56,52369,1,8,0:0:0:0:
328,176,52545,2,0,L|320:252,1,56,8|8,0:0|0:3,0:0:0:0:
356,316,52898,2,0,P|410:321|452:287,1,112,4|8,1:2|0:0,0:0:0:0:
456,196,53428,2,0,L|400:185,1,56,0|0,1:0|0:0,0:0:0:0:
412,96,53781,2,0,L|467:106,1,56,10|0,0:0|1:0,0:0:0:0:
480,16,54134,1,0,3:0:0:0:
461,12,54222,1,0,3:0:0:0:
443,9,54310,1,0,3:0:0:0:
425,6,54398,1,0,3:0:0:0:
405,1,54487,6,0,P|374:16|341:26,1,70,6|0,1:2|0:0,0:0:0:0:
244,12,54839,2,0,P|241:46|234:80,1,70,10|0,0:0|1:0,0:0:0:0:
172,157,55192,2,0,P|201:176|226:200,1,70,2|0,1:2|1:0,0:0:0:0:
262,291,55545,2,0,P|293:275|326:265,1,70,10|0,0:2|0:0,0:0:0:0:
408,168,55898,6,0,P|364:116|288:136,1,140,6|8,1:2|0:0,0:0:0:0:
208,168,56428,1,0,1:0:0:0:
208,168,56516,1,8,0:0:0:0:
208,168,56604,2,0,L|200:84,1,70,2|0,1:2|0:0,0:0:0:0:
112,144,56957,2,0,L|121:248,1,105,10|8,0:2|0:0,0:0:0:0:
116,260,57310,6,0,P|182:254|223:308,1,140,6|10,1:2|0:2,0:0:0:0:
300,152,57839,2,0,P|233:158|192:105,1,140,6|2,1:2|1:2,0:0:0:0:
240,20,58369,1,8,0:0:0:0:
100,76,58545,1,10,1:2:0:0:
98,88,58898,5,10,1:2:0:0:
238,32,59075,1,10,1:2:0:0:
238,32,60134,6,0,P|206:92|237:152,1,140,6|10,1:0|0:2,0:0:0:0:
184,244,60663,2,0,L|92:228,1,70,2|0,1:2|0:0,0:0:0:0:
237,152,61016,2,0,L|329:136,1,70,2|8,1:2|0:0,0:0:0:0:
420,104,61369,6,0,P|465:153|450:219,1,140,2|0,1:2|1:0,0:0:0:0:
388,304,61898,1,8,0:0:0:0:
312,248,62075,1,2,1:2:0:0:
312,248,62163,1,8,0:0:0:0:
312,248,62251,2,0,L|320:168,1,70,2|0,1:2|1:0,0:0:0:0:
220,144,62604,2,0,L|213:213,1,70,10|0,0:2|0:0,0:0:0:0:
132,280,62957,6,0,P|100:264|67:254,1,70,2|0,1:2|0:0,0:0:0:0:
52,148,63310,2,0,P|83:132|116:122,1,70,10|0,0:2|1:0,0:0:0:0:
168,28,63663,2,0,P|199:43|232:53,1,70,2|0,1:2|1:0,0:0:0:0:
296,136,64016,6,0,P|284:184|268:300,1,140,10|0,0:2|0:0,0:0:0:0:
356,336,64545,1,0,1:0:0:0:
260,380,64722,2,0,L|176:360,1,70,10|0,0:2|1:0,0:0:0:0:
356,336,65075,2,0,L|508:300,1,140,2|8,1:2|0:0,0:0:0:0:
492,303,65781,6,0,P|518:241|482:184,1,140,6|10,1:2|0:2,0:0:0:0:
396,124,66310,2,0,L|400:80,2,35,2|8|0,1:2|0:0|1:0,0:0:0:0:
312,188,66663,2,0,L|328:280,1,70,2|8,1:2|0:0,0:0:0:0:
316,364,67016,6,0,P|248:376|198:328,1,140,2|0,1:2|1:0,0:0:0:0:
116,268,67545,2,0,P|140:232|120:156,1,105,8|8,0:0|0:0,0:0:0:0:
120,168,67898,2,0,L|51:181,1,70,2|0,1:2|1:0,0:0:0:0:
36,76,68251,2,0,L|104:62,1,70,10|0,0:2|0:0,0:0:0:0:
212,28,68604,6,0,P|217:62|228:95,1,70,6|0,1:2|0:0,0:0:0:0:
328,128,68957,2,0,P|322:162|311:195,1,70,10|0,0:2|1:0,0:0:0:0:
212,228,69310,2,0,P|217:262|228:295,1,70,2|0,1:2|1:0,0:0:0:0:
288,384,69663,6,0,L|432:348,1,140,10|0,0:2|0:0,0:0:0:0:
488,264,70192,1,0,1:0:0:0:
400,204,70369,2,0,L|408:128,1,70,10|0,0:2|0:0,0:0:0:0:
340,56,70722,1,10,1:2:0:0:
288,147,70898,1,8,1:2:0:0:
220,64,71075,1,0,3:0:0:0:
201,48,71163,1,0,3:0:0:0:
176,39,71251,1,0,3:0:0:0:
150,40,71339,1,0,3:0:0:0:
126,50,71428,6,0,P|137:119|139:188,1,140,6|10,1:2|0:2,0:0:0:0:
64,264,71957,2,0,L|24:252,2,35,2|8|0,1:2|0:0|1:0,0:0:0:0:
168,292,72310,2,0,L|244:272,1,70,2|8,1:2|0:0,0:0:0:0:
348,316,72663,6,0,P|377:254|344:195,1,140,6|0,1:2|1:0,0:0:0:0:
252,144,73192,1,10,0:2:0:0:
320,64,73369,1,0,1:0:0:0:
320,64,73457,1,8,0:0:0:0:
320,64,73545,2,0,P|378:31|440:59,1,140,2|8,1:2|0:0,0:0:0:0:
500,148,74075,1,2,0:2:0:0:
420,236,74251,6,0,L|256:216,1,140,6|10,1:2|0:2,0:0:0:0:
202,288,74781,2,0,L|210:332,2,35,2|8|0,1:2|0:0|1:0,0:0:0:0:
140,204,75134,2,0,L|152:124,1,70,2|8,1:2|0:0,0:0:0:0:
144,16,75487,6,0,P|209:0|266:36,1,140,6|0,1:2|1:0,0:0:0:0:
364,80,76016,2,0,L|352:200,1,105,10|8,0:2|0:0,0:0:0:0:
344,196,76369,1,2,1:2:0:0:
414,274,76545,2,0,L|450:266,2,35,0|0|8,1:0|1:0|0:0,0:0:0:0:
340,348,76898,5,0,1:0:0:0:
340,348,76987,1,0,1:0:0:0:
340,348,77075,2,0,P|285:307|220:324,1,140,6|10,1:2|0:2,0:0:0:0:
116,348,77604,2,0,L|120:396,2,35,2|8|0,1:2|0:0|1:0,0:0:0:0:
40,272,77957,2,0,L|49:202,1,70,2|8,1:2|0:0,0:0:0:0:
52,84,78310,6,0,P|114:58|173:92,1,140,6|0,1:2|1:0,0:0:0:0:
232,180,78839,1,8,0:0:0:0:
152,248,79016,1,0,1:0:0:0:
152,248,79104,1,8,0:0:0:0:
152,248,79192,2,0,L|68:228,1,70,2|0,1:2|1:0,0:0:0:0:
232,180,79545,2,0,L|316:160,1,70,10|0,0:2|0:0,0:0:0:0:
328,276,79898,5,6,1:2:0:0:
328,276,80075,2,0,L|316:360,1,70,2|2,1:2|1:2,0:0:0:0:
204,372,80428,2,0,L|194:302,1,70,6|0,1:2|1:0,0:0:0:0:
84,260,80781,2,0,L|74:329,1,70,2|8,1:2|1:2,0:0:0:0:
0,208,81134,6,0,P|48:162|120:164,1,140,6|0,1:2|1:0,0:0:0:0:
208,208,81663,2,0,L|200:292,1,70,10|0,0:2|3:0,0:0:0:0:
118,163,82016,2,0,L|124:94,1,70,10|0,3:2|3:0,0:0:0:0:
204,24,82369,1,0,3:0:0:0:
223,41,82457,1,0,3:0:0:0:
247,51,82545,1,0,3:0:0:0:
273,51,82633,1,0,3:0:0:0:
297,41,82722,6,0,L|316:212,1,154.000004699707,6|10,1:0|0:2,0:0:0:0:
244,276,83251,2,0,L|168:260,1,77.0000023498536,2|0,1:2|0:0,0:0:0:0:
312,360,83604,2,0,L|388:344,1,77.0000023498536,2|8,1:2|0:0,0:0:0:0:
492,368,83957,6,0,P|526:302|493:235,1,154.000004699707,2|0,1:2|1:0,0:0:0:0:
412,164,84487,1,8,0:0:0:0:
324,220,84663,1,2,1:2:0:0:
324,220,84751,1,8,0:0:0:0:
324,220,84839,2,0,L|340:324,1,77.0000023498536,2|0,1:2|1:0,0:0:0:0:
232,364,85192,2,0,L|220:287,1,77.0000023498536,14|0,0:2|0:0,0:0:0:0:
144,188,85545,6,0,L|56:216,1,77.0000023498536,6|0,1:2|0:0,0:0:0:0:
24,112,85898,2,0,L|149:72,1,115.50000352478,10|8,0:2|0:0,0:0:0:0:
143,83,86251,2,0,P|132:47|128:9,1,77.0000023498536,2|0,1:2|1:0,0:0:0:0:
256,44,86604,6,0,L|248:212,1,154.000004699707,10|0,0:2|0:0,0:0:0:0:
304,292,87134,1,0,1:0:0:0:
380,216,87310,2,0,L|504:230,1,115.50000352478,10|8,0:2|0:0,0:0:0:0:
500,239,87663,2,0,P|532:173|492:111,1,154.000004699707,2|8,1:2|0:0,0:0:0:0:
492,111,88369,6,0,P|440:144|348:84,1,154.000004699707,6|10,1:2|0:2,0:0:0:0:
308,208,88898,2,0,L|319:284,1,77.0000023498536,2|0,1:2|0:0,0:0:0:0:
232,348,89251,2,0,L|220:268,1,77.0000023498536,2|8,1:2|0:0,0:0:0:0:
99,256,89604,6,0,P|44:208|61:136,1,154.000004699707,6|0,1:2|1:0,0:0:0:0:
148,68,90134,1,8,0:0:0:0:
76,0,90310,1,0,1:0:0:0:
76,0,90398,1,8,0:0:0:0:
76,0,90487,2,0,L|-16:8,1,77.0000023498536,2|0,1:2|1:0,0:0:0:0:
148,68,90839,2,0,L|240:60,1,77.0000023498536,10|0,0:2|0:0,0:0:0:0:
300,160,91192,6,0,L|292:240,1,77.0000023498536,6|0,1:2|0:0,0:0:0:0:
192,280,91545,2,0,L|180:156,1,115.50000352478,10|8,0:2|0:0,0:0:0:0:
172,156,91898,2,0,P|136:169|98:175,1,77.0000023498536,2|0,1:2|0:0,0:0:0:0:
124,40,92251,6,0,L|280:48,1,154.000004699707,6|0,1:2|0:0,0:0:0:0:
368,108,92781,1,0,1:0:0:0:
288,180,92957,2,0,L|272:276,1,77.0000023498536,10|0,1:2|1:0,0:0:0:0:
380,280,93310,2,0,L|396:184,1,77.0000023498536,10|0,1:2|3:0,0:0:0:0:
474,136,93663,1,0,0:0:0:0:
473,105,93751,1,0,3:0:0:0:
464,80,93839,1,0,3:0:0:0:
443,60,93927,1,0,3:0:0:0:
417,47,94016,6,0,L|278:36,1,140,6|10,1:2|0:2,0:0:0:0:
196,100,94545,1,2,1:2:0:0:
196,100,94634,1,8,0:0:0:0:
196,100,94722,1,0,1:0:0:0:
272,172,94898,2,0,L|260:252,1,70,2|8,1:2|0:0,0:0:0:0:
256,360,95251,6,0,P|321:373|365:323,1,140,6|0,1:2|1:0,0:0:0:0:
392,220,95781,1,10,0:2:0:0:
296,200,95957,1,0,1:0:0:0:
296,200,96045,1,8,0:0:0:0:
296,200,96134,2,0,P|245:155|251:88,1,140,2|8,1:2|0:0,0:0:0:0:
348,44,96663,1,2,0:2:0:0:
228,0,96839,6,0,L|89:18,1,140,6|10,1:2|0:2,0:0:0:0:
36,112,97369,2,0,L|-4:104,2,35,2|8|0,1:2|0:0|1:0,0:0:0:0:
120,176,97722,2,0,L|189:166,1,70,2|8,1:2|0:0,0:0:0:0:
296,108,98075,6,0,P|346:152|336:220,1,140,6|0,1:2|1:2,0:0:0:0:
232,244,98604,2,0,P|207:289|216:339,1,105,10|8,0:2|0:0,0:0:0:0:
224,352,98957,1,2,1:2:0:0:
128,384,99134,1,0,1:0:0:0:
63,308,99310,1,8,3:0:0:0:
67,281,99398,1,8,3:0:0:0:
71,255,99486,1,8,3:0:0:0:
74,229,99574,1,8,3:0:0:0:
78,204,99663,6,0,P|137:171|200:196,1,140,4|2,1:2|0:3,0:0:0:0:
236,292,100192,1,0,1:0:0:0:
292,176,100369,1,8,0:0:0:0:
292,176,100545,2,0,L|276:84,1,70,0|2,1:0|0:3,0:0:0:0:
384,52,100898,6,0,L|408:189,1,140,4|8,1:2|0:0,0:0:0:0:
368,280,101428,2,0,L|299:264,1,70,2|0,0:3|1:0,0:0:0:0:
296,364,101781,2,0,L|227:379,1,70,8|0,0:0|3:0,0:0:0:0:
160,324,102134,1,0,3:0:0:0:
160,324,102222,1,0,3:0:0:0:
160,324,102310,1,0,3:0:0:0:
218,248,102487,5,8,1:2:0:0:
74,284,102663,1,8,1:2:0:0:
66,292,103016,5,8,1:2:0:0:
106,149,103192,1,8,1:2:0:0:
98,156,103545,5,8,1:2:0:0:
201,262,103721,1,8,1:2:0:0:
201,262,105310,6,0,P|137:281|84:239,1,140,6|8,1:0|0:0,0:0:0:0:
104,148,105839,1,0,1:0:0:0:
104,148,105928,1,8,0:0:0:0:
104,148,106016,2,0,L|176:128,1,70,0|0,1:0|1:0,0:0:0:0:
204,36,106369,6,0,P|151:-5|86:13,1,140,8|0,0:0|0:0,0:0:0:0:
4,64,106898,1,0,1:0:0:0:
72,132,107075,2,0,P|84:176|44:236,1,105,8|8,0:0|0:0,0:0:0:0:
48,236,107428,2,0,L|117:246,1,70,0|0,1:0|1:0,0:0:0:0:
140,340,107781,2,0,L|209:329,1,70,8|0,0:0|0:0,0:0:0:0:
320,352,108134,6,0,P|349:291|317:232,1,140,4|8,1:2|0:0,0:0:0:0:
236,192,108663,1,0,1:0:0:0:
236,192,108751,1,8,0:0:0:0:
236,192,108839,2,0,L|248:104,1,70,0|0,1:0|1:0,0:0:0:0:
260,24,109192,6,0,P|327:28|362:85,1,140,8|0,0:0|0:0,0:0:0:0:
356,184,109722,1,0,1:0:0:0:
264,156,109898,2,0,L|160:174,1,105,8|8,0:0|0:0,0:0:0:0:
156,184,110251,2,0,L|162:253,1,70,0|0,1:0|1:0,0:0:0:0:
68,268,110604,2,0,L|61:198,1,70,8|0,0:0|0:0,0:0:0:0:
40,88,110957,6,0,P|96:44|164:59,1,140,4|8,1:2|0:0,0:0:0:0:
248,120,111487,1,0,1:0:0:0:
248,120,111576,1,8,0:0:0:0:
248,120,111663,2,0,L|240:212,1,70,0|0,1:0|1:0,0:0:0:0:
352,232,112016,6,0,L|367:71,1,140,4|0,1:2|0:0,0:0:0:0:
336,0,112545,1,0,1:0:0:0:
244,28,112722,2,0,P|195:43|151:17,1,105,8|8,0:0|0:0,0:0:0:0:
140,24,113075,2,0,L|148:104,1,70,0|0,1:0|1:0,0:0:0:0:
156,192,113428,2,0,P|221:211|274:169,1,140,8|0,0:0|1:0,0:0:0:0:
311,45,113957,5,4,1:2:0:0:
311,45,114134,2,0,L|232:36,1,70,0|0,1:0|1:0,0:0:0:0:
273,169,114487,1,4,1:2:0:0:
273,169,114663,2,0,L|342:176,1,70,0|0,1:0|1:0,0:0:0:0:
260,284,115016,5,4,1:2:0:0:
256,192,115104,12,0,120839,0:0:0:0:
