osu file format v14

[General]
AudioFilename: audio.mp3
AudioLeadIn: -4500
PreviewTime: 59855
Countdown: 0
SampleSet: Soft
StackLeniency: 0.7
Mode: 0
LetterboxInBreaks: 0
WidescreenStoryboard: 1

[Editor]
DistanceSpacing: 0.9
BeatDivisor: 4
GridSize: 4
TimelineZoom: 1.5

[Metadata]
Title:CHASE! (Cut Ver.)
TitleUnicode:CHASE! (Cut Ver.)
Artist:Yuki Setsuna (CV: Kusunoki Tomori)
ArtistUnicode:優木せつ菜 (CV: 楠木ともり)
Creator:Doormat
Version:Easy
Source:ラブライブ!虹ヶ咲学園スクールアイドル同好会
Tags:love live! nijigasaki high school idol club gakuen doukoukai doukou kai nijigaku ニジガク nakagawa nana 中川菜々 llas sifas スクスタ festival all stars スクールアイドルフェスティバル perfect dream project pdp tokimeki runners anime video game japanese rock
BeatmapID:2641816
BeatmapSetID:1271270

[Difficulty]
HPDrainRate:3
CircleSize:3
OverallDifficulty:3.5
ApproachRate:3.5
SliderMultiplier:0.999999999999999
SliderTickRate:1

[Events]
//Background and Video events
0,0,"setsuna.jpg",0,0
Video,-1420,"chase mv.mp4"
//Break Periods
//Storyboard Layer 0 (Background)
//Storyboard Layer 1 (Fail)
//Storyboard Layer 2 (Pass)
//Storyboard Layer 3 (Foreground)
//Storyboard Layer 4 (Overlay)
//Storyboard Sound Samples

[TimingPoints]
840,352.941176470588,4,2,1,50,1,0
840,-100,4,2,1,50,0,0
13545,-100,4,2,1,10,0,0
14251,-100,4,2,1,10,0,0
14957,-100,4,2,1,60,0,0
26251,-100,4,2,1,50,0,0
36663,-100,4,2,1,60,0,0
37545,-100,4,2,1,60,0,0
48839,-100,4,2,1,50,0,0
54487,-100,4,2,1,60,0,0
60134,-100,4,2,1,80,0,1
82634,-100,4,2,1,80,0,0
82722,-100,4,2,1,80,0,1
102487,-100,4,2,1,60,0,0
105310,-100,4,2,1,60,0,0
113781,-100,4,2,1,60,0,0
120839,-100,4,2,1,5,0,0

[Colours]
Combo1 : 250,200,10
Combo2 : 255,70,70
Combo3 : 255,255,15
Combo4 : 225,15,15

[HitObjects]
112,336,840,6,0,P|185:319|259:306,1,150,2|2,0:0|0:0,0:0:0:0:
340,344,1722,1,2,0:0:0:0:
380,263,2075,2,0,P|392:150|280:132,1,250,2|2,0:0|0:0,0:0:0:0:
212,192,3310,1,2,0:0:0:0:
172,112,3663,6,0,L|72:132,2,99.9999999999999,2|2|2,0:0|0:0|0:0,0:0:0:0:
244,56,4722,2,0,B|308:32|308:32|364:68|364:68|435:40,1,200,2|2,0:0|0:0,0:0:0:0:
500,92,5781,1,2,0:0:0:0:
460,268,6487,6,0,P|406:218|336:232,1,150,2|2,0:0|0:0,0:0:0:0:
284,304,7369,1,2,0:0:0:0:
232,232,7722,2,0,B|216:160|168:96|168:96|152:152|112:188,1,250,2|2,0:0|0:0,0:0:0:0:
60,248,8957,1,2,0:0:0:0:
100,328,9310,6,0,L|200:336,2,99.9999999999999,2|2|2,0:0|0:0|0:0,0:0:0:0:
20,372,10369,1,2,0:0:0:0:
256,192,11428,12,0,13545,0:0:0:0:
72,104,14957,6,0,L|56:268,1,150,6|0,1:0|1:0,0:0:0:0:
176,324,16016,2,0,P|268:272|252:176,1,200,8|8,0:0|0:0,0:0:0:0:
216,112,17075,1,0,1:0:0:0:
274,44,17428,1,8,0:0:0:0:
356,79,17781,6,0,P|400:68|508:48,1,150,4|0,1:2|1:0,0:0:0:0:
500,184,18839,2,0,B|460:212|440:264|440:264|396:236|344:236,1,200,8|8,0:0|0:0,0:0:0:0:
264,268,19898,2,0,L|272:376,1,99.9999999999999,0|8,1:0|0:0,0:0:0:0:
180,364,20604,6,0,P|132:320|140:232,1,150,4|0,1:2|1:0,0:0:0:0:
188,116,21663,2,0,B|260:104|260:104|292:144|292:144|384:128,1,200,4|8,1:2|0:0,0:0:0:0:
452,156,22722,2,0,L|440:255,1,99.9999999999999,0|8,1:0|0:0,0:0:0:0:
352,356,23604,5,4,1:2:0:0:
264,254,24134,1,4,1:2:0:0:
352,152,24663,2,0,B|380:68|328:12|328:12|276:4|224:60,1,250,4|0,1:2|0:0,0:0:0:0:
188,220,26251,6,0,P|126:291|1:178,1,300,6|2,1:2|0:0,0:0:0:0:
16,92,27663,2,0,B|89:40|156:85|156:85|228:128|296:76,1,300,0|2,1:0|0:0,0:0:0:0:
384,84,29075,6,0,L|372:238,1,150,0|2,1:0|0:0,0:0:0:0:
296,284,29957,1,2,0:0:0:0:
384,384,30487,2,0,P|420:344|524:364,2,150,0|2|2,1:0|0:0|0:0,0:0:0:0:
304,340,31898,6,0,P|233:219|99:258,1,300,2|2,1:2|0:0,0:0:0:0:
16,296,33310,2,0,B|-11:202|-11:202|52:129|52:129|27:26,1,300,0|2,1:0|0:0,0:0:0:0:
116,8,34722,6,0,P|190:11|265:20,1,150,0|2,1:0|0:0,0:0:0:0:
340,68,35604,1,2,0:0:0:0:
272,128,35957,1,2,1:2:0:0:
496,132,36839,2,0,L|484:231,1,99.9999999999999,8|0,1:3|3:3,0:0:0:0:
432,307,37545,5,6,1:2:0:0:
356,255,37898,1,10,0:2:0:0:
304,331,38251,2,0,L|184:311,1,99.9999999999999,2|8,1:2|0:0,0:0:0:0:
168,319,38781,2,0,P|148:248|188:188,1,150,2|10,0:2|0:2,0:0:0:0:
276,171,39663,2,0,P|284:199|356:223,1,99.9999999999999,2|8,1:2|0:0,0:0:0:0:
380,215,40192,6,0,P|428:183|416:91,1,150,2|10,0:2|0:2,0:0:0:0:
376,19,41075,2,0,L|268:35,1,99.9999999999999,2|8,1:2|0:0,0:0:0:0:
252,63,41604,1,2,0:2:0:0:
164,40,41957,1,2,0:2:0:0:
99,100,42310,2,0,P|112:151|124:255,1,150,2|10,1:2|0:2,0:0:0:0:
92,332,43192,6,0,L|189:352,1,99.9999999999999,2|8,1:2|0:0,0:0:0:0:
224,272,43898,2,0,L|376:244,1,150,0|2,1:0|0:0,0:0:0:0:
416,164,44781,1,0,3:0:0:0:
500,204,45134,2,0,P|488:279|480:353,1,150,0|10,3:2|0:2,0:0:0:0:
396,384,46016,6,0,P|366:315|338:245,1,150,4|2,1:2|1:2,0:0:0:0:
288,172,46898,1,2,1:2:0:0:
204,204,47251,2,0,P|144:163|146:91,1,150,6|10,1:2|0:2,0:0:0:0:
172,4,48134,2,0,L|284:20,1,99.9999999999999,8|4,0:0|1:3,0:0:0:0:
360,32,48839,6,0,P|412:112|370:198,1,200,4|8,1:2|0:0,0:0:0:0:
360,336,50075,2,0,P|287:316|213:308,1,150,8|0,1:3|1:0,0:0:0:0:
124,328,50957,2,0,P|72:344|20:348,1,99.9999999999999,10|0,0:0|0:0,0:0:0:0:
12,260,51663,6,0,P|24:216|32:152,1,99.9999999999999,4|0,1:2|0:0,0:0:0:0:
120,148,52369,2,0,P|123:177|128:204,1,50,8|8,0:0|0:0,0:0:0:0:
152,284,52898,2,0,P|222:297|273:245,1,150,4|0,1:2|1:0,0:0:0:0:
296,156,53781,1,10,0:0:0:0:
385,178,54134,1,0,3:0:0:0:
362,267,54487,6,0,L|384:368,2,99.9999999999999,6|10|2,1:2|0:0|1:2,0:0:0:0:
272,244,55545,1,10,0:2:0:0:
222,320,55898,2,0,P|175:335|131:315,1,99.9999999999999,6|8,1:2|0:0,0:0:0:0:
96,232,56604,2,0,P|106:184|146:156,1,99.9999999999999,2|10,1:2|0:2,0:0:0:0:
235,139,57310,6,0,P|295:181|364:158,1,150,6|6,1:2|1:2,0:0:0:0:
428,96,58192,1,2,1:2:0:0:
507,138,58545,1,10,1:2:0:0:
442,200,58898,2,0,L|456:267,1,50,10|10,1:2|1:2,0:0:0:0:
204,364,60134,6,0,P|156:312|172:236,1,150,6|2,1:0|1:2,0:0:0:0:
244,188,61016,1,2,1:2:0:0:
292,264,61369,2,0,L|456:244,1,150,2|8,1:2|0:0,0:0:0:0:
480,164,62251,1,2,1:2:0:0:
414,101,62604,1,10,0:2:0:0:
334,144,62957,6,0,P|288:152|232:124,1,99.9999999999999,2|10,1:2|0:2,0:0:0:0:
188,60,63663,1,2,1:2:0:0:
104,88,64016,2,0,P|48:163|87:252,1,200,10|10,0:2|0:2,0:0:0:0:
148,316,65075,2,0,L|252:296,1,99.9999999999999,2|8,1:2|0:0,0:0:0:0:
316,235,65781,6,0,P|290:168|220:153,1,150,6|2,1:2|1:2,0:0:0:0:
136,188,66663,1,2,1:2:0:0:
56,144,67016,2,0,P|26:78|65:17,1,150,2|8,1:2|0:0,0:0:0:0:
156,0,67898,1,2,1:2:0:0:
200,80,68251,1,10,0:2:0:0:
276,32,68604,6,0,L|398:53,2,99.9999999999999,6|10|2,1:2|0:2|1:2,0:0:0:0:
200,80,69663,2,0,B|188:156|188:156|220:188|220:188|204:284,1,200,10|10,0:2|0:2,0:0:0:0:
292,296,70722,2,0,L|316:184,1,99.9999999999999,10|0,1:2|3:0,0:0:0:0:
336,112,71428,6,0,P|384:96|464:156,1,150,6|2,1:2|1:2,0:0:0:0:
500,228,72310,1,2,1:2:0:0:
408,228,72663,2,0,P|362:250|348:349,1,150,6|10,1:2|0:2,0:0:0:0:
260,368,73545,2,0,P|232:332|232:276,1,99.9999999999999,2|8,1:2|0:0,0:0:0:0:
256,192,74251,6,0,P|196:148|120:172,1,150,6|2,1:2|1:2,0:0:0:0:
68,232,75134,1,2,1:2:0:0:
4,168,75487,2,0,P|18:94|28:20,1,150,6|10,1:2|0:2,0:0:0:0:
120,8,76369,2,0,P|124:56|132:120,1,99.9999999999999,2|8,1:2|0:0,0:0:0:0:
220,128,77075,6,0,P|256:76|352:88,1,150,6|2,1:2|1:2,0:0:0:0:
408,132,77957,1,2,1:2:0:0:
340,192,78310,2,0,P|300:252|326:319,1,150,6|8,1:2|0:0,0:0:0:0:
408,360,79192,1,2,1:2:0:0:
484,310,79545,1,10,0:2:0:0:
478,219,79898,6,0,P|464:145|456:70,1,150,6|6,1:2|1:2,0:0:0:0:
384,16,80781,1,2,1:2:0:0:
340,96,81134,2,0,P|265:87|191:74,1,150,6|10,1:2|0:2,0:0:0:0:
116,124,82016,2,0,P|76:128|4:152,1,99.9999999999999,10|0,3:2|3:0,0:0:0:0:
3,235,82722,6,0,P|57:282|128:267,1,150,6|2,1:0|1:2,0:0:0:0:
200,212,83604,1,2,1:2:0:0:
220,300,83957,2,0,L|376:276,1,150,2|8,1:2|0:0,0:0:0:0:
428,344,84839,1,2,1:2:0:0:
510,307,85192,1,14,0:2:0:0:
500,217,85545,6,0,L|480:109,1,99.9999999999999,6|10,1:2|0:2,0:0:0:0:
392,100,86251,1,2,1:2:0:0:
380,192,86604,2,0,P|336:213|216:125,1,200,10|10,0:2|0:2,0:0:0:0:
136,180,87663,2,0,L|148:288,1,99.9999999999999,2|8,1:2|0:0,0:0:0:0:
56,268,88369,6,0,P|12:196|40:124,1,150,6|2,1:2|1:2,0:0:0:0:
88,68,89251,1,2,1:2:0:0:
156,128,89604,2,0,P|208:112|312:88,1,150,6|8,1:2|0:0,0:0:0:0:
372,144,90487,2,0,P|428:156|472:168,1,99.9999999999999,2|10,1:2|0:2,0:0:0:0:
504,252,91192,5,6,1:2:0:0:
434,311,91545,1,10,0:2:0:0:
356,262,91898,1,2,1:2:0:0:
286,321,92251,2,0,B|208:304|208:304|180:336|180:336|103:321,1,200,6|10,1:2|1:2,0:0:0:0:
92,232,93310,2,0,L|192:200,1,99.9999999999999,10|0,1:2|3:0,0:0:0:0:
272,172,94016,6,0,P|283:100|232:49,1,150,6|2,1:2|1:2,0:0:0:0:
144,28,94898,1,2,1:2:0:0:
56,12,95251,2,0,P|44:104|32:168,1,150,6|10,1:2|0:2,0:0:0:0:
112,204,96134,2,0,P|114:253|123:303,1,99.9999999999999,2|8,1:2|0:0,0:0:0:0:
215,296,96839,6,0,P|262:240|334:246,1,150,6|2,1:2|1:2,0:0:0:0:
404,304,97722,1,2,1:2:0:0:
456,232,98075,2,0,P|461:159|406:113,1,150,6|10,1:2|0:2,0:0:0:0:
324,76,98957,2,0,P|282:106|229:96,1,99.9999999999999,2|8,1:2|3:0,0:0:0:0:
160,52,99663,6,0,P|106:99|117:171,1,150,4|0,1:2|1:0,0:0:0:0:
200,208,100545,1,0,1:0:0:0:
163,290,100898,2,0,L|4:268,1,150,4|2,1:2|0:3,0:0:0:0:
28,360,101781,2,0,L|127:373,1,99.9999999999999,8|0,0:0|3:0,0:0:0:0:
216,368,102487,6,0,L|272:344,1,50,8|8,1:2|1:2,0:0:0:0:
308,268,103016,2,0,L|259:231,1,50,8|8,1:2|1:2,0:0:0:0:
296,152,103545,2,0,L|352:128,1,50,8|8,1:2|1:2,0:0:0:0:
104,72,105310,6,0,L|92:236,1,150,6|0,1:0|1:0,0:0:0:0:
224,252,106369,2,0,L|239:52,1,200,8|8,0:0|0:0,0:0:0:0:
320,8,107428,1,0,1:0:0:0:
399,55,107781,1,8,0:0:0:0:
397,147,108134,6,0,P|392:184|388:296,1,150,4|0,1:2|1:0,0:0:0:0:
264,352,109192,2,0,P|198:283|229:193,1,200,8|8,0:0|0:0,0:0:0:0:
164,132,110251,2,0,L|60:152,1,99.9999999999999,0|8,1:0|0:0,0:0:0:0:
32,68,110957,6,0,P|72:24|164:32,1,150,4|0,1:2|1:0,0:0:0:0:
260,116,112016,2,0,B|332:104|332:104|364:144|364:144|456:128,1,200,4|8,1:2|0:0,0:0:0:0:
504,196,113075,2,0,P|496:252|492:308,1,99.9999999999999,0|8,1:0|0:0,0:0:0:0:
376,364,113957,5,4,1:2:0:0:
284,264,114487,1,4,1:2:0:0:
416,234,115016,1,4,1:2:0:0:
256,192,115192,12,0,120839,0:0:0:0:
