osu file format v14

[General]
AudioFilename: audio.mp3
AudioLeadIn: 0
PreviewTime: 68771
Countdown: 0
SampleSet: Soft
StackLeniency: 0.2
Mode: 0
LetterboxInBreaks: 0
WidescreenStoryboard: 0

[Editor]
DistanceSpacing: 1
BeatDivisor: 4
GridSize: 32
TimelineZoom: 2.5

[Metadata]
Title:Route BLUE (TV Size)
TitleUnicode:Route BLUE (TV Size)
Artist:Yuki Nakashima
ArtistUnicode:中島由貴
Creator:Kagayaki
Version:Shikimori-san Kakkoii!
Source:可愛いだけじゃない式守さん
Tags:japanese pop jpop j-pop Kawaii dake ja Nai Shikimori-san Shikimori's Not Just a Cutie Doga Kobo win anime ending ed
BeatmapID:3561131
BeatmapSetID:1741968

[Difficulty]
HPDrainRate:5
CircleSize:4.5
OverallDifficulty:8
ApproachRate:9
SliderMultiplier:2.4
SliderTickRate:0.5

[Events]
//Background and Video events
0,0,"bg.png",0,0
//Break Periods
//Storyboard Layer 0 (Background)
//Storyboard Layer 1 (Fail)
//Storyboard Layer 2 (Pass)
//Storyboard Layer 3 (Foreground)
//Storyboard Layer 4 (Overlay)
//Storyboard Sound Samples

[TimingPoints]
-5298,465.116279069768,4,2,1,40,1,0
1911,-125,4,2,1,40,0,0
9353,-71.4285714285714,4,2,1,70,0,0
14934,-62.5,4,2,1,70,0,0
15864,-52.6315789473684,4,2,1,70,0,0
16329,-62.5,4,2,1,70,0,0
16911,-58.8235294117647,4,2,1,80,0,0
20748,-55.5555555555556,4,2,1,80,0,0
22608,-76.9230769230769,4,2,1,70,0,0
22957,-76.9230769230769,4,2,1,5,0,0
23074,-76.9230769230769,4,2,1,70,0,0
23422,-76.9230769230769,4,2,1,5,0,0
23539,-76.9230769230769,4,2,1,70,0,0
23888,-76.9230769230769,4,2,1,5,0,0
24004,-76.9230769230769,4,2,1,70,0,0
24469,-111.111111111111,4,2,1,50,0,0
37725,-83.3333333333333,4,2,1,65,0,0
39353,-58.8235294117647,4,2,1,80,0,0
46795,-58.8235294117647,4,2,1,80,0,0
47260,-50,4,2,1,80,0,0
47725,-58.8235294117647,4,2,1,80,0,0
49236,-50,4,2,1,80,0,0
49585,-58.8235294117647,4,2,1,80,0,0
52143,-71.4285714285714,4,2,1,80,0,0
54236,-100,4,2,1,60,0,0
67027,-71.4285714285714,4,2,1,60,0,0
68888,-58.8235294117647,4,2,1,80,0,0
80050,-83.3333333333333,4,2,1,70,0,0
83771,-90.9090909090909,4,2,1,70,0,0

[Colours]
Combo1 : 255,255,153
Combo2 : 250,250,250
Combo3 : 76,171,255

[HitObjects]
41,239,1911,6,0,L|227:199,1,192,6|0,1:2|0:0,0:0:0:0:
301,248,2608,2,0,P|318:210|290:139,1,96,2|0,0:0|0:0,0:0:0:0:
356,75,3074,2,0,P|331:41|256:30,2,96,2|0|0,0:0|0:0|0:0,0:0:0:0:
356,75,3655,1,2,0:0:0:0:
307,159,3888,6,0,L|447:188,1,144,2|0,0:0|0:0,0:0:0:0:
400,269,4469,2,0,L|306:288,1,96,2|0,0:0|0:0,0:0:0:0:
305,288,4818,1,2,0:0:0:0:
323,379,4934,6,0,P|240:355|222:236,1,192,0|0,1:0|0:0,0:0:0:0:
112,191,5632,6,0,P|194:167|212:48,1,192,2|0,1:2|0:0,0:0:0:0:
35,81,6329,2,0,L|129:100,1,96,2|0,0:0|0:0,0:0:0:0:
112,191,6795,2,0,L|18:172,2,96,2|0|2,1:2|0:0|0:0,0:0:0:0:
118,335,7492,6,0,B|67:320|67:320|237:286,1,192,2|0,1:2|0:0,0:0:0:0:
256,353,8190,2,0,P|283:322|265:249,1,96,2|0,3:0|0:0,0:0:0:0:
241,118,8655,2,0,P|214:149|232:222,1,96,2|4,3:0|3:0,0:0:0:0:
289,176,9120,1,4,3:0:0:0:
145,229,9353,6,0,B|127:194|88:189|88:189|182:151|297:210|305:334,1,335.999989746094,6|2,0:0|0:0,0:0:0:0:
340,360,9934,1,0,0:0:0:0:
340,360,10050,2,0,P|371:320|360:262,1,83.9999974365235,10|0,0:0|0:0,0:0:0:0:
261,332,10283,2,0,P|259:285|290:249,1,83.9999974365235,2|0,0:0|0:0,0:0:0:0:
463,160,10515,6,0,P|465:113|434:77,1,83.9999974365235,2|0,1:2|0:0,0:0:0:0:
384,188,10748,2,0,P|353:148|364:90,1,83.9999974365235,2|0,0:0|0:0,0:0:0:0:
211,0,10981,5,10,0:0:0:0:
289,26,11097,2,0,B|272:66|272:66|217:83,1,83.9999974365235,2|0,0:0|0:0,0:0:0:0:
74,84,11329,6,0,P|191:104|268:230,1,251.999992309571,2|2,0:0|0:0,0:0:0:0:
357,240,11795,1,0,0:0:0:0:
357,240,11911,2,0,L|169:280,1,167.999994873047,10|2,0:0|0:0,0:0:0:0:
85,277,12260,5,2,0:0:0:0:
85,277,12376,2,0,B|77:303|77:303|268:343|268:343|258:383,1,251.999992309571,0|0,1:0|0:0,0:0:0:0:
421,300,12841,6,0,P|450:267|408:171,1,83.9999974365235,10|0,0:0|0:0,0:0:0:0:
503,139,13074,2,0,P|489:97|385:86,1,83.9999974365235,2|0,0:0|0:0,0:0:0:0:
358,5,13306,6,0,L|170:45,1,167.999994873047,0|2,1:0|0:0,0:0:0:0:
103,154,13655,1,0,0:0:0:0:
103,154,13771,2,0,B|77:130|77:130|241:165,1,167.999994873047,10|2,0:0|0:0,0:0:0:0:
230,245,14120,1,2,0:0:0:0:
230,245,14236,2,0,B|278:233|278:233|315:163,1,83.9999974365235,0|0,1:0|0:0,0:0:0:0:
292,117,14469,2,0,B|312:164|312:164|434:194,1,167.999994873047,2|8,0:0|0:0,0:0:0:0:
512,174,14818,5,0,0:0:0:0:
512,174,14934,2,0,B|506:144|530:121|530:121|438:128|363:222|390:312|390:312|406:276|462:274,1,384,2|8,1:2|0:0,0:0:0:0:
373,100,15632,1,8,0:0:0:0:
470,362,15864,6,0,P|333:264|154:280,1,341.999990867615,6|0,0:0|3:0,0:0:0:0:
138,356,16329,6,0,P|183:366|220:339,1,96,2|2,0:0|0:0,0:0:0:0:
193,191,16562,5,10,0:0:0:0:
110,211,16678,2,0,P|123:255|165:274,1,96,10|0,0:0|0:0,0:0:0:0:
323,125,16911,6,0,B|167:91|167:91|146:51,1,204.000003890991,6|2,1:2|0:0,0:0:0:0:
257,21,17260,2,0,L|356:0,1,102.000001945496,0|2,3:0|0:0,0:0:0:0:
422,102,17492,2,0,L|323:124,1,102.000001945496,8|2,0:0|0:0,0:0:0:0:
389,229,17725,2,0,L|488:207,1,102.000001945496,0|2,3:0|0:0,0:0:0:0:
393,350,17957,6,0,P|311:328|281:187,1,204.000003890991,0|2,1:0|0:0,0:0:0:0:
77,101,18422,5,10,0:0:0:0:
153,78,18539,2,0,P|163:119|110:167,1,102.000001945496,2|0,0:0|0:0,0:0:0:0:
0,191,18771,2,0,P|59:184|172:279,1,204.000003890991,2|2,0:0|0:0,0:0:0:0:
175,345,19120,2,0,B|225:331|225:331|249:270,1,102.000001945496,2|2,0:0|0:0,0:0:0:0:
349,263,19353,2,0,B|361:212|361:212|321:161,1,102.000001945496,8|2,0:0|0:0,0:0:0:0:
288,9,19585,5,0,3:0:0:0:
288,9,19702,1,2,0:0:0:0:
224,62,19818,2,0,B|249:100|249:100|362:76|362:76|368:34,1,204.000003890991,0|2,1:0|0:0,0:0:0:0:
448,86,20167,5,8,0:0:0:0:
512,73,20283,1,8,0:0:0:0:
453,45,20399,1,10,0:0:0:0:
486,105,20515,1,10,0:0:0:0:
493,38,20632,1,8,0:0:0:0:
420,220,20748,6,0,B|449:184|514:197|514:197|305:129|403:325|185:249,1,431.999986816407,10|0,0:0|1:0,0:0:0:0:
44,161,21446,6,0,B|66:264|66:264|65:269|65:269|91:385,2,215.999993408203,10|0|0,0:0|1:0|1:0,0:0:0:0:
213,257,22143,5,10,0:0:0:0:
272,206,22260,1,8,0:0:0:0:
197,181,22376,1,8,0:0:0:0:
288,282,22608,6,0,B|329:323|329:323|135:270,1,233.999989288331,0|0,1:0|0:0,0:0:0:0:
149,131,23074,6,0,B|108:172|108:172|302:119,1,233.999989288331,0|0,1:0|0:0,0:0:0:0:
324,28,23539,6,0,B|283:-13|283:-13|477:40,1,233.999989288331,0|0,1:0|0:0,0:0:0:0:
452,33,24004,1,10,0:0:0:0:
452,33,24120,1,2,0:0:0:0:
512,155,24469,6,0,L|353:188,2,161.999995056153,6|2|2,1:2|0:0|0:0,0:0:0:0:
505,238,25399,2,0,L|375:265,1,107.999996704102,0|0,1:0|0:0,0:0:0:0:
399,260,25864,2,0,L|385:324,2,53.9999983520508,0|0|2,1:0|0:0|0:0,0:0:0:0:
293,342,26329,6,0,L|327:184,2,161.999995056153,2|2|2,1:2|0:0|0:0,0:0:0:0:
293,342,27260,1,0,1:0:0:0:
327,184,27492,2,0,L|197:211,1,107.999996704102,2|0,0:0|1:0,0:0:0:0:
189,287,27957,6,0,L|124:300,2,53.9999983520508,2|0|0,0:0|0:0|1:0,0:0:0:0:
69,236,28422,2,0,L|80:183,1,53.9999983520508,2|0,0:0|0:0,0:0:0:0:
80,183,28655,2,0,L|185:160,1,107.999996704102,2|2,1:2|0:0,0:0:0:0:
215,76,29120,2,0,L|320:53,1,107.999996704102,0|2,1:0|0:0,0:0:0:0:
320,53,29585,2,0,L|308:105,2,53.9999983520508,0|2|0,1:0|0:0|0:0,0:0:0:0:
416,17,30050,6,0,L|382:175,1,161.999995056153,2|0,1:2|0:0,0:0:0:0:
381,175,30515,1,0,1:0:0:0:
381,175,30748,2,0,L|275:197,1,107.999996704102,0|0,0:0|1:0,0:0:0:0:
275,196,31213,1,2,0:0:0:0:
400,257,31446,1,2,1:2:0:0:
400,257,31562,2,0,L|294:279,1,107.999996704102,2|0,0:0|0:0,0:0:0:0:
294,278,31911,6,0,L|452:312,2,161.999995056153,0|2|2,1:0|0:0|0:0,0:0:0:0:
253,201,32841,2,0,L|147:223,1,107.999996704102,0|0,1:0|0:0,0:0:0:0:
147,222,33306,2,0,L|135:274,2,53.9999983520508,0|0|2,1:0|0:0|0:0,0:0:0:0:
36,309,33771,6,0,L|70:151,2,161.999995056153,2|2|2,1:2|0:0|0:0,0:0:0:0:
36,309,34702,1,0,1:0:0:0:
70,150,34934,2,0,L|175:128,1,107.999996704102,2|2,0:0|1:2,0:0:0:0:
156,50,35399,2,0,L|51:72,2,107.999996704102,2|0|2,0:0|1:0|0:0,0:0:0:0:
156,50,36097,1,2,1:2:0:0:
175,127,36329,2,0,L|280:149,1,107.999996704102,2|0,0:0|1:0,0:0:0:0:
355,97,36795,2,0,L|460:119,1,107.999996704102,2|0,0:0|1:0,0:0:0:0:
460,119,37143,2,0,L|472:171,1,53.9999983520508,2|0,0:0|0:0,0:0:0:0:
494,276,37492,5,2,1:2:0:0:
494,276,37725,2,0,P|415:283|368:344,1,143.999995605469,2|0,0:0|1:0,0:0:0:0:
308,375,38190,2,0,P|229:367|182:306,1,143.999995605469,2|0,0:0|1:0,0:0:0:0:
280,272,38655,1,2,0:0:0:0:
187,321,38888,5,6,0:0:0:0:
187,321,39004,1,2,0:0:0:0:
4,300,39353,6,0,B|25:228|123:193|196:232|196:232|155:226|127:255,1,306.000005836487,6|2,1:2|0:0,0:0:0:0:
257,296,39818,2,0,P|281:271|278:201,1,102.000001945496,8|0,0:0|0:0,0:0:0:0:
346,151,40050,2,0,P|336:117|274:85,1,102.000001945496,2|0,0:0|0:0,0:0:0:0:
264,1,40283,2,0,P|230:-7|72:87,1,204.000003890991,0|2,1:0|0:0,0:0:0:0:
48,123,40632,5,0,0:0:0:0:
48,123,40748,2,0,P|12:88|36:19,1,102.000001945496,10|0,0:0|0:0,0:0:0:0:
89,17,40981,2,0,P|124:51|100:120,1,102.000001945496,2|2,0:0|0:0,0:0:0:0:
0,215,41213,6,0,P|34:207|192:301,1,204.000003890991,0|2,1:0|0:0,0:0:0:0:
186,360,41562,1,0,0:0:0:0:
186,360,41678,2,0,B|236:350|236:350|268:287,1,102.000001945496,8|0,0:0|0:0,0:0:0:0:
302,189,41911,6,0,B|325:234|325:234|475:264,1,204.000003890991,2|0,0:0|1:0,0:0:0:0:
489,134,42260,1,0,0:0:0:0:
489,134,42376,2,0,L|375:157,1,102.000001945496,2|0,0:0|0:0,0:0:0:0:
369,253,42608,2,0,L|269:273,1,102.000001945496,8|0,0:0|0:0,0:0:0:0:
128,285,42841,6,0,B|153:332|153:332|182:184,1,204.000003890991,2|0,0:0|1:0,0:0:0:0:
247,88,43190,1,0,0:0:0:0:
247,88,43306,2,0,B|272:41|272:41|301:188,1,204.000003890991,2|10,0:0|0:0,0:0:0:0:
369,253,43655,5,2,0:0:0:0:
369,253,43771,1,2,0:0:0:0:
418,263,43888,1,2,0:0:0:0:
378,335,44004,5,2,1:2:0:0:
329,345,44120,1,2,0:0:0:0:
262,300,44236,5,2,0:0:0:0:
213,310,44353,1,2,0:0:0:0:
156,378,44469,6,0,B|122:337|122:337|132:267,1,102.000001945496,8|0,0:0|0:0,0:0:0:0:
30,237,44702,2,0,B|48:187|48:187|113:161,1,102.000001945496,2|0,0:0|0:0,0:0:0:0:
172,80,44934,6,0,P|206:72|364:166,1,204.000003890991,2|0,1:2|0:0,0:0:0:0:
358,149,45283,5,0,0:0:0:0:
359,150,45399,2,0,P|271:100|234:8,1,204.000003890991,10|0,0:0|0:0,0:0:0:0:
172,80,45748,5,0,0:0:0:0:
172,80,45864,2,0,P|206:72|364:166,1,204.000003890991,2|2,1:2|0:0,0:0:0:0:
398,288,46213,5,8,3:0:0:0:
351,224,46329,1,10,0:0:0:0:
427,248,46446,1,8,3:0:0:0:
351,273,46562,1,8,3:0:0:0:
397,208,46678,1,8,3:0:0:0:
400,335,46795,6,0,P|432:297|426:247,1,102.000001945496,2|0,1:2|0:0,0:0:0:0:
327,311,47027,2,0,P|320:261|351:223,1,102.000001945496,2|0,0:0|0:0,0:0:0:0:
500,155,47260,5,8,0:0:0:0:
500,155,47376,2,0,L|215:212,1,240,2|2,3:0|3:0,0:0:0:0:
175,224,47725,6,0,P|244:215|176:231,1,204.000003890991,0|0,1:0|0:0,0:0:0:0:
177,347,48074,5,0,0:0:0:0:
177,347,48190,2,0,P|96:285|101:158,1,204.000003890991,10|0,0:0|0:0,0:0:0:0:
28,144,48539,1,2,0:0:0:0:
28,144,48655,2,0,P|65:111|115:118,1,102.000001945496,0|0,1:0|0:0,0:0:0:0:
49,216,48888,2,0,P|98:223|137:192,1,102.000001945496,2|0,0:0|0:0,0:0:0:0:
182,71,49120,5,8,0:0:0:0:
182,71,49236,2,0,L|467:128,1,240,2|2,3:0|3:0,0:0:0:0:
507,140,49585,6,0,P|438:131|506:147,1,204.000003890991,0|0,1:0|0:0,0:0:0:0:
352,275,49934,5,8,3:0:0:0:
315,204,50050,1,10,0:0:0:0:
388,239,50167,1,8,3:0:0:0:
308,253,50283,1,8,3:0:0:0:
363,195,50399,1,8,3:0:0:0:
352,275,50515,6,0,L|196:306,1,102.000001945496,0|0,1:0|0:0,0:0:0:0:
214,223,50748,2,0,L|314:203,1,102.000001945496,2|0,0:0|0:0,0:0:0:0:
415,24,50981,5,10,0:0:0:0:
411,107,51097,2,0,B|360:96|360:96|332:47,1,102.000001945496,2|0,0:0|0:0,0:0:0:0:
227,14,51329,6,0,P|193:6|35:100,1,204.000003890991,2|0,0:0|0:0,0:0:0:0:
63,144,51678,2,0,P|104:125|109:65,1,102.000001945496,2|0,0:0|0:0,0:0:0:0:
51,33,51911,2,0,P|10:52|5:112,1,102.000001945496,8|0,0:0|0:0,0:0:0:0:
0,247,52143,6,0,P|128:249|218:344,1,251.999992309571,6|0,1:2|0:0,0:0:0:0:
265,384,52608,2,0,B|293:349|293:349|275:289,1,83.9999974365235,2|0,1:2|0:0,0:0:0:0:
192,363,52841,2,0,B|180:325|180:325|208:290,1,83.9999974365235,2|0,1:2|0:0,0:0:0:0:
350,133,53074,6,0,L|133:176,1,167.999994873047,2|0,1:2|0:0,0:0:0:0:
114,48,53422,1,4,3:0:0:0:
114,48,53539,2,0,B|134:91|134:91|305:125,1,167.999994873047,2|8,1:2|0:0,0:0:0:0:
449,152,54004,5,8,0:0:0:0:
449,152,54120,1,8,0:0:0:0:
449,152,54236,2,0,L|425:269,1,120,6|2,1:2|0:0,0:0:0:0:
425,269,54702,2,0,L|308:292,2,120,2|0|8,0:0|0:0|0:0,0:0:0:0:
425,269,55399,1,2,0:0:0:0:
307,292,55632,1,2,0:0:0:0:
189,315,55864,6,0,L|177:373,5,40,2|0|0|0|0|0,1:2|0:0|0:0|0:0|0:0|0:0,0:0:0:0:
107,381,56329,2,0,L|62:341,5,40,2|0|0|0|0|0,0:0|0:0|0:0|0:0|0:0|0:0,0:0:0:0:
90,276,56795,6,0,L|146:256,2,40,2|0|0,0:0|0:0|0:0,0:0:0:0:
69,271,57027,6,0,B|155:240|155:240|175:192,1,120,8|8,0:0|3:0,0:0:0:0:
60,156,57492,5,2,0:0:0:0:
60,156,57725,1,2,0:0:0:0:
160,89,57957,6,0,L|277:113,1,120,2|2,1:2|0:0,0:0:0:0:
277,113,58422,2,0,L|301:230,2,120,2|0|8,0:0|0:0|0:0,0:0:0:0:
277,113,59120,1,2,0:0:0:0:
301,230,59353,1,2,0:0:0:0:
391,151,59585,2,0,L|367:34,1,120,2|0,1:2|0:0,0:0:0:0:
366,33,60050,6,0,L|424:45,2,60,2|2|2,0:0|0:0|0:0,0:0:0:0:
301,78,60399,2,0,L|242:66,1,60,2|0,0:0|0:0,0:0:0:0:
177,110,60632,1,2,0:0:0:0:
177,110,60748,2,0,L|28:79,1,120,8|8,0:0|3:0,0:0:0:0:
140,1,61213,1,2,0:0:0:0:
140,1,61446,1,8,3:0:0:0:
59,85,61678,6,0,L|83:202,1,120,2|2,1:2|0:0,0:0:0:0:
83,202,62143,2,0,L|200:226,2,120,2|0|8,0:0|0:0|0:0,0:0:0:0:
83,202,62841,1,2,0:0:0:0:
200,226,63074,1,2,0:0:0:0:
317,250,63306,6,0,L|329:308,3,60,2|0|0|0,1:2|0:0|0:0|0:0,0:0:0:0:
405,293,63771,2,0,L|393:234,3,60,2|0|0|0,0:0|0:0|0:0|0:0,0:0:0:0:
377,162,64236,2,0,L|260:138,1,120,2|8,1:2|0:0,0:0:0:0:
243,65,64702,2,0,L|126:41,1,120,2|0,0:0|1:0,0:0:0:0:
125,40,65050,1,0,0:0:0:0:
125,40,65167,1,6,1:2:0:0:
256,192,65283,12,4,67027,1:2:0:0:
113,71,67492,5,2,0:0:0:0:
109,191,67725,2,0,P|150:194|188:160,1,83.9999974365235,0|4,0:0|3:0,0:0:0:0:
182,169,67957,2,0,P|251:167|323:264,1,167.999994873047,2|8,1:2|0:0,0:0:0:0:
409,51,68422,6,0,P|376:111|256:125,1,167.999994873047,2|8,1:2|3:0,0:0:0:0:
109,191,68888,6,0,B|107:151|67:135|67:135|165:128|235:254|172:342|172:342|77:269,1,408.000007781983,6|2,1:2|0:0,0:0:0:0:
68,345,69469,1,0,0:0:0:0:
68,345,69585,2,0,P|63:295|93:256,1,102.000001945496,10|0,0:0|0:0,0:0:0:0:
144,369,69818,2,0,P|175:329|164:271,1,102.000001945496,2|0,0:0|0:0,0:0:0:0:
238,98,70050,6,0,P|233:148|263:187,1,102.000001945496,2|0,1:2|0:0,0:0:0:0:
314,76,70283,2,0,P|345:116|334:174,1,102.000001945496,2|0,0:0|0:0,0:0:0:0:
330,350,70515,5,10,0:0:0:0:
297,262,70632,2,0,L|414:286,1,102.000001945496,2|0,0:0|0:0,0:0:0:0:
502,196,70864,6,0,B|476:223|476:223|247:175|247:175|208:215,1,306.000005836487,2|2,0:0|0:0,0:0:0:0:
193,307,71329,1,0,0:0:0:0:
193,307,71446,2,0,L|150:107,1,204.000003890991,10|2,0:0|0:0,0:0:0:0:
35,137,71795,2,0,L|78:337,1,204.000003890991,2|0,0:0|0:0,0:0:0:0:
286,274,72143,5,8,3:0:0:0:
267,371,72260,1,8,3:0:0:0:
286,274,72376,2,0,L|386:252,1,102.000001945496,10|0,0:0|0:0,0:0:0:0:
496,153,72608,6,0,B|348:121|348:121|327:72,1,204.000003890991,2|0,0:0|1:0,0:0:0:0:
320,0,72957,1,0,0:0:0:0:
320,0,73074,2,0,B|272:10|272:10|251:59,1,102.000001945496,2|0,0:0|0:0,0:0:0:0:
167,173,73306,6,0,P|172:123|142:84,1,102.000001945496,10|0,0:0|0:0,0:0:0:0:
65,106,73539,2,0,P|60:155|90:194,1,102.000001945496,2|0,0:0|0:0,0:0:0:0:
24,292,73771,6,0,P|125:291|203:352,1,204.000003890991,2|2,1:2|0:0,0:0:0:0:
289,362,74120,1,0,0:0:0:0:
289,362,74236,2,0,P|328:332|337:283,1,102.000001945496,10|0,0:0|0:0,0:0:0:0:
428,224,74469,2,0,P|421:175|383:142,1,102.000001945496,2|0,0:0|0:0,0:0:0:0:
342,38,74702,6,0,P|236:17|151:89,1,204.000003890991,0|2,1:0|0:0,0:0:0:0:
87,125,75050,1,2,0:0:0:0:
87,125,75167,2,0,B|129:155|129:155|97:4,1,204.000003890991,8|0,0:0|0:0,0:0:0:0:
177,17,75515,1,2,0:0:0:0:
177,17,75632,2,0,L|199:117,1,102.000001945496,0|0,1:0|0:0,0:0:0:0:
318,183,75864,5,8,3:0:0:0:
408,146,75981,1,8,3:0:0:0:
318,183,76097,2,0,L|296:283,1,102.000001945496,10|0,0:0|0:0,0:0:0:0:
170,347,76329,6,0,B|50:335|-15:241|12:63|215:145|140:264|68:248,1,408.000007781983,6|2,1:2|0:0,0:0:0:0:
37,308,76911,1,0,0:0:0:0:
37,308,77027,2,0,P|6:268|11:218,1,102.000001945496,10|0,0:0|0:0,0:0:0:0:
115,285,77260,2,0,P|120:235|90:196,1,102.000001945496,2|0,0:0|0:0,0:0:0:0:
229,31,77492,6,0,P|234:80|203:120,1,102.000001945496,2|0,1:2|0:0,0:0:0:0:
151,8,77725,2,0,P|120:47|125:97,1,102.000001945496,2|0,0:0|0:0,0:0:0:0:
280,191,77957,5,10,0:0:0:0:
259,270,78074,2,0,B|212:250|212:250|195:190,1,102.000001945496,2|0,0:0|0:0,0:0:0:0:
266,96,78306,6,0,B|364:118|364:118|426:62|426:62|514:82|514:82|463:94,1,306.000005836487,2|2,0:0|0:0,0:0:0:0:
504,196,78771,1,0,0:0:0:0:
504,196,78888,2,0,B|540:161|540:161|387:198,1,204.000003890991,10|2,0:0|0:0,0:0:0:0:
322,312,79236,1,2,0:0:0:0:
322,312,79353,2,0,B|358:346|358:346|88:284,1,306.000005836487,0|0,1:0|0:0,0:0:0:0:
53,344,79818,2,0,P|30:303|78:221,1,102.000001945496,10|0,0:0|0:0,0:0:0:0:
27,104,80050,6,0,B|-9:138|-9:138|261:76,1,287.999991210938,6|2,1:2|0:0,0:0:0:0:
256,0,80632,1,0,0:0:0:0:
256,0,80748,2,0,P|315:80|281:159,1,143.999995605469,2|2,0:0|1:2,0:0:0:0:
336,211,81097,1,2,0:0:0:0:
336,211,81213,2,0,P|375:119|461:109,2,143.999995605469,8|2|0,0:0|0:0|1:0,0:0:0:0:
402,324,81911,6,0,P|285:245|126:270,1,287.999991210938,2|0,1:2|0:0,0:0:0:0:
144,259,82608,1,0,0:0:0:0:
104,347,82841,2,0,P|54:298|81:192,1,143.999995605469,2|8,1:2|0:0,0:0:0:0:
131,144,83306,6,0,L|248:168,3,71.9999978027344,8|8|10|8,0:0|0:0|0:0|0:0,0:0:0:0:
113,121,83771,6,0,L|309:162,1,198.000006042481,4|0,1:2|0:0,0:0:0:0:
358,242,84236,2,0,B|387:228|387:228|404:179,1,66.0000020141602,2|2,0:0|0:0,0:0:0:0:
489,160,84469,1,2,0:0:0:0:
489,160,84585,2,0,B|491:128|491:128|459:91,1,66.0000020141602,2|2,0:0|0:0,0:0:0:0:
417,32,84818,6,0,L|226:72,1,132.00000402832,2|2,0:0|0:0,0:0:0:0:
182,126,85167,2,0,L|312:153,1,132.00000402832
311,153,85632,1,4,3:0:0:0:
311,153,85748,1,0,0:0:0:0:
286,269,85981,5,2,0:0:0:0:
286,269,86097,1,2,0:0:0:0:
286,269,86213,2,0,L|103:307,1,132.00000402832,2|2,0:0|0:0,0:0:0:0:
111,369,86562,2,0,B|82:357|82:357|62:298,1,66.0000020141602
62,205,86795,5,10,0:0:0:0:
235,93,87027,1,4,3:0:0:0:
203,236,87260,1,10,0:0:0:0:
94,64,87492,1,10,0:0:0:0:
