osu file format v14

[General]
AudioFilename: audio.mp3
AudioLeadIn: 0
PreviewTime: 68771
Countdown: 0
SampleSet: Soft
StackLeniency: 0.2
Mode: 0
LetterboxInBreaks: 0
WidescreenStoryboard: 1

[Editor]
DistanceSpacing: 1
BeatDivisor: 4
GridSize: 32
TimelineZoom: 2.1

[Metadata]
Title:Route BLUE (TV Size)
TitleUnicode:Route BLUE (TV Size)
Artist:Yuki Nakashima
ArtistUnicode:中島由貴
Creator:Kagayaki
Version:Insane
Source:可愛いだけじゃない式守さん
Tags:japanese pop jpop j-pop Kawaii dake ja Nai Shikimori-san Shikimori's Not Just a Cutie Doga Kobo win anime ending ed
BeatmapID:3570312
BeatmapSetID:1741968

[Difficulty]
HPDrainRate:4.5
CircleSize:4.3
OverallDifficulty:7
ApproachRate:8.5
SliderMultiplier:1.8
SliderTickRate:0.5

[Events]
//Background and Video events
0,0,"bg.png",0,0
//Break Periods
//Storyboard Layer 0 (Background)
//Storyboard Layer 1 (Fail)
//Storyboard Layer 2 (Pass)
//Storyboard Layer 3 (Foreground)
//Storyboard Layer 4 (Overlay)
//Storyboard Sound Samples

[TimingPoints]
-5298,465.116279069768,4,2,1,40,1,0
1911,-125,4,2,1,40,0,0
9353,-76.9230769230769,4,2,1,70,0,0
16911,-71.4285714285714,4,2,1,80,0,0
22608,-83.3333333333333,4,2,1,70,0,0
22957,-83.3333333333333,4,2,1,5,0,0
23074,-83.3333333333333,4,2,1,70,0,0
23422,-83.3333333333333,4,2,1,5,0,0
23539,-83.3333333333333,4,2,1,70,0,0
23888,-83.3333333333333,4,2,1,5,0,0
24004,-83.3333333333333,4,2,1,70,0,0
24469,-111.111111111111,4,2,1,50,0,0
37725,-111.111111111111,4,2,1,65,0,0
39353,-71.4285714285714,4,2,1,80,0,0
47260,-62.5,4,2,1,80,0,0
47725,-71.4285714285714,4,2,1,80,0,0
49120,-62.5,4,2,1,80,0,0
49585,-71.4285714285714,4,2,1,80,0,0
54236,-111.111111111111,4,2,1,60,0,0
68888,-71.4285714285714,4,2,1,80,0,0
80050,-83.3333333333333,4,2,1,70,0,0

[Colours]
Combo1 : 255,255,153
Combo2 : 250,250,250
Combo3 : 76,171,255

[HitObjects]
51,204,1911,6,0,L|192:228,1,144,6|0,1:2|0:0,0:0:0:0:
218,303,2608,2,0,B|252:291|252:291|273:241,1,72,2|0,0:0|0:0,0:0:0:0:
349,224,3074,2,0,B|355:188|355:188|322:145,2,72,2|0|0,0:0|0:0|0:0,0:0:0:0:
349,224,3655,1,2,0:0:0:0:
385,111,3888,6,0,L|257:133,1,108,2|0,0:0|0:0,0:0:0:0:
205,71,4469,2,0,L|121:85,1,72,2|0,0:0|0:0,0:0:0:0:
118,112,4818,2,0,B|43:99|43:99|25:72,1,108,2|0,0:0|0:0,0:0:0:0:
111,7,5399,1,0,0:0:0:0:
205,71,5632,6,0,P|272:63|337:136,1,144,2|0,1:2|0:0,0:0:0:0:
401,150,6329,2,0,L|472:138,1,72,2|0,0:0|0:0,0:0:0:0:
468,219,6795,2,0,L|396:230,2,72,2|0|2,1:2|0:0|0:0,0:0:0:0:
358,323,7492,6,0,P|302:283|296:205,1,144,2|0,1:2|0:0,0:0:0:0:
229,111,8190,2,0,L|157:122,1,72,2|0,3:0|0:0,0:0:0:0:
128,239,8655,2,0,L|56:250,1,72,2|4,3:0|3:0,0:0:0:0:
0,162,9120,1,4,3:0:0:0:
44,66,9353,6,0,P|152:56|230:149,1,233.999989288331,6|2,0:0|0:0,0:0:0:0:
280,201,9934,1,0,0:0:0:0:
280,201,10050,2,0,B|304:182|304:182|307:134,1,58.4999973220826,10|0,0:0|0:0,0:0:0:0:
237,116,10283,2,0,B|213:135|213:135|210:183,1,58.4999973220826,2|0,0:0|0:0,0:0:0:0:
155,247,10515,6,0,B|179:266|179:266|182:314,1,58.4999973220826,2|0,1:2|0:0,0:0:0:0:
112,332,10748,2,0,B|88:313|88:313|85:265,1,58.4999973220826,2|0,0:0|0:0,0:0:0:0:
279,301,10981,5,10,0:0:0:0:
279,301,11097,2,0,L|336:309,1,58.4999973220826,2|0,0:0|0:0,0:0:0:0:
383,384,11329,5,2,0:0:0:0:
383,384,11446,2,0,P|418:354|411:267,1,116.999994644165,0|2,0:0|0:0,0:0:0:0:
512,208,11911,2,0,P|504:163|424:125,1,116.999994644165,10|2,0:0|0:0,0:0:0:0:
372,70,12260,1,2,0:0:0:0:
372,70,12376,2,0,L|231:94,1,116.999994644165,0|0,1:0|0:0,0:0:0:0:
155,160,12841,6,0,L|145:218,1,58.4999973220826,10|0,0:0|0:0,0:0:0:0:
68,190,13074,2,0,L|78:132,1,58.4999973220826,2|0,0:0|0:0,0:0:0:0:
0,235,13306,6,0,P|56:233|97:280,1,116.999994644165,0|2,1:0|0:0,0:0:0:0:
190,352,13771,2,0,P|246:353|287:307,1,116.999994644165,10|2,0:0|0:0,0:0:0:0:
356,258,14120,2,0,L|414:268,1,58.4999973220826,2|0,0:0|1:0,0:0:0:0:
462,160,14469,2,0,L|346:140,1,116.999994644165,2|8,0:0|0:0,0:0:0:0:
356,258,14934,6,0,P|240:198|242:80,1,233.999989288331,2|8,1:2|0:0,0:0:0:0:
346,140,15632,1,8,0:0:0:0:
230,105,15864,6,0,L|35:138,1,175.499991966248,6|0,0:0|3:0,0:0:0:0:
11,206,16329,2,0,L|0:263,1,58.4999973220826,2|2,0:0|0:0,0:0:0:0:
74,297,16562,1,10,0:0:0:0:
74,297,16678,2,0,L|90:206,1,58.4999973220826,10|0,0:0|0:0,0:0:0:0:
184,209,16911,6,0,P|260:234|269:328,1,125.999996154785,6|2,1:2|0:0,0:0:0:0:
358,345,17260,2,0,B|389:335|389:335|408:293,1,62.9999980773926,0|2,3:0|0:0,0:0:0:0:
491,247,17492,2,0,B|498:215|498:215|471:177,1,62.9999980773926,8|2,0:0|0:0,0:0:0:0:
472,82,17725,2,0,B|447:59|447:59|401:64,1,62.9999980773926,0|2,3:0|0:0,0:0:0:0:
316,6,17957,2,0,L|158:32,1,125.999996154785,0|2,1:0|0:0,0:0:0:0:
111,180,18422,6,0,L|20:164,1,62.9999980773926,10|2,0:0|0:0,0:0:0:0:
36,85,18655,1,0,0:0:0:0:
36,85,18771,2,0,B|167:106|167:106|203:168,1,188.999994232178,2|2,0:0|0:0,0:0:0:0:
158,255,19236,1,2,0:0:0:0:
158,255,19353,2,0,L|67:271,1,62.9999980773926,8|2,0:0|0:0,0:0:0:0:
142,357,19585,2,0,L|204:346,1,62.9999980773926,0|2,3:0|0:0,0:0:0:0:
305,377,19818,6,0,P|344:333|305:234,1,125.999996154785,0|2,1:0|0:0,0:0:0:0:
269,184,20167,5,8,0:0:0:0:
229,191,20283,1,8,0:0:0:0:
189,198,20399,1,10,0:0:0:0:
149,205,20515,1,10,0:0:0:0:
109,212,20632,1,8,0:0:0:0:
69,219,20748,6,0,B|78:277|78:277|122:40,1,251.999992309571,10|0,0:0|1:0,0:0:0:0:
252,148,21446,6,0,L|224:306,2,125.999996154785,10|0|0,0:0|1:0|1:0,0:0:0:0:
113,86,22143,5,10,0:0:0:0:
113,89,22260,1,8,0:0:0:0:
113,92,22376,1,8,0:0:0:0:
147,194,22608,6,0,P|202:170|228:78,1,161.999995056153,0|0,1:0|0:0,0:0:0:0:
228,78,23074,2,0,L|441:115,1,215.999993408203,0|0,1:0|1:0,0:0:0:0:
364,217,23771,2,0,L|224:192,1,107.999996704102,0|10,0:0|0:0,0:0:0:0:
257,198,24120,1,2,0:0:0:0:
65,313,24469,6,0,L|184:290,2,121.499996292114,6|2|2,1:2|0:0|0:0,0:0:0:0:
67,233,25399,2,0,L|146:218,1,80.9999975280763,0|0,1:0|0:0,0:0:0:0:
146,218,25864,2,0,L|157:155,2,40.4999987640381,0|0|2,1:0|0:0|0:0,0:0:0:0:
218,273,26329,6,0,L|241:154,2,121.499996292114,2|2|2,1:2|0:0|0:0,0:0:0:0:
218,273,27260,1,0,1:0:0:0:
241,153,27492,2,0,L|320:138,1,80.9999975280763,2|0,0:0|1:0,0:0:0:0:
362,64,27957,2,0,L|425:52,2,40.4999987640381,2|0|0,0:0|0:0|1:0,0:0:0:0:
446,131,28422,6,0,L|406:138,1,40.4999987640381,2|0,0:0|0:0,0:0:0:0:
407,138,28655,2,0,L|392:217,1,80.9999975280763,2|2,1:2|0:0,0:0:0:0:
340,285,29120,2,0,L|261:300,1,80.9999975280763,0|2,1:0|0:0,0:0:0:0:
260,300,29585,2,0,L|253:340,2,40.4999987640381,0|2|0,1:0|0:0|0:0,0:0:0:0:
169,357,30050,6,0,L|194:220,1,121.499996292114,2|0,1:2|0:0,0:0:0:0:
190,237,30515,2,0,L|269:222,2,80.9999975280763,0|0|0,1:0|0:0|1:0,0:0:0:0:
170,162,31213,2,0,L|249:147,1,80.9999975280763,2|2,0:0|1:2,0:0:0:0:
249,146,31562,1,2,0:0:0:0:
402,255,31911,6,0,L|282:233,2,121.499996292114,0|2|2,1:0|0:0|0:0,0:0:0:0:
402,176,32841,2,0,L|323:161,1,80.9999975280763,0|0,1:0|0:0,0:0:0:0:
322,160,33306,2,0,L|315:120,2,40.4999987640381,0|0|2,1:0|0:0|0:0,0:0:0:0:
252,215,33771,6,0,L|229:96,2,121.499996292114,2|2|2,1:2|0:0|0:0,0:0:0:0:
252,215,34702,1,0,1:0:0:0:
228,95,34934,2,0,L|149:80,1,80.9999975280763,2|2,0:0|1:2,0:0:0:0:
169,7,35399,2,0,L|248:22,2,80.9999975280763,2|0|2,0:0|1:0|0:0,0:0:0:0:
170,7,36097,1,2,1:2:0:0:
148,79,36329,6,0,L|69:94,1,80.9999975280763,2|0,0:0|1:0,0:0:0:0:
56,174,36795,2,0,L|135:189,1,80.9999975280763,2|0,0:0|1:0,0:0:0:0:
135,189,37143,2,0,L|142:229,1,40.4999987640381,2|0,0:0|0:0,0:0:0:0:
162,321,37492,5,2,1:2:0:0:
162,321,37725,2,0,L|241:336,1,80.9999975280763,2|0,0:0|1:0,0:0:0:0:
303,274,38190,2,0,L|382:289,1,80.9999975280763,2|0,0:0|1:0,0:0:0:0:
382,289,38655,1,2,0:0:0:0:
488,308,38888,5,6,0:0:0:0:
488,308,39004,1,2,0:0:0:0:
375,161,39353,6,0,L|187:196,1,188.999994232178,6|2,1:2|0:0,0:0:0:0:
155,281,39818,2,0,B|123:274|123:274|83:196,1,62.9999980773926,8|0,0:0|0:0,0:0:0:0:
32,190,40050,2,0,B|22:159|22:159|69:86,1,62.9999980773926,2|0,0:0|0:0,0:0:0:0:
49,37,40283,2,0,L|206:66,1,125.999996154785,0|2,1:0|0:0,0:0:0:0:
267,152,40748,6,0,P|306:123|289:20,1,125.999996154785,10|2,0:0|0:0,0:0:0:0:
320,56,41097,1,2,0:0:0:0:
320,56,41213,2,0,L|443:33,1,125.999996154785,0|2,1:0|0:0,0:0:0:0:
434,138,41678,2,0,L|342:155,1,62.9999980773926,8|0,0:0|0:0,0:0:0:0:
333,212,41911,6,0,L|210:235,1,125.999996154785,2|0,0:0|1:0,0:0:0:0:
139,271,42260,1,0,0:0:0:0:
139,271,42376,2,0,L|262:294,1,125.999996154785,2|8,0:0|0:0,0:0:0:0:
322,380,42841,5,2,0:0:0:0:
325,382,42957,1,0,0:0:0:0:
328,384,43074,2,0,P|367:355|350:252,1,125.999996154785,0|2,1:0|0:0,0:0:0:0:
333,212,43422,1,0,0:0:0:0:
333,212,43539,2,0,L|259:225,1,62.9999980773926,10|2,0:0|0:0,0:0:0:0:
210,293,43771,5,2,0:0:0:0:
189,289,43888,1,2,0:0:0:0:
168,285,44004,1,2,1:2:0:0:
148,281,44120,1,2,0:0:0:0:
127,277,44236,1,2,0:0:0:0:
106,273,44353,1,2,0:0:0:0:
86,269,44469,2,0,L|63:146,1,125.999996154785,8|2,0:0|0:0,0:0:0:0:
131,35,44934,6,0,P|175:15|256:81,1,125.999996154785,2|0,1:2|0:0,0:0:0:0:
287,148,45283,5,0,0:0:0:0:
287,148,45399,2,0,P|248:119|265:16,1,125.999996154785,10|0,0:0|0:0,0:0:0:0:
327,11,45748,5,0,0:0:0:0:
327,11,45864,2,0,P|365:40|348:143,1,125.999996154785,2|2,1:2|0:0,0:0:0:0:
294,188,46213,5,8,3:0:0:0:
254,195,46329,1,10,0:0:0:0:
214,202,46446,1,8,3:0:0:0:
174,209,46562,1,8,3:0:0:0:
134,216,46678,1,8,3:0:0:0:
94,223,46795,2,0,B|74:199|74:199|172:217,1,125.999996154785,2|2,1:2|0:0,0:0:0:0:
257,305,47260,5,8,0:0:0:0:
257,305,47376,2,0,P|296:276|279:173,1,144,2|2,3:0|3:0,0:0:0:0:
260,116,47725,2,0,L|137:139,1,125.999996154785,0|0,1:0|0:0,0:0:0:0:
348,294,48190,6,0,L|471:271,1,125.999996154785,10|0,0:0|0:0,0:0:0:0:
468,192,48539,1,2,0:0:0:0:
468,192,48655,2,0,L|345:215,1,125.999996154785,0|2,1:0|0:0,0:0:0:0:
257,305,49120,5,8,0:0:0:0:
257,305,49236,2,0,P|218:276|235:173,1,144,2|2,3:0|3:0,0:0:0:0:
254,116,49585,2,0,L|377:139,1,125.999996154785,0|0,1:0|0:0,0:0:0:0:
369,245,49934,5,8,3:0:0:0:
329,252,50050,1,10,0:0:0:0:
289,259,50167,1,8,3:0:0:0:
249,266,50283,1,8,3:0:0:0:
209,273,50399,1,8,3:0:0:0:
169,280,50515,2,0,B|190:301|190:301|173:208,1,125.999996154785,0|2,1:0|0:0,0:0:0:0:
68,133,50981,5,10,0:0:0:0:
68,133,51097,2,0,L|84:42,1,62.9999980773926,2|0,0:0|0:0,0:0:0:0:
152,13,51329,2,0,P|199:5|259:91,1,125.999996154785,2|0,0:0|0:0,0:0:0:0:
231,140,51678,2,0,P|278:147|338:61,1,125.999996154785,2|8,0:0|0:0,0:0:0:0:
365,0,52143,5,6,1:2:0:0:
502,119,52608,6,0,L|512:181,1,62.9999980773926,2|0,1:2|0:0,0:0:0:0:
441,223,52841,2,0,L|430:160,1,62.9999980773926,2|0,1:2|0:0,0:0:0:0:
512,258,53074,6,0,P|449:247|369:362,1,188.999994232178,2|4,1:2|3:0,0:0:0:0:
285,372,53539,2,0,L|162:349,1,125.999996154785,2|8,1:2|0:0,0:0:0:0:
88,256,54004,5,8,0:0:0:0:
91,254,54120,1,8,0:0:0:0:
94,252,54236,2,0,L|75:151,1,80.9999975280763,6|2,1:2|0:0,0:0:0:0:
80,173,54702,2,0,L|1:159,2,80.9999975280763,2|0|8,0:0|0:0|0:0,0:0:0:0:
16,84,55399,2,0,L|95:98,1,80.9999975280763,2|2,0:0|0:0,0:0:0:0:
184,60,55864,6,0,L|188:86,5,26.9999991760254,2|0|0|0|0|0,1:2|0:0|0:0|0:0|0:0|0:0,0:0:0:0:
224,109,56329,2,0,L|219:135,5,26.9999991760254,2|0|0|0|0|0,0:0|0:0|0:0|0:0|0:0|0:0,0:0:0:0:
184,158,56795,2,0,L|188:184,2,26.9999991760254,2|0|0,0:0|0:0|0:0,0:0:0:0:
224,207,57027,6,0,L|303:221,1,80.9999975280763,8|8,0:0|3:0,0:0:0:0:
348,148,57492,2,0,L|427:162,1,80.9999975280763,2|2,0:0|0:0,0:0:0:0:
496,236,57957,6,0,L|510:315,1,80.9999975280763,2|2,1:2|0:0,0:0:0:0:
511,316,58422,2,0,L|432:302,2,80.9999975280763,2|0|8,0:0|0:0|0:0,0:0:0:0:
365,350,59120,2,0,L|286:336,1,80.9999975280763,2|2,0:0|0:0,0:0:0:0:
219,384,59585,2,0,L|140:370,1,80.9999975280763,2|0,1:2|0:0,0:0:0:0:
139,369,60050,6,0,L|128:310,2,40.4999987640381,2|2|2,0:0|0:0|0:0,0:0:0:0:
67,294,60399,2,0,L|56:235,1,40.4999987640381,2|0,0:0|0:0,0:0:0:0:
50,178,60632,1,2,0:0:0:0:
50,178,60748,2,0,L|129:192,1,80.9999975280763,8|8,0:0|3:0,0:0:0:0:
215,130,61213,1,2,0:0:0:0:
215,130,61446,1,8,3:0:0:0:
259,223,61678,6,0,L|338:209,1,80.9999975280763,2|2,1:2|0:0,0:0:0:0:
338,208,62143,2,0,L|352:129,2,80.9999975280763,2|0|8,0:0|0:0|0:0,0:0:0:0:
414,223,62841,2,0,L|428:144,1,80.9999975280763,2|2,0:0|0:0,0:0:0:0:
437,46,63306,6,0,L|378:57,3,40.4999987640381,2|0|0|0,1:2|0:0|0:0|0:0,0:0:0:0:
335,10,63771,2,0,L|276:21,3,40.4999987640381,2|0|0|0,0:0|0:0|0:0|0:0,0:0:0:0:
220,35,64236,2,0,L|206:114,1,80.9999975280763,2|8,1:2|0:0,0:0:0:0:
131,99,64702,2,0,L|145:20,1,80.9999975280763,2|0,0:0|1:0,0:0:0:0:
145,19,65050,1,0,0:0:0:0:
145,19,65167,1,6,1:2:0:0:
256,192,65283,12,2,68422,1:2:0:0:
99,152,68888,6,0,B|73:129|29:135|29:135|224:102,1,251.999992309571,6|2,1:2|0:0,0:0:0:0:
259,162,69469,1,0,0:0:0:0:
259,162,69585,2,0,B|284:141|284:141|287:90,1,62.9999980773926,10|0,0:0|0:0,0:0:0:0:
213,71,69818,2,0,B|187:91|187:91|184:142,1,62.9999980773926,2|0,0:0|0:0,0:0:0:0:
138,215,70050,6,0,B|163:235|163:235|166:286,1,62.9999980773926,2|0,1:2|0:0,0:0:0:0:
92,306,70283,2,0,B|66:285|66:285|63:234,1,62.9999980773926,2|0,0:0|0:0,0:0:0:0:
245,285,70515,5,10,0:0:0:0:
245,285,70632,2,0,B|240:317|240:317|197:345,1,62.9999980773926,2|0,0:0|0:0,0:0:0:0:
301,380,70864,5,2,0:0:0:0:
301,380,70981,2,0,L|444:354,1,125.999996154785,0|2,1:0|0:0,0:0:0:0:
462,236,71446,2,0,L|318:210,1,125.999996154785,10|2,0:0|0:0,0:0:0:0:
340,127,71795,2,0,B|279:139|279:139|241:216,1,125.999996154785,2|0,0:0|0:0,0:0:0:0:
154,257,72143,5,8,3:0:0:0:
162,281,72260,1,8,3:0:0:0:
170,305,72376,2,0,L|108:293,1,62.9999980773926,10|0,0:0|0:0,0:0:0:0:
58,369,72608,6,0,P|18:321|33:242,1,125.999996154785,2|0,0:0|1:0,0:0:0:0:
87,184,72957,1,0,0:0:0:0:
87,184,73074,2,0,L|161:171,1,62.9999980773926,2|0,0:0|0:0,0:0:0:0:
232,91,73306,6,0,L|242:28,1,62.9999980773926,10|0,0:0|0:0,0:0:0:0:
168,0,73539,2,0,L|157:62,1,62.9999980773926,2|0,0:0|0:0,0:0:0:0:
241,28,73771,2,0,L|364:5,1,125.999996154785,2|2,1:2|0:0,0:0:0:0:
481,88,74236,6,0,L|470:150,1,62.9999980773926,10|0,0:0|0:0,0:0:0:0:
458,237,74469,2,0,P|404:215|389:122,1,125.999996154785,2|0,0:0|1:0,0:0:0:0:
263,90,74934,5,2,0:0:0:0:
261,92,75050,1,2,0:0:0:0:
259,94,75167,2,0,P|204:111|181:202,1,125.999996154785,8|0,0:0|0:0,0:0:0:0:
174,169,75515,1,2,0:0:0:0:
174,169,75632,1,0,1:0:0:0:
58,242,75864,5,8,3:0:0:0:
66,266,75981,1,8,3:0:0:0:
74,290,76097,2,0,L|136:302,1,62.9999980773926,10|0,0:0|0:0,0:0:0:0:
208,374,76329,6,0,B|374:344|374:344|423:263,1,251.999992309571,6|2,1:2|0:0,0:0:0:0:
471,213,76911,1,0,0:0:0:0:
471,213,77027,2,0,B|496:234|496:234|499:285,1,62.9999980773926,10|0,0:0|0:0,0:0:0:0:
425,304,77260,2,0,B|399:284|399:284|396:233,1,62.9999980773926,2|0,0:0|0:0,0:0:0:0:
390,150,77492,6,0,B|416:130|416:130|419:79,1,62.9999980773926,2|0,1:2|0:0,0:0:0:0:
344,59,77725,2,0,B|319:80|319:80|316:131,1,62.9999980773926,2|0,0:0|0:0,0:0:0:0:
249,187,77957,5,10,0:0:0:0:
249,187,78074,2,0,L|187:199,1,62.9999980773926,2|0,0:0|0:0,0:0:0:0:
137,281,78306,5,2,0:0:0:0:
137,281,78422,2,0,L|-6:255,1,125.999996154785,0|2,1:0|0:0,0:0:0:0:
32,149,78888,2,0,L|175:123,1,125.999996154785,10|2,0:0|0:0,0:0:0:0:
152,41,79236,1,2,0:0:0:0:
152,41,79353,2,0,B|213:53|213:53|251:130,1,125.999996154785,0|0,1:0|0:0,0:0:0:0:
361,164,79818,6,0,L|423:152,1,62.9999980773926,10|0,0:0|0:0,0:0:0:0:
512,218,80050,2,0,L|266:261,1,215.999993408203,6|2,1:2|0:0,0:0:0:0:
258,340,80748,2,0,P|218:316|218:229,1,107.999996704102,2|2,0:0|1:2,0:0:0:0:
203,259,81097,2,0,L|141:247,1,53.9999983520508,2|8,0:0|0:0,0:0:0:0:
114,162,81446,2,0,L|7:143,1,107.999996704102,2|0,0:0|1:0,0:0:0:0:
28,52,81911,6,0,B|182:78|182:78|213:141,1,215.999993408203,2|0,1:2|0:0,0:0:0:0:
208,131,82608,1,0,0:0:0:0:
244,227,82841,2,0,L|351:208,1,107.999996704102,2|8,1:2|0:0,0:0:0:0:
416,124,83306,2,0,L|429:47,3,53.9999983520508,8|8|10|8,0:0|0:0|0:0|0:0,0:0:0:0:
423,69,83771,5,4,1:2:0:0:
256,192,83888,12,10,87492,0:0:0:0:
