osu file format v14

[General]
AudioFilename: audio.mp3
AudioLeadIn: 0
PreviewTime: 68771
Countdown: 0
SampleSet: Soft
StackLeniency: 0.7
Mode: 0
LetterboxInBreaks: 0
WidescreenStoryboard: 1

[Editor]
DistanceSpacing: 1
BeatDivisor: 4
GridSize: 32
TimelineZoom: 3.399999

[Metadata]
Title:Route BLUE (TV Size)
TitleUnicode:Route BLUE (TV Size)
Artist:Yuki Nakashima
ArtistUnicode:中島由貴
Creator:Kagayaki
Version:Easy
Source:可愛いだけじゃない式守さん
Tags:japanese pop jpop j-pop Kawaii dake ja Nai Shikimori-san Shikimori's Not Just a Cutie Doga Kobo win anime ending ed
BeatmapID:3562569
BeatmapSetID:1741968

[Difficulty]
HPDrainRate:3
CircleSize:3.5
OverallDifficulty:3
ApproachRate:3
SliderMultiplier:0.999999999999999
SliderTickRate:0.5

[Events]
//Background and Video events
0,0,"bg.png",0,0
//Break Periods
//Storyboard Layer 0 (Background)
//Storyboard Layer 1 (Fail)
//Storyboard Layer 2 (Pass)
//Storyboard Layer 3 (Foreground)
//Storyboard Layer 4 (Overlay)
//Storyboard Sound Samples

[TimingPoints]
-5298,465.116279069768,4,2,1,40,1,0
1911,-125,4,2,1,40,0,0
9353,-100,4,2,1,70,0,0
16911,-100,4,2,1,80,0,0
22608,-100,4,2,1,70,0,0
22957,-100,4,2,1,5,0,0
23074,-100,4,2,1,70,0,0
23422,-100,4,2,1,5,0,0
23539,-100,4,2,1,70,0,0
23888,-100,4,2,1,5,0,0
24004,-100,4,2,1,70,0,0
24469,-111.111111111111,4,2,1,50,0,0
37725,-111.111111111111,4,2,1,65,0,0
39353,-99.9999999999999,4,2,1,80,0,0
54236,-111.111111111111,4,2,1,60,0,0
68888,-100,4,2,1,80,0,0
80050,-100,4,2,1,70,0,0

[Colours]
Combo1 : 255,255,153
Combo2 : 250,250,250
Combo3 : 76,171,255

[HitObjects]
43,140,1911,6,0,L|173:117,1,120,6|2,1:2|0:0,0:0:0:0:
218,175,3074,2,0,L|298:160,1,79.9999999999999,2|0,0:0|0:0,0:0:0:0:
353,216,4004,2,0,L|433:201,2,79.9999999999999,0|2|0,0:0|0:0|1:0,0:0:0:0:
260,292,5632,6,0,B|217:284|217:284|181:301|181:301|140:294,1,120,2|2,1:2|0:0,0:0:0:0:
110,223,6795,2,0,L|31:237,2,79.9999999999999,2|2|0,1:2|0:0|0:0,0:0:0:0:
144,150,8190,2,0,L|222:164,1,79.9999999999999,2|2,3:0|3:0,0:0:0:0:
335,64,9353,6,0,P|408:65|473:134,1,150,6|10,0:0|0:0,0:0:0:0:
450,212,10515,1,2,1:2:0:0:
436,311,10981,1,10,0:0:0:0:
370,275,11329,2,0,L|234:300,1,125,2|10,0:0|0:0,0:0:0:0:
151,324,12376,1,0,1:0:0:0:
58,287,12841,6,0,B|40:334|40:334|71:390,2,99.9999999999999,10|0|10,0:0|1:0|0:0,0:0:0:0:
133,222,14236,2,0,L|123:172,1,50,0|2,1:0|0:0,0:0:0:0:
102,74,14934,2,0,L|214:94,1,99.9999999999999,2|8,1:2|0:0,0:0:0:0:
281,34,15864,2,0,L|435:61,1,150,6|10,0:0|0:0,0:0:0:0:
491,7,16911,6,0,P|511:64|483:122,1,125,6|8,1:2|0:0,0:0:0:0:
422,202,17957,2,0,L|316:181,1,99.9999999999999,0|10,1:0|0:0,0:0:0:0:
288,116,18771,2,0,L|161:137,1,125,2|8,0:0|0:0,0:0:0:0:
65,143,19818,2,0,L|44:251,1,99.9999999999999,0|8,1:0|0:0,0:0:0:0:
120,311,20748,5,10,0:0:0:0:
268,291,21446,1,10,0:0:0:0:
177,173,22143,1,10,0:0:0:0:
274,194,22608,6,0,B|324:179|324:179|344:130,2,99.9999999999999,0|0|0,1:0|1:0|1:0,0:0:0:0:
247,97,24004,1,10,0:0:0:0:
321,46,24469,6,0,L|406:60,1,67.4999979400635,6|2,1:2|0:0,0:0:0:0:
464,75,25167,2,0,L|489:222,1,134.999995880127,2|0,0:0|1:0,0:0:0:0:
419,281,26329,2,0,L|430:347,2,67.4999979400635,2|2|2,1:2|0:0|0:0,0:0:0:0:
330,324,27492,1,2,0:0:0:0:
248,268,27957,2,0,L|108:292,1,134.999995880127,2|2,0:0|1:2,0:0:0:0:
95,193,29120,2,0,L|194:176,1,89.999997253418,0|0,1:0|1:0,0:0:0:0:
282,173,30050,2,0,P|355:227|351:284,1,134.999995880127,2|0,1:2|0:0,0:0:0:0:
385,359,31213,2,0,B|405:356|405:356|423:339,1,44.999998626709,2|2,0:0|1:2,0:0:0:0:
484,261,31911,6,0,L|472:194,1,67.4999979400635,0|2,1:0|0:0,0:0:0:0:
458,118,32608,2,0,L|324:94,1,134.999995880127,2|0,0:0|1:0,0:0:0:0:
228,70,33771,2,0,L|216:3,2,67.4999979400635,2|2|2,1:2|0:0|0:0,0:0:0:0:
129,60,34934,1,2,0:0:0:0:
30,49,35399,2,0,L|46:137,1,89.999997253418,2|2,0:0|0:0,0:0:0:0:
89,226,36329,2,0,L|0:241,2,89.999997253418,2|2|0,0:0|0:0|0:0,0:0:0:0:
132,314,37725,5,2,0:0:0:0:
229,331,38190,1,2,0:0:0:0:
326,346,38655,2,0,L|381:336,1,44.999998626709,2|6,0:0|0:0,0:0:0:0:
400,243,39353,6,0,B|448:256|448:256|472:299,2,99.9999999999999,6|8|0,1:2|0:0|1:0,0:0:0:0:
326,174,40748,1,10,0:0:0:0:
270,256,41213,2,0,L|220:264,1,50,0|2,1:0|0:0,0:0:0:0:
145,199,41911,2,0,L|46:216,1,99.9999999999999,2|2,0:0|0:0,0:0:0:0:
0,128,42841,2,0,L|98:110,1,99.9999999999999,2|2,0:0|0:0,0:0:0:0:
141,19,43771,2,0,P|195:62|191:148,1,150,2|8,0:0|0:0,0:0:0:0:
139,220,44934,5,2,1:2:0:0:
40,236,45399,1,10,0:0:0:0:
56,335,45864,1,2,1:2:0:0:
155,319,46329,1,10,0:0:0:0:
238,263,46795,6,0,L|354:281,1,99.9999999999999,2|8,1:2|0:0,0:0:0:0:
363,357,47608,2,0,P|409:319|408:237,1,125,2|10,3:0|0:0,0:0:0:0:
345,187,48655,6,0,L|228:205,1,99.9999999999999,0|8,1:0|0:0,0:0:0:0:
220,281,49469,2,0,P|174:242|175:160,1,125,2|10,3:0|0:0,0:0:0:0:
202,89,50515,5,0,1:0:0:0:
298,115,50981,2,0,L|387:101,1,74.9999999999999,10|2,0:0|0:0,0:0:0:0:
371,28,51678,2,0,L|272:12,1,99.9999999999999,2|6,0:0|1:2,0:0:0:0:
194,74,52608,2,0,L|204:133,2,50,2|2|2,1:2|1:2|1:2,0:0:0:0:
94,79,53539,2,0,L|35:69,1,50,2|8,1:2|0:0,0:0:0:0:
26,159,54236,6,0,L|161:179,1,134.999995880127,6|0,1:2|0:0,0:0:0:0:
238,238,55399,1,2,0:0:0:0:
155,292,55864,2,0,L|55:306,2,89.999997253418,2|2|2,1:2|0:0|0:0,0:0:0:0:
218,367,57260,2,0,B|240:356|240:356|249:328,1,44.999998626709,8|2,3:0|0:0,0:0:0:0:
275,241,57957,6,0,L|410:259,1,134.999995880127,2|0,1:2|0:0,0:0:0:0:
504,233,59120,1,2,0:0:0:0:
503,332,59585,2,0,L|367:350,1,134.999995880127,2|2,1:2|0:0,0:0:0:0:
271,366,60748,1,8,0:0:0:0:
174,343,61213,1,2,0:0:0:0:
77,318,61678,6,0,B|45:272|45:272|76:196,1,134.999995880127,2|0,1:2|0:0,0:0:0:0:
126,114,62841,1,2,0:0:0:0:
211,166,63306,2,0,L|300:153,1,89.999997253418,2|2,1:2|0:0,0:0:0:0:
368,225,64236,2,0,L|457:212,1,89.999997253418,2|2,1:2|0:0,0:0:0:0:
501,123,65167,5,6,1:2:0:0:
256,192,65399,12,2,67957,1:2:0:0:
59,51,68888,6,0,P|147:43|192:84,1,150,6|10,1:2|0:0,0:0:0:0:
247,161,70050,1,2,1:2:0:0:
345,144,70515,1,10,0:0:0:0:
419,132,70864,2,0,B|475:115|475:115|490:42,1,125,2|10,0:0|0:0,0:0:0:0:
389,37,71911,1,0,0:0:0:0:
293,49,72376,5,10,0:0:0:0:
293,49,72608,2,0,L|271:197,1,150,2|10,0:0|0:0,0:0:0:0:
173,215,73771,1,2,1:2:0:0:
75,232,74236,2,0,L|66:172,1,50,10|2,0:0|0:0,0:0:0:0:
149,124,74934,1,2,0:0:0:0:
149,124,75167,2,0,P|200:115|243:166,1,99.9999999999999,8|0,0:0|1:0,0:0:0:0:
275,239,76097,5,10,0:0:0:0:
275,239,76329,2,0,P|336:247|399:173,1,150,6|10,1:2|0:0,0:0:0:0:
366,95,77492,1,2,1:2:0:0:
268,78,77957,1,10,0:0:0:0:
194,61,78306,2,0,B|171:194,1,125,2|10,0:0|0:0,0:0:0:0:
150,281,79353,1,0,1:0:0:0:
62,232,79818,5,10,0:0:0:0:
62,232,80050,2,0,L|37:67,1,150,6|2,1:2|0:0,0:0:0:0:
121,26,81213,2,0,B|146:30|146:30|169:59,1,50,8|2,0:0|0:0,0:0:0:0:
227,125,81911,2,0,P|282:127|324:89,1,99.9999999999999,2|0,1:2|0:0,0:0:0:0:
292,8,82841,2,0,P|359:9|414:80,1,150,2|10,1:2|0:0,0:0:0:0:
256,192,83771,12,10,87492,0:0:0:0:
