osu file format v14

[General]
AudioFilename: audio.mp3
AudioLeadIn: 0
PreviewTime: 56178
Countdown: 0
SampleSet: None
StackLeniency: 0.2
Mode: 0
LetterboxInBreaks: 0
WidescreenStoryboard: 0

[Editor]
Bookmarks: 3362,7783,8414,13467,15993,21046,26099,31151,36204,41257,46309,47572,48836,50099,51362,53888,61467,66520,71572,74099,75993,76625,79151,84204,86730,89257,93046,94309,99362,101888,104414,109467,114520,119572
DistanceSpacing: 0.1
BeatDivisor: 4
GridSize: 32
TimelineZoom: 1.8

[Metadata]
Title:Catch Our Fire!
TitleUnicode:Catch Our Fire!
Artist:Yuki Nakashima
ArtistUnicode:中島由貴
Creator:Ritzeh
Version:Extra
Source:The 8th KAC
Tags:
BeatmapID:1853577
BeatmapSetID:886644

[Difficulty]
HPDrainRate:6
CircleSize:4
OverallDifficulty:9
ApproachRate:9.7
SliderMultiplier:1.9
SliderTickRate:1

[Events]
//Background and Video events
0,0,"bg-cf.png",0,0
//Break Periods
//Storyboard Layer 0 (Background)
//Storyboard Layer 1 (Fail)
//Storyboard Layer 2 (Pass)
//Storyboard Layer 3 (Foreground)
//Storyboard Sound Samples

[TimingPoints]
837,315.789473684211,4,2,0,60,1,0
2100,-100,4,2,0,60,0,0
3047,-666.666666666667,4,2,0,60,0,0
3363,-100,4,2,0,60,0,0
5573,-200,4,2,0,60,0,0
5889,-100,4,2,0,60,0,0
13152,-666.666666666667,4,2,0,60,0,0
13468,-100,4,2,0,60,0,0
15679,-666.666666666667,4,2,0,60,0,0
15994,-100,4,2,0,60,0,0
36205,-80,4,2,0,60,0,0
41258,-100,4,2,0,60,0,0
42521,-133.333333333333,4,2,0,60,0,0
43784,-100,4,2,0,60,0,0
45047,-133.333333333333,4,2,0,60,0,0
46310,-100,4,2,0,60,0,0
74731,-66.6666666666667,4,2,0,60,0,0
74968,-80,4,2,0,60,0,0
75363,-200,4,2,0,60,0,0
75994,-100,4,2,0,60,0,0
93679,-200,4,2,0,60,0,0
94152,-100,4,2,0,60,0,0
102521,-66.6666666666667,4,2,0,60,0,0
102758,-80,4,2,0,60,0,0
103152,-200,4,2,0,60,0,0
103784,-100,4,2,0,60,0,0
106626,-200,4,2,0,60,0,0
106942,-100,4,2,0,60,0,0
114205,-666.666666666667,4,2,0,60,0,0
114521,-100,4,2,0,60,0,0

[HitObjects]
256,192,837,12,0,1942,0:0:0:0:
94,11,2100,5,0,0:0:0:0:
96,28,2178,1,0,0:0:0:0:
98,46,2257,1,0,0:0:0:0:
100,63,2336,1,0,0:0:0:0:
103,81,2415,1,0,0:0:0:0:
106,98,2494,1,0,0:0:0:0:
108,116,2573,1,0,0:0:0:0:
110,134,2652,1,0,0:0:0:0:
112,152,2731,1,0,0:0:0:0:
115,169,2810,1,0,0:0:0:0:
118,187,2889,1,0,0:0:0:0:
120,204,2968,1,0,0:0:0:0:
114,220,3047,6,0,L|135:217,1,21.3749993476868
297,191,3363,5,0,0:0:0:0:
443,56,3521,1,0,0:0:0:0:
439,72,3600,2,0,P|432:104|434:132,1,47.5
367,292,3837,2,0,P|359:234|331:180,1,95
119,177,4152,1,0,0:0:0:0:
245,296,4310,2,0,L|221:252,1,47.5
28,196,4468,1,0,0:0:0:0:
332,277,4626,5,0,0:0:0:0:
88,320,4784,1,0,0:0:0:0:
84,304,4863,2,0,P|84:265|90:239,1,47.5
299,80,5100,2,0,P|290:134|254:177,1,95
249,181,5337,1,0,0:0:0:0:
229,193,5415,1,0,0:0:0:0:
207,201,5494,1,0,0:0:0:0:
148,191,5573,6,0,B|168:208|168:208|178:267,1,71.25
155,0,5889,5,0,0:0:0:0:
269,178,6047,1,0,0:0:0:0:
273,161,6126,2,0,P|272:135|267:113,1,47.5
21,182,6363,2,0,P|66:164|139:171,1,95
284,251,6679,1,0,0:0:0:0:
126,358,6837,2,0,P|134:327|136:302,1,47.5
94,141,6994,1,0,0:0:0:0:
218,313,7152,5,0,0:0:0:0:
429,249,7310,1,0,0:0:0:0:
412,246,7389,2,0,P|380:247|359:253,1,47.5
173,248,7626,2,0,P|197:238|218:220,1,47.5
352,0,7784,5,0,0:0:0:0:
334,41,7862,1,0,0:0:0:0:
335,87,7941,1,0,0:0:0:0:
358,129,8020,1,0,0:0:0:0:
380,151,8100,1,0,0:0:0:0:
388,174,8178,1,0,0:0:0:0:
391,197,8257,1,0,0:0:0:0:
386,219,8336,1,0,0:0:0:0:
376,240,8415,5,0,0:0:0:0:
358,255,8494,1,0,0:0:0:0:
335,262,8573,1,0,0:0:0:0:
311,256,8652,1,0,0:0:0:0:
293,240,8731,2,0,L|225:256,1,47.5
209,183,8889,2,0,L|158:230,1,47.5
105,173,9047,5,0,0:0:0:0:
88,216,9125,1,0,0:0:0:0:
96,263,9204,1,0,0:0:0:0:
126,299,9283,1,0,0:0:0:0:
172,313,9363,1,0,0:0:0:0:
209,284,9441,1,0,0:0:0:0:
257,279,9520,1,0,0:0:0:0:
299,299,9599,1,0,0:0:0:0:
321,341,9679,5,0,0:0:0:0:
355,186,9837,1,0,0:0:0:0:
344,206,9915,2,0,P|331:221|292:241,1,47.5
164,198,10152,1,0,0:0:0:0:
371,97,10310,5,0,0:0:0:0:
388,112,10389,2,0,P|401:144|405:174,1,47.5
232,126,10547,1,0,0:0:0:0:
224,104,10626,2,0,P|228:69|240:41,1,47.5
316,163,10784,1,0,0:0:0:0:
189,340,10942,5,0,0:0:0:0:
29,220,11100,1,0,0:0:0:0:
36,240,11179,1,0,0:0:0:0:
51,257,11258,1,0,0:0:0:0:
85,255,11337,1,0,0:0:0:0:
96,272,11416,1,0,0:0:0:0:
115,285,11495,1,0,0:0:0:0:
140,282,11573,5,0,0:0:0:0:
169,296,11652,1,0,0:0:0:0:
206,285,11731,1,0,0:0:0:0:
235,254,11810,1,0,0:0:0:0:
254,210,11889,1,0,0:0:0:0:
251,158,11968,1,0,0:0:0:0:
229,104,12047,1,0,0:0:0:0:
189,56,12126,1,0,0:0:0:0:
126,34,12205,5,0,0:0:0:0:
112,53,12284,1,0,0:0:0:0:
115,76,12363,1,0,0:0:0:0:
105,97,12442,1,0,0:0:0:0:
112,119,12521,1,0,0:0:0:0:
101,140,12600,1,0,0:0:0:0:
106,163,12679,1,0,0:0:0:0:
100,175,12758,1,0,0:0:0:0:
103,188,12837,1,0,0:0:0:0:
98,201,12915,1,0,0:0:0:0:
101,214,12994,1,0,0:0:0:0:
97,227,13073,1,0,0:0:0:0:
97,237,13152,6,0,L|123:232,1,21.3749993476868
420,198,13468,5,0,0:0:0:0:
210,49,13626,1,0,0:0:0:0:
168,302,13784,1,0,0:0:0:0:
398,157,14100,5,0,0:0:0:0:
108,49,14258,1,0,0:0:0:0:
138,355,14416,1,0,0:0:0:0:
487,134,14731,5,0,0:0:0:0:
185,253,14968,1,0,0:0:0:0:
440,123,15205,5,0,0:0:0:0:
215,215,15363,1,0,0:0:0:0:
377,115,15521,5,0,0:0:0:0:
259,164,15600,1,0,0:0:0:0:
335,182,15679,2,0,L|329:169,1,14.2499995651245
82,67,15994,6,0,P|81:124|93:176,1,95
201,290,16310,1,0,0:0:0:0:
167,113,16468,1,0,0:0:0:0:
167,113,16547,1,0,0:0:0:0:
167,113,16626,1,0,0:0:0:0:
105,256,16784,1,0,0:0:0:0:
262,127,16942,5,0,0:0:0:0:
279,222,17100,1,0,0:0:0:0:
279,222,17179,1,0,0:0:0:0:
279,222,17258,1,0,0:0:0:0:
182,197,17415,1,0,0:0:0:0:
359,67,17573,1,0,0:0:0:0:
390,296,17731,6,0,L|402:244,1,47.5
385,91,17889,2,0,P|413:167|455:219,1,142.5
240,208,18205,2,0,L|292:191,1,47.5
404,153,18363,1,0,0:0:0:0:
135,238,18521,6,0,P|182:244|240:279,1,95
325,384,18837,1,0,0:0:0:0:
301,207,18994,1,0,0:0:0:0:
301,207,19073,1,0,0:0:0:0:
301,207,19152,1,0,0:0:0:0:
340,297,19310,1,0,0:0:0:0:
216,173,19468,5,0,0:0:0:0:
248,270,19626,1,0,0:0:0:0:
248,270,19705,1,0,0:0:0:0:
248,270,19784,1,0,0:0:0:0:
355,175,19942,1,0,0:0:0:0:
116,264,20100,1,0,0:0:0:0:
148,38,20258,6,0,L|139:89,1,47.5
166,226,20415,2,0,P|161:150|195:81,1,142.5
344,85,20731,2,0,L|295:102,1,47.5
160,156,20889,1,0,0:0:0:0:
404,146,21047,6,0,P|455:166|496:201,1,95
430,312,21284,1,0,0:0:0:0:
430,295,21363,2,0,P|419:264|405:246,1,47.5
243,251,21521,2,0,P|280:279|325:295,1,95
157,255,21837,2,0,L|172:306,1,47.5
316,203,21994,2,0,L|281:170,1,47.5
243,251,22152,1,0,0:0:0:0:
147,41,22310,6,0,P|171:95|196:162,1,95
254,286,22547,1,0,0:0:0:0:
248,270,22626,2,0,P|240:247|228:220,1,47.5
12,293,22784,1,0,0:0:0:0:
100,193,22942,1,0,0:0:0:0:
100,193,23021,1,0,0:0:0:0:
100,193,23100,1,0,0:0:0:0:
140,329,23258,1,0,0:0:0:0:
351,132,23415,5,0,0:0:0:0:
327,102,23494,1,0,0:0:0:0:
294,83,23573,1,0,0:0:0:0:
191,210,23731,1,0,0:0:0:0:
352,288,23889,1,0,0:0:0:0:
327,102,24047,5,0,0:0:0:0:
319,51,24126,1,0,0:0:0:0:
294,8,24205,1,0,0:0:0:0:
233,236,24363,1,0,0:0:0:0:
434,193,24521,1,0,0:0:0:0:
100,143,24679,5,0,0:0:0:0:
150,161,24757,1,0,0:0:0:0:
203,182,24836,1,0,0:0:0:0:
253,2,24994,1,0,0:0:0:0:
30,91,25152,1,0,0:0:0:0:
185,335,25310,5,0,0:0:0:0:
201,276,25388,1,0,0:0:0:0:
220,211,25467,5,0,0:0:0:0:
45,5,25705,1,0,0:0:0:0:
9,273,25942,1,0,0:0:0:0:
244,109,26100,6,0,P|289:90|353:80,1,95
510,132,26415,1,0,0:0:0:0:
354,157,26573,1,0,0:0:0:0:
354,157,26652,1,0,0:0:0:0:
354,157,26731,1,0,0:0:0:0:
439,195,26889,1,0,0:0:0:0:
407,21,27047,5,0,0:0:0:0:
499,54,27205,1,0,0:0:0:0:
499,54,27284,1,0,0:0:0:0:
499,54,27363,1,0,0:0:0:0:
445,244,27521,1,0,0:0:0:0:
334,81,27679,1,0,0:0:0:0:
173,284,27837,6,0,L|179:237,1,47.5
227,64,27994,2,0,P|228:113|271:201,1,142.5
395,122,28310,2,0,L|343:124,1,47.5
233,135,28468,1,0,0:0:0:0:
255,369,28626,6,0,P|257:304|240:244,1,95
37,184,28942,1,0,0:0:0:0:
278,53,29100,1,0,0:0:0:0:
278,53,29179,1,0,0:0:0:0:
278,53,29258,1,0,0:0:0:0:
251,274,29415,1,0,0:0:0:0:
185,99,29573,5,0,0:0:0:0:
164,234,29731,1,0,0:0:0:0:
164,234,29810,1,0,0:0:0:0:
164,234,29889,1,0,0:0:0:0:
37,184,30047,1,0,0:0:0:0:
264,163,30205,1,0,0:0:0:0:
342,360,30363,6,0,L|356:301,1,47.5
381,105,30521,2,0,P|404:171|399:252,1,142.5
190,243,30837,2,0,L|248:225,1,47.5
405,171,30994,1,0,0:0:0:0:
227,110,31152,6,0,P|173:96|117:99,1,95
0,206,31389,1,0,0:0:0:0:
17,198,31468,2,0,P|69:185|108:189,1,47.5
237,257,31626,2,0,P|212:213|133:224,1,95
5,377,31942,6,0,L|0:330,1,47.5
175,265,32100,2,0,L|194:307,1,47.5
96,330,32258,1,0,0:0:0:0:
19,179,32415,6,0,P|13:131|20:85,1,95
243,43,32652,1,0,0:0:0:0:
224,42,32731,2,0,P|197:47|170:58,1,47.5
103,103,32889,1,0,0:0:0:0:
325,63,33047,1,0,0:0:0:0:
325,63,33126,1,0,0:0:0:0:
325,63,33205,1,0,0:0:0:0:
87,22,33363,1,0,0:0:0:0:
121,308,33521,5,0,0:0:0:0:
121,308,33600,1,0,0:0:0:0:
121,308,33679,2,0,P|140:264|173:228,1,95
402,326,33994,1,0,0:0:0:0:
402,326,34073,1,0,0:0:0:0:
402,326,34152,2,0,P|354:331|306:320,1,95
277,73,34468,1,0,0:0:0:0:
277,73,34547,1,0,0:0:0:0:
277,73,34626,2,0,P|305:111|320:158,1,95
125,156,34942,5,0,0:0:0:0:
398,236,35100,1,0,0:0:0:0:
398,236,35179,1,0,0:0:0:0:
398,236,35258,1,0,0:0:0:0:
182,66,35415,1,0,0:0:0:0:
326,301,35573,1,0,0:0:0:0:
326,301,35652,1,0,0:0:0:0:
326,301,35731,1,0,0:0:0:0:
287,34,35889,2,0,L|277:162,1,95
95,348,36205,5,0,0:0:0:0:
218,177,36363,1,0,0:0:0:0:
218,177,36442,1,0,0:0:0:0:
218,177,36521,1,0,0:0:0:0:
204,299,36679,1,0,0:0:0:0:
2,145,36837,5,0,0:0:0:0:
111,96,36994,1,0,0:0:0:0:
111,96,37073,1,0,0:0:0:0:
111,96,37152,1,0,0:0:0:0:
103,226,37310,1,0,0:0:0:0:
337,131,37468,5,0,0:0:0:0:
223,47,37626,1,0,0:0:0:0:
223,47,37705,1,0,0:0:0:0:
223,47,37784,1,0,0:0:0:0:
264,258,37942,6,0,L|235:202,1,59.375
118,12,38100,2,0,P|115:68|144:129,1,118.75
173,319,38337,2,0,P|175:262|145:202,1,118.75
30,83,38573,2,0,L|58:138,1,59.375
353,64,38731,5,0,0:0:0:0:
302,252,38889,1,0,0:0:0:0:
302,252,38968,1,0,0:0:0:0:
302,252,39047,1,0,0:0:0:0:
509,178,39205,1,0,0:0:0:0:
342,30,39363,5,0,0:0:0:0:
327,280,39521,1,0,0:0:0:0:
327,280,39600,1,0,0:0:0:0:
327,280,39679,1,0,0:0:0:0:
512,211,39837,1,0,0:0:0:0:
332,0,39994,5,0,0:0:0:0:
402,200,40152,1,0,0:0:0:0:
402,200,40231,1,0,0:0:0:0:
402,200,40310,1,0,0:0:0:0:
66,49,40468,6,0,L|99:120,1,59.375
143,290,40626,2,0,P|112:228|113:163,1,118.75
144,19,40863,2,0,P|174:80|173:145,1,118.75
218,261,41100,2,0,L|184:189,1,59.375
258,17,41258,6,0,P|326:2|405:27,1,142.5
415,47,41573,1,0,0:0:0:0:
338,202,41731,1,0,0:0:0:0:
332,74,41889,2,0,P|349:131|344:183,1,95
254,319,42205,2,0,P|305:266|401:282,1,142.5
478,371,42521,6,0,L|457:153,1,213.750008153916
258,285,43152,5,0,0:0:0:0:
258,285,43468,5,0,0:0:0:0:
317,137,43626,1,0,0:0:0:0:
0,250,43784,6,0,L|147:229,1,142.5
170,226,44100,1,0,0:0:0:0:
125,55,44258,1,0,0:0:0:0:
375,114,44415,2,0,L|244:140,1,95
142,207,44731,2,0,P|171:148|145:76,1,142.5
63,0,45047,6,0,P|72:39|72:91,1,71.2500027179719
62,221,45284,2,0,P|71:182|71:130,1,71.2500027179719
0,100,45521,1,0,0:0:0:0:
196,138,45679,2,0,L|244:123,2,35.625001358986
54,234,45994,2,0,L|185:194,1,106.875004076958
429,126,46310,5,0,0:0:0:0:
344,325,46468,1,0,0:0:0:0:
331,82,46626,5,0,0:0:0:0:
300,296,46784,1,0,0:0:0:0:
229,76,46942,5,0,0:0:0:0:
254,290,47100,1,0,0:0:0:0:
134,103,47258,5,0,0:0:0:0:
213,303,47415,2,0,L|166:272,1,47.5
54,166,47573,5,0,0:0:0:0:
69,121,47651,1,0,0:0:0:0:
99,85,47730,1,0,0:0:0:0:
140,61,47809,1,0,0:0:0:0:
187,53,47888,1,0,0:0:0:0:
233,62,47967,1,0,0:0:0:0:
274,86,48046,1,0,0:0:0:0:
291,279,48205,5,0,0:0:0:0:
305,117,48363,2,0,L|293:60,1,47.5
280,359,48521,5,0,0:0:0:0:
395,126,48679,2,0,L|368:74,1,47.5
24,37,48837,5,0,0:0:0:0:
288,110,48994,1,0,0:0:0:0:
19,145,49152,5,0,0:0:0:0:
292,147,49309,1,0,0:0:0:0:
43,249,49468,5,0,0:0:0:0:
307,180,49625,1,0,0:0:0:0:
96,341,49784,5,0,0:0:0:0:
332,200,49942,2,0,L|312:257,1,47.5
195,384,50100,5,0,0:0:0:0:
202,337,50178,1,0,0:0:0:0:
223,295,50257,1,0,0:0:0:0:
256,260,50336,1,0,0:0:0:0:
297,238,50415,1,0,0:0:0:0:
343,228,50494,1,0,0:0:0:0:
390,234,50573,1,0,0:0:0:0:
117,195,50731,5,0,0:0:0:0:
391,234,50889,1,0,0:0:0:0:
192,41,51047,1,0,0:0:0:0:
240,314,51205,1,0,0:0:0:0:
361,65,51363,5,0,0:0:0:0:
204,74,51521,1,0,0:0:0:0:
219,117,51599,1,0,0:0:0:0:
236,161,51679,2,0,L|240:221,1,47.5
37,164,51837,5,0,0:0:0:0:
297,147,51994,1,0,0:0:0:0:
282,191,52072,1,0,0:0:0:0:
267,236,52152,2,0,L|264:296,1,47.5
108,384,52310,5,0,0:0:0:0:
297,147,52468,1,0,0:0:0:0:
432,285,52626,1,0,0:0:0:0:
135,196,52784,1,0,0:0:0:0:
361,65,52942,1,0,0:0:0:0:
332,257,53100,1,0,0:0:0:0:
37,164,53258,6,0,P|101:132|176:154,1,142.5
339,128,53573,2,0,P|275:160|200:138,1,142.5
0,85,53889,5,0,0:0:0:0:
20,305,54047,1,0,0:0:0:0:
26,315,54363,5,0,0:0:0:0:
217,195,54521,1,0,0:0:0:0:
221,187,54837,5,0,0:0:0:0:
413,305,54995,1,0,0:0:0:0:
419,298,55310,5,0,0:0:0:0:
439,78,55468,1,0,0:0:0:0:
433,69,55784,5,0,0:0:0:0:
226,179,55942,1,0,0:0:0:0:
12,94,56258,5,0,0:0:0:0:
12,94,56337,1,0,0:0:0:0:
12,94,56415,1,0,0:0:0:0:
43,274,56573,2,0,L|51:222,1,47.5
88,34,56731,1,0,0:0:0:0:
134,327,56889,6,0,P|121:276|143:211,1,95
337,89,57205,2,0,P|353:139|336:205,1,95
174,157,57521,6,0,L|290:142,1,95
439,173,57837,1,0,0:0:0:0:
439,173,57915,1,0,0:0:0:0:
439,173,57994,2,0,P|377:168|330:193,1,95
303,384,58310,1,0,0:0:0:0:
344,363,58388,1,0,0:0:0:0:
377,330,58467,1,0,0:0:0:0:
397,286,58546,1,0,0:0:0:0:
398,239,58625,1,0,0:0:0:0:
198,90,58784,5,0,0:0:0:0:
198,90,58863,1,0,0:0:0:0:
198,90,58942,1,0,0:0:0:0:
273,291,59100,2,0,P|257:261|254:231,1,47.5
410,31,59258,1,0,0:0:0:0:
468,233,59415,6,0,P|428:206|386:183,1,95
187,167,59731,2,0,P|226:197|267:217,1,95
307,0,60047,6,0,L|299:103,1,95
365,332,60363,1,0,0:0:0:0:
365,332,60442,1,0,0:0:0:0:
365,332,60521,2,0,P|356:280|334:227,1,95
104,297,60837,5,0,0:0:0:0:
145,319,60915,1,0,0:0:0:0:
192,326,60994,1,0,0:0:0:0:
238,317,61073,1,0,0:0:0:0:
278,292,61152,1,0,0:0:0:0:
318,267,61231,1,0,0:0:0:0:
364,258,61310,1,0,0:0:0:0:
411,265,61389,1,0,0:0:0:0:
452,287,61467,1,0,0:0:0:0:
207,180,61626,5,0,0:0:0:0:
207,180,61705,1,0,0:0:0:0:
207,180,61784,1,0,0:0:0:0:
355,34,61942,1,0,0:0:0:0:
355,34,62021,1,0,0:0:0:0:
355,34,62100,2,0,P|336:80|323:130,1,95
261,359,62337,2,0,P|280:313|292:262,1,95
153,170,62573,1,0,0:0:0:0:
465,239,62731,5,0,0:0:0:0:
318,149,62889,1,0,0:0:0:0:
318,149,62968,1,0,0:0:0:0:
318,149,63047,1,0,0:0:0:0:
147,346,63205,5,0,0:0:0:0:
147,346,63284,1,0,0:0:0:0:
147,346,63363,2,0,P|97:340|43:304,1,95
144,226,63600,2,0,P|193:231|247:267,1,95
39,281,63837,1,0,0:0:0:0:
82,0,63994,5,0,0:0:0:0:
307,121,64152,1,0,0:0:0:0:
290,165,64230,1,0,0:0:0:0:
273,210,64309,1,0,0:0:0:0:
200,4,64468,5,0,0:0:0:0:
334,221,64626,1,0,0:0:0:0:
297,250,64704,1,0,0:0:0:0:
260,281,64783,1,0,0:0:0:0:
303,64,64942,5,0,0:0:0:0:
310,318,65100,1,0,0:0:0:0:
264,325,65178,1,0,0:0:0:0:
216,333,65257,1,0,0:0:0:0:
369,163,65415,5,0,0:0:0:0:
235,384,65573,1,0,0:0:0:0:
191,367,65651,1,0,0:0:0:0:
146,350,65730,1,0,0:0:0:0:
350,259,65889,5,0,0:0:0:0:
63,309,66047,1,0,0:0:0:0:
93,346,66126,1,0,0:0:0:0:
123,383,66204,1,0,0:0:0:0:
273,150,66363,5,0,0:0:0:0:
273,150,66442,1,0,0:0:0:0:
273,150,66521,1,0,0:0:0:0:
502,192,66679,2,0,L|456:204,1,47.5
288,259,66837,1,0,0:0:0:0:
506,302,66994,6,0,P|463:291|408:296,1,95
133,320,67310,2,0,P|176:331|231:326,1,95
290,160,67626,6,0,L|313:286,1,95
223,48,67942,1,0,0:0:0:0:
223,48,68021,1,0,0:0:0:0:
223,48,68100,2,0,P|273:29|317:31,1,95
416,233,68415,1,0,0:0:0:0:
399,189,68494,1,0,0:0:0:0:
370,151,68573,1,0,0:0:0:0:
329,126,68652,1,0,0:0:0:0:
283,111,68730,1,0,0:0:0:0:
119,233,68889,5,0,0:0:0:0:
119,233,68968,1,0,0:0:0:0:
119,233,69047,1,0,0:0:0:0:
214,18,69205,2,0,P|222:42|225:73,1,47.5
227,279,69363,1,0,0:0:0:0:
120,15,69521,6,0,P|136:64|135:114,1,95
102,362,69837,2,0,P|84:311|85:261,1,95
258,230,70152,6,0,L|140:209,1,95
10,109,70468,1,0,0:0:0:0:
10,109,70547,1,0,0:0:0:0:
10,109,70626,2,0,P|26:152|74:188,1,95
278,157,70942,5,0,0:0:0:0:
241,123,71020,1,0,0:0:0:0:
198,105,71099,1,0,0:0:0:0:
151,102,71178,1,0,0:0:0:0:
103,108,71258,1,0,0:0:0:0:
135,141,71336,1,0,0:0:0:0:
147,186,71415,1,0,0:0:0:0:
133,231,71494,1,0,0:0:0:0:
99,262,71573,1,0,0:0:0:0:
279,71,71731,5,0,0:0:0:0:
279,71,71810,1,0,0:0:0:0:
279,71,71889,1,0,0:0:0:0:
392,293,72047,1,0,0:0:0:0:
392,293,72126,1,0,0:0:0:0:
392,293,72205,2,0,P|390:239|399:186,1,95
361,26,72442,2,0,P|363:80|354:133,1,95
134,170,72679,1,0,0:0:0:0:
310,200,72837,6,0,P|261:207|200:225,1,95
147,320,73073,2,0,P|196:313|257:295,1,95
411,264,73310,1,0,0:0:0:0:
241,115,73468,1,0,0:0:0:0:
241,115,73547,1,0,0:0:0:0:
241,115,73626,1,0,0:0:0:0:
302,384,73784,1,0,0:0:0:0:
310,200,73942,1,0,0:0:0:0:
46,97,74100,5,0,0:0:0:0:
46,97,74731,6,0,P|74:145|70:239,1,142.500005435944
23,299,74968,2,0,P|50:250|123:217,1,118.75
325,207,75205,1,0,0:0:0:0:
146,191,75363,6,0,L|286:237,1,142.5
443,298,75994,6,0,P|415:250|421:186,1,95
417,202,76231,1,0,0:0:0:0:
423,194,76310,1,0,0:0:0:0:
512,23,76626,5,0,0:0:0:0:
509,34,76942,5,0,0:0:0:0:
256,0,77100,1,0,0:0:0:0:
256,11,77415,5,0,0:0:0:0:
3,45,77573,1,0,0:0:0:0:
5,55,77889,5,0,0:0:0:0:
256,160,78047,1,0,0:0:0:0:
256,173,78363,5,0,0:0:0:0:
4,279,78521,1,0,0:0:0:0:
150,287,78679,1,0,0:0:0:0:
150,287,78758,1,0,0:0:0:0:
150,287,78837,1,0,0:0:0:0:
179,267,78915,5,0,0:0:0:0:
224,254,78994,1,0,0:0:0:0:
283,250,79073,1,0,0:0:0:0:
351,267,79152,5,0,0:0:0:0:
105,186,79310,1,0,0:0:0:0:
123,183,79389,2,0,P|155:165|175:144,1,47.5
288,0,79547,1,0,0:0:0:0:
269,3,79626,2,0,P|229:27|211:75,1,95
353,164,79942,5,0,0:0:0:0:
349,145,80021,1,0,0:0:0:0:
342,129,80100,1,0,0:0:0:0:
333,112,80179,1,0,0:0:0:0:
321,98,80258,1,0,0:0:0:0:
355,93,80337,1,0,0:0:0:0:
387,82,80415,1,0,0:0:0:0:
407,55,80494,1,0,0:0:0:0:
423,25,80573,5,0,0:0:0:0:
455,60,80652,1,0,0:0:0:0:
461,108,80731,1,0,0:0:0:0:
441,150,80810,1,0,0:0:0:0:
405,181,80889,1,0,0:0:0:0:
359,189,80968,1,0,0:0:0:0:
316,168,81047,1,0,0:0:0:0:
246,178,81125,1,0,0:0:0:0:
198,228,81204,1,0,0:0:0:0:
192,298,81283,1,0,0:0:0:0:
230,357,81362,5,0,0:0:0:0:
11,275,81521,1,0,0:0:0:0:
299,115,81679,5,0,0:0:0:0:
66,46,81837,1,0,0:0:0:0:
80,57,81915,2,0,P|99:94|103:119,1,47.5
104,301,82073,1,0,0:0:0:0:
105,282,82152,2,0,P|122:244|190:214,1,95
407,300,82468,5,0,0:0:0:0:
395,284,82547,1,0,0:0:0:0:
380,272,82626,1,0,0:0:0:0:
362,265,82705,1,0,0:0:0:0:
343,261,82784,1,0,0:0:0:0:
323,260,82863,1,0,0:0:0:0:
304,263,82942,6,0,P|269:271|255:269,1,47.5
53,230,83100,1,0,0:0:0:0:
75,222,83179,2,0,P|107:206|121:190,1,47.5
127,340,83337,1,0,0:0:0:0:
142,322,83416,2,0,P|161:292|165:271,1,47.5
73,100,83573,5,0,0:0:0:0:
45,138,83651,1,0,0:0:0:0:
39,185,83730,1,0,0:0:0:0:
53,230,83809,1,0,0:0:0:0:
85,264,83888,1,0,0:0:0:0:
215,168,84047,1,0,0:0:0:0:
69,10,84205,5,0,0:0:0:0:
82,55,84283,1,0,0:0:0:0:
81,102,84362,1,0,0:0:0:0:
67,147,84441,1,0,0:0:0:0:
39,185,84521,1,0,0:0:0:0:
82,202,84601,1,0,0:0:0:0:
130,204,84680,1,0,0:0:0:0:
175,192,84759,1,0,0:0:0:0:
215,168,84837,1,0,0:0:0:0:
235,156,84915,1,0,0:0:0:0:
257,150,84994,1,0,0:0:0:0:
281,151,85073,1,0,0:0:0:0:
303,159,85152,5,0,0:0:0:0:
325,212,85230,1,0,0:0:0:0:
307,267,85309,1,0,0:0:0:0:
256,295,85388,1,0,0:0:0:0:
199,282,85467,1,0,0:0:0:0:
178,250,85547,5,0,0:0:0:0:
169,222,85626,1,0,0:0:0:0:
169,202,85705,1,0,0:0:0:0:
172,193,85784,1,0,0:0:0:0:
170,183,85863,1,0,0:0:0:0:
173,174,85942,1,0,0:0:0:0:
167,162,86021,1,0,0:0:0:0:
169,155,86100,5,0,0:0:0:0:
399,72,86258,1,0,0:0:0:0:
367,313,86415,1,0,0:0:0:0:
0,229,86731,5,0,0:0:0:0:
32,266,86810,1,0,0:0:0:0:
74,285,86889,1,0,0:0:0:0:
130,287,86968,1,0,0:0:0:0:
180,253,87047,1,0,0:0:0:0:
214,197,87126,1,0,0:0:0:0:
197,126,87205,5,0,0:0:0:0:
132,170,87284,1,0,0:0:0:0:
113,233,87363,1,0,0:0:0:0:
130,287,87442,1,0,0:0:0:0:
163,322,87521,1,0,0:0:0:0:
209,339,87600,1,0,0:0:0:0:
256,336,87679,5,0,0:0:0:0:
292,310,87758,1,0,0:0:0:0:
322,274,87837,1,0,0:0:0:0:
334,227,87916,1,0,0:0:0:0:
319,172,87995,1,0,0:0:0:0:
268,127,88074,1,0,0:0:0:0:
197,126,88152,5,0,0:0:0:0:
214,197,88231,1,0,0:0:0:0:
270,230,88310,1,0,0:0:0:0:
334,227,88389,1,0,0:0:0:0:
369,203,88468,1,0,0:0:0:0:
397,164,88547,1,0,0:0:0:0:
411,116,88626,5,0,0:0:0:0:
170,33,88942,1,0,0:0:0:0:
396,81,89258,5,0,0:0:0:0:
369,120,89336,1,0,0:0:0:0:
350,164,89415,1,0,0:0:0:0:
342,210,89494,1,0,0:0:0:0:
344,258,89573,1,0,0:0:0:0:
356,303,89652,1,0,0:0:0:0:
377,346,89732,5,0,0:0:0:0:
339,318,89810,1,0,0:0:0:0:
295,299,89889,1,0,0:0:0:0:
249,291,89968,1,0,0:0:0:0:
201,293,90047,1,0,0:0:0:0:
155,305,90126,1,0,0:0:0:0:
113,327,90206,5,0,0:0:0:0:
141,288,90284,1,0,0:0:0:0:
159,244,90363,1,0,0:0:0:0:
168,198,90442,1,0,0:0:0:0:
166,150,90521,1,0,0:0:0:0:
154,105,90600,1,0,0:0:0:0:
132,62,90679,5,0,0:0:0:0:
171,89,90757,1,0,0:0:0:0:
215,108,90836,1,0,0:0:0:0:
261,116,90915,1,0,0:0:0:0:
309,114,90994,1,0,0:0:0:0:
355,102,91073,1,0,0:0:0:0:
397,80,91152,1,0,0:0:0:0:
256,192,91231,12,0,92889,0:0:0:0:
41,107,93047,5,0,0:0:0:0:
84,88,93125,1,0,0:0:0:0:
131,79,93204,1,0,0:0:0:0:
178,82,93283,1,0,0:0:0:0:
163,144,93363,5,0,0:0:0:0:
200,114,93442,2,0,P|236:100|272:98,1,47.5
207,224,93600,5,0,0:0:0:0:
234,185,93679,2,0,P|263:169|313:169,1,71.25
503,292,93994,1,0,0:0:0:0:
310,384,94152,5,0,0:0:0:0:
310,384,94231,1,0,0:0:0:0:
310,384,94310,1,0,0:0:0:0:
443,196,94468,2,0,P|438:233|425:263,1,47.5
236,329,94626,1,0,0:0:0:0:
342,122,94784,6,0,P|371:178|360:223,1,95
134,269,95100,2,0,P|105:213|116:168,1,95
284,186,95415,2,0,L|175:209,1,95
156,78,95731,1,0,0:0:0:0:
156,78,95810,1,0,0:0:0:0:
156,78,95889,2,0,L|248:58,1,95
273,312,96205,1,0,0:0:0:0:
231,288,96283,1,0,0:0:0:0:
202,251,96362,1,0,0:0:0:0:
191,205,96441,1,0,0:0:0:0:
199,158,96520,1,0,0:0:0:0:
362,45,96679,5,0,0:0:0:0:
362,45,96758,1,0,0:0:0:0:
362,45,96837,1,0,0:0:0:0:
281,235,96994,2,0,P|265:217|258:194,1,47.5
498,148,97152,1,0,0:0:0:0:
282,10,97310,6,0,P|279:69|303:107,1,95
368,272,97626,2,0,P|371:213|347:175,1,95
172,235,97942,2,0,L|282:182,1,95
481,60,98258,1,0,0:0:0:0:
481,60,98337,1,0,0:0:0:0:
481,60,98415,2,0,L|395:101,1,95
354,300,98731,5,0,0:0:0:0:
381,262,98809,1,0,0:0:0:0:
385,215,98888,1,0,0:0:0:0:
365,173,98967,1,0,0:0:0:0:
325,147,99047,1,0,0:0:0:0:
319,100,99125,1,0,0:0:0:0:
290,62,99204,1,0,0:0:0:0:
246,45,99283,1,0,0:0:0:0:
199,52,99362,5,0,0:0:0:0:
54,240,99521,1,0,0:0:0:0:
54,240,99600,1,0,0:0:0:0:
54,240,99679,1,0,0:0:0:0:
233,152,99837,1,0,0:0:0:0:
233,152,99915,1,0,0:0:0:0:
233,152,99994,2,0,P|277:170|317:197,1,95
470,180,100231,2,0,P|426:162|387:136,1,95
282,43,100468,1,0,0:0:0:0:
271,279,100626,6,0,P|289:235|316:196,1,95
431,52,100863,2,0,P|413:96|387:136,1,95
196,232,101100,1,0,0:0:0:0:
509,100,101258,1,0,0:0:0:0:
509,100,101337,1,0,0:0:0:0:
509,100,101415,1,0,0:0:0:0:
414,285,101573,1,0,0:0:0:0:
196,232,101731,1,0,0:0:0:0:
509,100,101889,5,0,0:0:0:0:
509,100,102363,5,0,0:0:0:0:
509,100,102442,1,0,0:0:0:0:
509,100,102521,2,0,P|437:110|370:81,1,142.500005435944
310,31,102758,2,0,P|363:69|388:140,1,118.75
350,323,102994,1,0,0:0:0:0:
418,152,103152,6,0,B|390:219|390:219|338:280,1,142.5
166,337,103784,5,0,0:0:0:0:
145,323,103863,1,0,0:0:0:0:
130,298,103942,1,0,0:0:0:0:
129,265,104021,1,0,0:0:0:0:
148,232,104100,1,0,0:0:0:0:
188,217,104179,1,0,0:0:0:0:
232,235,104258,2,0,P|247:255|257:293,1,47.5
49,361,104415,5,0,0:0:0:0:
87,191,104573,1,0,0:0:0:0:
96,210,104652,2,0,P|103:239|103:277,1,47.5
0,65,104889,2,0,P|44:81|91:90,1,95
251,31,105205,1,0,0:0:0:0:
146,206,105363,2,0,P|139:177|139:139,1,47.5
301,101,105521,1,0,0:0:0:0:
91,90,105679,5,0,0:0:0:0:
217,199,105837,1,0,0:0:0:0:
238,201,105915,2,0,L|302:180,1,47.5
479,158,106152,2,0,P|437:159|373:174,1,95
365,190,106389,1,0,0:0:0:0:
352,215,106468,1,0,0:0:0:0:
348,243,106547,1,0,0:0:0:0:
343,334,106626,6,0,B|360:306|360:306|367:269,1,71.25
210,301,106942,5,0,0:0:0:0:
458,184,107100,1,0,0:0:0:0:
431,179,107179,2,0,P|404:185|385:200,1,47.5
459,347,107415,2,0,P|442:303|447:228,1,95
512,128,107731,1,0,0:0:0:0:
371,28,107889,2,0,P|393:46|403:65,1,47.5
440,255,108047,1,0,0:0:0:0:
162,199,108205,5,0,0:0:0:0:
303,118,108363,1,0,0:0:0:0:
317,142,108442,2,0,P|325:167|331:199,1,47.5
195,361,108679,2,0,P|187:336|181:304,1,47.5
200,173,108837,5,0,0:0:0:0:
219,120,108915,1,0,0:0:0:0:
201,70,108994,1,0,0:0:0:0:
160,45,109073,1,0,0:0:0:0:
121,45,109152,1,0,0:0:0:0:
90,59,109231,1,0,0:0:0:0:
71,81,109310,1,0,0:0:0:0:
62,103,109389,1,0,0:0:0:0:
60,126,109468,5,0,0:0:0:0:
63,147,109547,1,0,0:0:0:0:
72,166,109626,1,0,0:0:0:0:
85,182,109705,1,0,0:0:0:0:
114,206,109784,6,0,L|165:222,1,47.5
217,165,109942,2,0,L|264:162,1,47.5
291,86,110100,5,0,0:0:0:0:
335,73,110178,1,0,0:0:0:0:
379,89,110257,1,0,0:0:0:0:
404,128,110336,1,0,0:0:0:0:
401,175,110415,1,0,0:0:0:0:
393,197,110493,1,0,0:0:0:0:
395,220,110572,1,0,0:0:0:0:
405,242,110651,1,0,0:0:0:0:
423,257,110730,5,0,0:0:0:0:
247,312,110889,1,0,0:0:0:0:
267,302,110968,2,0,P|295:292|329:295,1,47.5
499,310,111205,1,0,0:0:0:0:
316,375,111363,5,0,0:0:0:0:
339,369,111442,2,0,P|373:354|399:338,1,47.5
489,231,111600,1,0,0:0:0:0:
466,237,111679,2,0,P|432:252|406:268,1,47.5
232,384,111837,1,0,0:0:0:0:
376,165,111994,5,0,0:0:0:0:
238,81,112152,1,0,0:0:0:0:
216,92,112230,1,0,0:0:0:0:
200,107,112310,1,0,0:0:0:0:
172,145,112388,1,0,0:0:0:0:
161,191,112467,1,0,0:0:0:0:
166,238,112546,1,0,0:0:0:0:
187,280,112626,5,0,0:0:0:0:
237,248,112704,1,0,0:0:0:0:
294,234,112783,1,0,0:0:0:0:
353,237,112862,1,0,0:0:0:0:
409,258,112942,1,0,0:0:0:0:
451,212,113020,1,0,0:0:0:0:
449,150,113099,1,0,0:0:0:0:
404,107,113178,1,0,0:0:0:0:
341,108,113257,5,0,0:0:0:0:
301,134,113337,1,0,0:0:0:0:
291,170,113415,1,0,0:0:0:0:
291,198,113494,1,0,0:0:0:0:
295,221,113573,1,0,0:0:0:0:
306,240,113652,1,0,0:0:0:0:
320,250,113731,1,0,0:0:0:0:
334,259,113810,1,0,0:0:0:0:
347,262,113889,1,0,0:0:0:0:
338,269,113968,1,0,0:0:0:0:
330,278,114047,1,0,0:0:0:0:
323,288,114126,1,0,0:0:0:0:
315,300,114205,6,0,L|312:317,1,14.2499995651245
83,71,114521,5,0,0:0:0:0:
403,34,114679,1,0,0:0:0:0:
271,329,114837,1,0,0:0:0:0:
135,45,115152,5,0,0:0:0:0:
444,115,115310,1,0,0:0:0:0:
220,349,115468,1,0,0:0:0:0:
315,0,115784,5,0,0:0:0:0:
400,304,116021,1,0,0:0:0:0:
264,71,116258,5,0,0:0:0:0:
321,276,116415,1,0,0:0:0:0:
467,121,116573,1,0,0:0:0:0:
467,121,116652,1,0,0:0:0:0:
467,121,116731,1,0,0:0:0:0:
236,197,116889,1,0,0:0:0:0:
36,33,117047,5,0,0:0:0:0:
33,42,117363,5,0,0:0:0:0:
59,299,117521,1,0,0:0:0:0:
55,310,117837,5,0,0:0:0:0:
265,159,117995,1,0,0:0:0:0:
261,168,118310,5,0,0:0:0:0:
496,274,118468,1,0,0:0:0:0:
492,284,118784,5,0,0:0:0:0:
467,28,118942,1,0,0:0:0:0:
271,338,119258,5,0,0:0:0:0:
