osu file format v14

[General]
AudioFilename: audio.ogg
AudioLeadIn: 0
PreviewTime: 64522
Countdown: 0
SampleSet: Soft
StackLeniency: 0.7
Mode: 0
LetterboxInBreaks: 0
WidescreenStoryboard: 0

[Editor]
DistanceSpacing: 1.1
BeatDivisor: 4
GridSize: 16
TimelineZoom: 1

[Metadata]
Title:Yukihanasou
TitleUnicode:ユキハナソウ
Artist:Yuki Kira
ArtistUnicode:綺良雪
Creator:Misure
Version:Sakura's Insane
Source:キスからはじめるエゴイズム
Tags:Wanpachi pnky Sakura Blossom Lasse Gorou Cycopton kiss kara hajimeru egoism starting with スミレ smile 皐月 satsuki visual novel eroge japanese pop jpop rock
BeatmapID:4031707
BeatmapSetID:1898570

[Difficulty]
HPDrainRate:4.5
CircleSize:4
OverallDifficulty:8.5
ApproachRate:9
SliderMultiplier:1.8
SliderTickRate:1

[Events]
//Background and Video events
0,0,"top_bg.jpg",0,0
//Break Periods
//Storyboard Layer 0 (Background)
//Storyboard Layer 1 (Fail)
//Storyboard Layer 2 (Pass)
//Storyboard Layer 3 (Foreground)
//Storyboard Layer 4 (Overlay)
//Storyboard Sound Samples

[TimingPoints]
2002,480.000000000001,4,2,1,40,1,0
2002,-142.857142857143,4,2,1,40,0,0
9682,-142.857142857143,4,2,1,50,0,0
10162,-125,4,2,1,50,0,0
16642,-125,4,2,1,60,0,0
16882,-125,4,2,1,70,0,0
17362,-100,4,2,1,75,0,0
32242,-100,4,2,1,70,0,0
34642,-100,4,2,1,50,0,0
35122,-125,4,2,1,50,0,0
42322,-111.111111111111,4,2,1,50,0,0
50002,-100,4,2,1,60,0,0
55762,-100,4,2,1,70,0,0
58162,-100,4,2,1,60,0,0
61522,-100,4,2,1,70,0,0
63682,-100,4,2,1,80,0,0
64642,-100,4,2,1,60,0,0
64882,-83.3333333333333,4,2,1,60,0,0
65362,-83.3333333333333,4,2,1,80,0,0
71842,-41.6666666666667,4,2,1,80,0,0
73282,-83.3333333333333,4,2,1,80,0,0
79042,-41.6666666666667,4,2,1,80,0,0
80722,-83.3333333333333,4,2,1,80,0,0
87202,-41.6666666666667,4,2,1,80,0,0
88642,-83.3333333333333,4,2,1,80,0,0
96082,-100,4,2,1,75,0,0
110962,-100,4,2,1,70,0,0
113842,-100,4,2,1,60,0,0
114322,-100,4,2,1,55,0,0
115282,-100,4,2,1,50,0,0
116242,-100,4,2,1,45,0,0
117202,-100,4,2,1,40,0,0
118162,-100,4,2,1,35,0,0
119122,-100,4,2,1,30,0,0
120082,-100,4,2,1,25,0,0
121042,-100,4,2,1,20,0,0
122002,-100,4,2,1,15,0,0
122962,-100,4,2,1,10,0,0

[Colours]
Combo1 : 191,130,242
Combo2 : 208,206,206
Combo3 : 251,130,193
Combo4 : 94,201,247
Combo5 : 242,85,235
Combo6 : 112,235,146

[HitObjects]
59,200,2002,6,0,B|98:184|123:213|105:209|140:247|183:219,1,125.999996154785,2|0,0:1|0:0,0:0:0:0:
238,172,2722,1,0,0:0:0:0:
308,79,2962,2,0,P|315:142|327:202,2,94.499997116089,2|2|0,0:0|0:0|0:0,0:0:0:0:
444,24,3922,6,0,P|423:104|420:159,1,125.999996154785,2|0,0:1|0:0,0:0:0:0:
473,210,4642,1,0,0:0:0:0:
406,324,4882,2,0,P|393:288|390:216,2,94.499997116089,2|2|0,0:0|0:0|0:0,0:0:0:0:
298,377,5842,6,0,B|267:385|239:355|251:354|233:326|178:340,1,125.999996154785,2|0,0:1|0:0,0:0:0:0:
119,286,6562,1,0,0:0:0:0:
7,379,6802,2,0,P|20:319|41:271,2,94.499997116089,2|2|0,0:0|0:0|0:0,0:0:0:0:
1,211,7762,6,0,P|56:168|121:180,1,125.999996154785,2|0,0:1|0:0,0:0:0:0:
172,227,8482,2,0,P|184:263|187:283,1,31.4999990386963,0|2,0:0|0:0,0:0:0:0:
171,296,8722,2,0,P|235:307|304:325,1,125.999996154785
431,366,9442,2,0,P|456:361|481:350,1,31.4999990386963
485,335,9682,5,0,3:0:0:0:
495,239,10162,2,0,P|479:192|476:150,1,72,0|2,3:0|0:0,0:0:0:0:
508,44,10642,2,0,P|442:52|391:-3,1,144,0|0,3:0|3:0,0:0:0:0:
319,37,11362,1,2,0:0:0:0:
182,4,11602,6,0,P|132:6|156:96,1,144,0|0,3:0|3:0,0:0:0:0:
236,65,12202,1,0,0:0:0:0:
236,65,12322,2,0,P|245:96|255:115,1,36,2|0,0:0|0:0,0:0:0:0:
288,111,12562,6,0,P|278:180|269:202,1,72,0|2,3:0|0:0,0:0:0:0:
240,259,12922,1,0,0:0:0:0:
240,259,13042,2,0,P|249:314|265:354,1,72,0|2,3:0|0:0,0:0:0:0:
374,370,13522,6,0,P|419:340|415:233,1,144,0|0,3:0|3:0,0:0:0:0:
449,249,14482,2,0,P|403:220|373:214,1,72,0|2,3:0|0:0,0:0:0:0:
432,148,14842,1,0,0:0:0:0:
432,148,14962,2,0,P|445:90|448:52,1,72,0|2,3:0|0:0,0:0:0:0:
256,311,15442,5,0,1:0:0:0:
209,307,16882,2,0,P|181:310|151:307,1,36,2|0,1:2|1:0,0:0:0:0:
41,222,17122,2,0,P|72:234|96:248,1,36,0|0,1:0|1:0,0:0:0:0:
133,384,17362,5,4,3:1:0:0:
293,316,17602,1,2,3:2:0:0:
217,207,17842,2,0,P|215:251|186:305,1,90,8|2,0:0|0:0,0:0:0:0:
132,228,18202,2,0,P|135:181|160:135,1,90,2|0,3:2|3:0,0:0:0:0:
237,122,18562,2,0,P|285:118|340:80,2,90,2|8|2,3:2|0:0|0:0,0:0:0:0:
259,38,19162,1,0,0:0:0:0:
255,29,19282,5,2,3:0:0:0:
439,1,19522,1,2,3:2:0:0:
512,145,19762,2,0,P|485:192|486:243,1,90,8|2,0:0|0:0,0:0:0:0:
499,348,20122,2,0,P|450:299|415:289,1,90,2|0,3:2|3:0,0:0:0:0:
406,194,20482,1,2,3:2:0:0:
406,194,20602,1,0,0:0:0:0:
406,194,20722,2,0,P|332:207|309:230,1,90,8|2,0:0|0:0,0:0:0:0:
290,286,21082,1,8,0:0:0:0:
285,296,21202,5,2,3:0:0:0:
136,384,21442,1,2,3:2:0:0:
174,185,21682,2,0,P|198:230|204:282,1,90,8|2,0:0|0:0,0:0:0:0:
224,352,22042,2,0,P|271:379|323:372,1,90,2|0,3:2|3:0,0:0:0:0:
388,384,22402,2,0,P|437:362|487:364,2,90,2|8|2,3:2|0:0|0:0,0:0:0:0:
372,300,23002,1,0,0:0:0:0:
367,291,23122,5,2,3:0:0:0:
488,210,23362,1,2,3:2:0:0:
388,135,23602,2,0,P|370:79|370:32,1,90,12|2,0:0|0:0,0:0:0:0:
438,0,23962,1,4,3:1:0:0:
270,95,24202,1,0,3:0:0:0:
260,101,24322,6,0,P|216:93|196:81,1,45,2|4,3:2|3:0,0:0:0:0:
375,138,24562,2,0,P|409:124|430:123,1,45,0|0,1:0|1:0,0:0:0:0:
256,209,24802,2,0,P|215:232|194:234,1,45,0|0,1:0|1:0,0:0:0:0:
106,126,25042,5,4,3:1:0:0:
193,5,25282,1,2,3:2:0:0:
0,71,25522,2,0,P|27:133|29:185,1,90,8|2,0:0|0:0,0:0:0:0:
89,207,25882,2,0,P|68:269|70:312,1,90,2|0,3:2|3:0,0:0:0:0:
91,368,26242,2,0,P|47:370|6:341,2,90,2|8|2,3:2|0:0|0:0,0:0:0:0:
170,384,26842,1,0,0:0:0:0:
175,373,26962,5,2,3:0:0:0:
325,319,27202,1,2,3:2:0:0:
508,379,27442,2,0,P|467:351|438:291,1,90,8|2,0:0|0:0,0:0:0:0:
502,261,27802,2,0,P|484:214|488:159,1,90,2|0,3:2|3:0,0:0:0:0:
498,97,28162,2,0,P|454:87|430:89,1,45,2|2,3:2|0:0,0:0:0:0:
401,199,28402,1,12,0:0:0:0:
510,18,28642,1,2,0:0:0:0:
509,7,28762,1,8,0:0:0:0:
503,0,28882,5,4,3:1:0:0:
354,52,29122,1,2,3:2:0:0:
364,226,29362,2,0,P|392:287|391:345,1,90,8|2,0:0|0:0,0:0:0:0:
340,384,29722,2,0,P|311:325|313:272,1,90,4|0,3:1|3:0,0:0:0:0:
241,257,30082,2,0,P|181:280|148:274,2,90,2|8|2,3:2|0:0|0:0,0:0:0:0:
180,200,30682,1,0,3:0:0:0:
176,190,30802,5,4,3:1:0:0:
325,121,31042,2,0,P|313:161|296:183,1,45,0|8,0:0|0:0,0:0:0:0:
310,36,31282,2,0,P|360:4|413:1,1,90,2|4,0:0|0:0,0:0:0:0:
239,121,31642,2,0,P|185:96|140:49,1,90,4|0,3:1|1:0,0:0:0:0:
59,10,32002,2,0,P|28:18|11:27,1,45,0|0,1:0|0:0,0:0:0:0:
232,33,32242,1,0,3:0:0:0:
287,36,32362,1,0,3:0:0:0:
329,1,32482,2,0,P|362:23|384:26,1,45,0|0,1:0|1:0,0:0:0:0:
154,109,32722,6,0,P|134:171|132:230,1,90,6|0,1:2|0:0,0:0:0:0:
24,242,33082,1,2,3:2:0:0:
15,234,33202,2,0,P|21:191|31:173,1,45,2|0,0:0|3:0,0:0:0:0:
75,337,33442,1,10,0:0:0:0:
141,303,33562,6,0,P|191:312|242:340,1,90,4|0,0:1|1:0,0:0:0:0:
280,384,33922,2,0,P|326:369|349:371,1,45,0|0,1:0|3:0,0:0:0:0:
369,244,34162,2,0,P|435:277|481:277,1,90,4|0,3:0|3:0,0:0:0:0:
512,233,34522,1,0,3:0:0:0:
507,224,34642,5,6,0:0:0:0:
489,146,35122,2,0,P|495:104|503:72,1,72,0|2,0:0|0:0,0:0:0:0:
404,6,35602,2,0,P|341:15|319:38,1,72,2|2,0:1|0:0,0:0:0:0:
280,70,35962,1,0,0:0:0:0:
253,147,36082,2,0,P|263:201|277:234,1,72,0|0,1:0|0:0,0:0:0:0:
255,350,36562,5,2,0:1:0:0:
107,367,36802,2,0,P|60:362|34:325,1,72,0|0,3:0|0:0,0:0:0:0:
0,350,37162,2,0,P|11:269|20:225,1,108,0|0,3:0|3:0,0:0:0:0:
123,169,37762,1,2,0:0:0:0:
123,169,37882,1,0,0:0:0:0:
190,122,38002,2,0,P|208:166|188:202,1,72,0|0,1:0|0:0,0:0:0:0:
43,373,38482,6,0,P|35:313|96:251,1,144,0|0,3:0|0:0,0:0:0:0:
83,76,39202,2,0,P|89:108|94:126,1,36,2|0,0:0|0:0,0:0:0:0:
123,123,39442,2,0,P|135:185|144:208,1,72,2|2,0:1|0:0,0:0:0:0:
217,216,39802,1,0,0:0:0:0:
217,216,39922,2,0,P|237:169|241:134,1,72,0|0,1:0|0:0,0:0:0:0:
255,8,40402,5,2,0:1:0:0:
431,74,40642,2,0,P|380:47|348:49,1,72,0|0,3:0|0:0,0:0:0:0:
337,32,41002,2,0,P|314:128|314:162,1,108,0|0,3:0|3:0,0:0:0:0:
511,222,41842,1,0,1:0:0:0:
453,293,42082,2,0,P|461:326|467:345,1,36
441,373,42322,6,0,P|383:329|291:349,1,161.999995056153,0|2,3:0|3:1,0:0:0:0:
140,281,43042,1,2,0:0:0:0:
216,374,43282,2,0,P|224:308|232:282,1,80.9999975280763,0|2,3:0|0:0,0:0:0:0:
285,240,43642,1,0,0:0:0:0:
366,284,43762,2,0,P|363:228|351:186,1,80.9999975280763,0|0,1:0|0:0,0:0:0:0:
163,215,44242,6,0,B|129:245|84:212|98:208|55:171|-5:232,1,161.999995056153,0|2,3:0|3:1,0:0:0:0:
0,234,44842,1,0,0:0:0:0:
0,234,44962,2,0,P|7:270|14:286,1,40.4999987640381,2|0,0:0|0:0,0:0:0:0:
118,340,45202,2,0,P|127:308|128:286,2,40.4999987640381,0|0|2,3:0|0:0|0:0,0:0:0:0:
228,292,45562,1,0,0:0:0:0:
214,328,45682,2,0,P|243:377|290:383,1,80.9999975280763,0|0,1:0|0:0,0:0:0:0:
488,326,46162,6,0,P|512:280|499:240,1,80.9999975280763,0|0,3:0|0:0,0:0:0:0:
406,74,46642,2,0,P|418:149|427:202,1,121.499996292114,2|0,3:1|0:0,0:0:0:0:
491,87,47122,2,0,P|486:34|449:6,1,80.9999975280763,0|2,3:0|0:0,0:0:0:0:
324,54,47482,1,0,0:0:0:0:
345,133,47602,2,0,P|387:159|433:149,1,80.9999975280763,0|0,1:0|0:0,0:0:0:0:
186,26,48082,6,0,P|184:57|173:86,1,40.4999987640381,0|0,3:0|0:0,0:0:0:0:
51,140,48322,2,0,P|38:104|38:88,1,40.4999987640381,0|0,1:0|0:0,0:0:0:0:
260,96,48562,2,0,P|299:108|317:115,1,40.4999987640381,0|0,1:0|0:0,0:0:0:0:
445,23,48802,1,0,1:0:0:0:
445,23,48922,1,0,1:0:0:0:
445,23,49042,5,0,3:0:0:0:
470,71,49162,1,0,3:0:0:0:
430,117,49282,2,0,P|421:148|416:180,1,40.4999987640381,0|0,1:0|0:0,0:0:0:0:
346,241,49522,2,0,P|332:208|330:190,1,40.4999987640381,0|0,1:0|1:0,0:0:0:0:
485,306,49762,2,0,P|502:275|510:265,1,40.4999987640381,0|4,3:0|3:0,0:0:0:0:
259,276,50002,6,0,P|211:228|167:225,1,90,6|0,1:2|0:0,0:0:0:0:
156,384,50362,2,0,P|220:380|254:341,1,90,0|0,3:0|0:0,0:0:0:0:
108,271,50722,2,0,P|99:314|106:336,1,45,0|0,3:0|3:0,0:0:0:0:
182,304,50962,5,0,1:0:0:0:
191,315,51442,2,0,P|206:262|210:219,1,90,0|2,0:0|0:0,0:0:0:0:
136,52,51922,6,0,P|71:32|31:50,1,90,6|0,1:2|0:0,0:0:0:0:
95,196,52282,2,0,P|150:162|162:112,1,90,0|0,3:0|0:0,0:0:0:0:
0,119,52642,2,0,P|12:161|29:177,1,45,0|0,3:0|3:0,0:0:0:0:
81,113,52882,5,0,1:0:0:0:
89,104,53122,2,0,P|97:71|99:56,3,30,4|0|0|0,3:0|3:0|3:0|3:0,0:0:0:0:
165,34,53602,1,2,0:0:0:0:
319,217,53842,6,0,P|378:202|429:202,1,90,6|0,1:2|0:0,0:0:0:0:
471,132,54202,2,0,P|486:198|485:233,1,90,0|0,3:0|0:0,0:0:0:0:
485,297,54562,2,0,P|453:292|433:276,1,45,0|0,3:0|3:0,0:0:0:0:
351,119,54802,5,0,1:0:0:0:
319,312,55042,1,0,3:0:0:0:
178,190,55282,1,0,1:0:0:0:
373,200,55522,2,0,P|367:233|367:252,1,45,4|0,0:0|0:0,0:0:0:0:
188,361,55762,6,0,P|179:288|163:250,1,90,6|0,1:0|3:0,0:0:0:0:
59,140,56122,1,0,0:0:0:0:
1,201,56242,2,0,P|12:235|12:256,1,45,2|2,3:2|3:2,0:0:0:0:
216,270,56482,2,0,P|212:247|204:226,1,45,0|0,0:0|3:0,0:0:0:0:
55,340,56722,6,0,P|91:289|72:232,1,90,0|4,1:0|3:0,0:0:0:0:
101,159,57082,1,0,0:0:0:0:
181,140,57202,2,0,P|191:104|189:85,1,45,0|0,1:0|3:0,0:0:0:0:
9,5,57442,2,0,P|-1:41|1:60,1,45,0|0,3:0|3:0,0:0:0:0:
256,175,57682,5,4,1:2:0:0:
261,194,58162,5,0,3:0:0:0:
249,308,58402,1,2,0:0:0:0:
351,177,58642,5,0,3:0:0:0:
390,317,58882,1,0,0:0:0:0:
454,126,59122,5,0,3:0:0:0:
505,340,59362,1,0,0:0:0:0:
327,85,59602,5,0,1:0:0:0:
173,169,59842,1,2,0:0:0:0:
305,326,60082,5,0,3:0:0:0:
83,158,60322,1,0,1:0:0:0:
359,0,60562,5,0,1:0:0:0:
404,38,60682,1,0,1:0:0:0:
417,95,60802,1,0,3:0:0:0:
394,149,60922,1,0,3:0:0:0:
323,238,61042,5,0,1:0:0:0:
257,248,61162,1,0,3:0:0:0:
195,222,61282,1,0,3:0:0:0:
157,167,61402,1,4,3:0:0:0:
154,101,61522,1,6,1:2:0:0:
12,292,61762,5,2,0:0:0:0:
12,292,61882,1,0,0:0:0:0:
12,292,62002,2,0,P|75:301|117:312,1,90,2|2,3:2|1:2,0:0:0:0:
290,382,62362,2,0,P|284:323|272:277,1,90,2|2,1:2|1:2,0:0:0:0:
161,223,62722,2,0,P|170:269|181:296,1,45,2|0,1:2|3:0,0:0:0:0:
365,343,62962,5,0,1:0:0:0:
442,365,63082,1,2,3:2:0:0:
492,306,63202,1,0,1:0:0:0:
505,311,63442,5,0,3:0:0:0:
207,26,63682,6,0,P|219:75|221:99,1,45,6|0,1:2|0:0,0:0:0:0:
318,294,63922,2,0,P|311:272|306:250,1,45,0|0,1:0|1:0,0:0:0:0:
281,125,64162,5,0,1:0:0:0:
239,199,64282,1,6,1:2:0:0:
38,337,64642,6,0,P|43:311|44:299,2,30,4|0|0,3:0|3:0|3:0,0:0:0:0:
76,349,64882,6,0,P|132:365|212:285,1,161.999995056153,2|0,3:2|0:0,0:0:0:0:
236,115,65362,6,0,P|226:78|225:42,1,53.9999983520508,4|0,1:0|0:0,0:0:0:0:
113,6,65602,2,0,P|161:2|191:-7,1,53.9999983520508,2|0,3:2|0:0,0:0:0:0:
334,82,65842,2,0,P|334:39|272:-2,1,107.999996704102,10|0,0:1|0:0,0:0:0:0:
254,116,66202,6,0,P|228:203|229:249,1,107.999996704102,2|0,3:2|1:0,0:0:0:0:
311,302,66562,2,0,P|350:300|376:286,1,53.9999983520508,0|0,3:0|0:0,0:0:0:0:
140,198,66802,1,10,0:1:0:0:
235,352,67042,1,2,0:0:0:0:
184,383,67162,1,0,3:0:0:0:
146,339,67282,6,0,P|100:333|79:308,1,53.9999983520508,0|0,1:0|3:0,0:0:0:0:
307,240,67522,2,0,P|294:294|292:319,1,53.9999983520508,2|0,3:2|0:0,0:0:0:0:
178,262,67762,2,0,P|129:232|140:157,1,107.999996704102,10|0,0:1|0:0,0:0:0:0:
200,32,68122,6,0,P|119:45|76:44,1,107.999996704102,2|0,3:2|1:0,0:0:0:0:
0,25,68482,2,0,P|9:62|27:80,1,53.9999983520508,0|0,3:0|0:0,0:0:0:0:
205,183,68722,1,10,0:1:0:0:
303,2,68962,1,2,3:2:0:0:
342,32,69082,1,0,3:0:0:0:
395,25,69202,6,0,P|408:69|399:100,1,53.9999983520508,0|0,1:0|0:0,0:0:0:0:
210,81,69442,2,0,P|253:78|284:68,1,53.9999983520508,2|0,3:2|0:0,0:0:0:0:
326,225,69682,2,0,P|332:129|340:86,1,107.999996704102,10|0,0:1|0:0,0:0:0:0:
178,230,70042,6,0,P|213:278|283:270,1,107.999996704102,2|0,3:2|1:0,0:0:0:0:
316,353,70402,2,0,P|344:336|351:306,1,53.9999983520508,0|0,3:0|0:0,0:0:0:0:
455,369,70642,2,0,P|468:315|407:254,1,107.999996704102,10|2,0:1|0:0,0:0:0:0:
466,189,71002,1,0,3:0:0:0:
503,108,71122,6,0,P|476:211|460:219,1,107.999996704102,0|2,1:0|3:2,0:0:0:0:
355,284,71482,1,0,0:0:0:0:
334,202,71602,2,0,P|379:208|397:216,1,53.9999983520508,10|0,0:1|0:0,0:0:0:0:
176,345,71842,6,0,B|196:369|233:372|233:372|262:334|250:271,1,107.999996704102,4|0,0:0|0:0,0:0:0:0:
167,201,72082,1,0,1:0:0:0:
159,246,72202,1,0,3:0:0:0:
111,121,72322,2,0,B|81:114|49:133|49:133|48:180|95:224,1,107.999996704102,4|0,0:1|0:0,0:0:0:0:
294,264,72562,2,0,B|323:252|338:218|338:218|310:179|247:171,1,107.999996704102,10|0,0:1|1:0,0:0:0:0:
61,259,72802,2,0,B|45:286|54:322|54:322|100:337|155:305,1,107.999996704102,0|0,3:0|3:0,0:0:0:0:
252,126,73042,2,0,B|248:95|220:71|220:71|174:85|149:144,1,107.999996704102,4|0,1:0|0:0,0:0:0:0:
92,0,73282,6,0,P|146:20|176:20,1,53.9999983520508,2|0,3:2|0:0,0:0:0:0:
292,33,73522,2,0,P|336:40|382:-7,1,107.999996704102,10|0,0:1|0:0,0:0:0:0:
461,79,73882,1,2,0:0:0:0:
512,134,74002,6,0,P|506:174|496:194,1,53.9999983520508,0|0,3:0|1:0,0:0:0:0:
473,51,74242,2,0,P|468:13|447:-20,1,53.9999983520508,0|0,3:0|0:0,0:0:0:0:
424,211,74482,1,10,0:1:0:0:
158,183,74722,1,2,0:0:0:0:
136,131,74842,1,0,3:0:0:0:
182,99,74962,6,0,P|185:63|192:43,1,53.9999983520508,0|0,1:0|3:0,0:0:0:0:
44,55,75202,2,0,P|101:60|124:69,1,53.9999983520508,2|0,3:2|0:0,0:0:0:0:
275,37,75442,2,0,P|267:110|248:160,1,107.999996704102,10|0,0:1|3:0,0:0:0:0:
422,65,75802,6,0,P|380:4|335:3,1,107.999996704102,2|0,3:2|1:0,0:0:0:0:
257,25,76162,2,0,P|210:47|186:41,1,53.9999983520508,0|0,3:0|0:0,0:0:0:0:
9,63,76402,2,0,P|81:76|117:88,1,107.999996704102,4|2,1:2|3:2,0:0:0:0:
169,155,76762,1,0,3:0:0:0:
136,264,76882,6,0,P|144:318|153:336,1,53.9999983520508,0|0,1:0|3:0,0:0:0:0:
1,288,77122,2,0,P|10:243|20:224,1,53.9999983520508,2|0,3:2|0:0,0:0:0:0:
166,187,77362,2,0,P|215:222|209:289,1,107.999996704102,10|0,0:1|3:0,0:0:0:0:
257,345,77722,1,2,0:0:0:0:
341,372,77842,6,0,P|333:324|331:300,1,53.9999983520508,0|0,3:0|1:0,0:0:0:0:
512,291,78082,1,0,3:0:0:0:
468,256,78202,1,0,0:0:0:0:
419,266,78322,2,0,P|363:234|365:158,1,107.999996704102,10|2,0:1|0:0,0:0:0:0:
403,132,78682,1,0,0:0:0:0:
385,80,78802,1,4,1:2:0:0:
95,97,79042,6,0,B|87:74|63:71|63:71|63:83|63:83|53:89|53:89|60:112|104:103,1,107.999996704102,0|0,3:0|0:0,0:0:0:0:
212,162,79282,1,10,0:1:0:0:
215,132,79402,1,0,1:2:0:0:
176,179,79522,1,0,3:0:0:0:
294,149,79642,2,0,B|313:162|335:151|335:151|328:141|328:141|333:130|333:130|314:116|283:149,1,107.999996704102,4|0,1:0|0:0,0:0:0:0:
169,170,79882,1,0,1:0:0:0:
101,223,80002,2,0,B|77:224|66:246|66:246|78:250|78:250|80:261|80:261|104:261|110:216,1,107.999996704102,0|4,3:0|3:0,0:0:0:0:
214,50,80242,2,0,B|233:36|228:11|228:11|217:15|217:15|208:7|208:7|189:21|210:61,1,107.999996704102,2|0,1:2|1:0,0:0:0:0:
224,255,80482,2,0,B|217:278|235:296|235:296|242:286|242:286|254:287|254:287|261:264|220:245,1,107.999996704102,0|0,1:0|1:0,0:0:0:0:
307,59,80722,6,0,P|353:51|372:42,1,53.9999983520508,4|0,1:0|0:0,0:0:0:0:
512,95,80962,2,0,P|467:108|444:119,1,53.9999983520508,2|0,3:2|0:0,0:0:0:0:
230,90,81202,2,0,P|219:44|268:-5,1,107.999996704102,10|0,0:1|0:0,0:0:0:0:
184,167,81562,6,0,P|210:244|212:301,1,107.999996704102,2|0,3:2|1:0,0:0:0:0:
287,384,81922,2,0,P|277:348|276:311,1,53.9999983520508,0|0,3:0|0:0,0:0:0:0:
339,189,82162,1,10,0:1:0:0:
132,272,82402,1,2,0:0:0:0:
86,292,82522,1,0,3:0:0:0:
40,259,82642,6,0,P|31:214|18:188,1,53.9999983520508,0|0,1:0|3:0,0:0:0:0:
137,357,82882,2,0,P|93:374|62:367,1,53.9999983520508,2|0,3:2|0:0,0:0:0:0:
178,203,83122,2,0,P|220:259|193:315,1,107.999996704102,10|0,0:1|0:0,0:0:0:0:
316,374,83482,6,0,P|378:353|433:353,1,107.999996704102,2|0,3:2|1:0,0:0:0:0:
321,244,83842,2,0,P|304:278|301:302,1,53.9999983520508,0|0,3:0|0:0,0:0:0:0:
498,379,84082,1,10,0:1:0:0:
408,236,84322,1,2,3:2:0:0:
391,189,84442,1,0,3:0:0:0:
426,151,84562,6,0,P|424:115|404:79,1,53.9999983520508,0|0,1:0|3:0,0:0:0:0:
510,1,84802,2,0,P|459:8|441:16,1,53.9999983520508,2|0,3:2|0:0,0:0:0:0:
340,123,85042,2,0,P|326:56|321:-3,1,107.999996704102,10|0,0:1|0:0,0:0:0:0:
312,207,85402,6,0,P|261:243|209:225,1,107.999996704102,2|0,3:2|1:0,0:0:0:0:
194,81,85762,2,0,P|227:62|254:68,1,53.9999983520508,0|0,3:0|0:0,0:0:0:0:
376,158,86002,2,0,P|398:225|372:267,1,107.999996704102,10|2,0:1|0:0,0:0:0:0:
344,334,86362,1,0,0:0:0:0:
440,371,86482,6,0,P|362:352|325:351,1,107.999996704102,0|2,1:0|3:2,0:0:0:0:
181,323,86842,1,0,0:0:0:0:
119,370,86962,2,0,P|91:370|56:379,1,53.9999983520508,10|0,0:1|0:0,0:0:0:0:
246,269,87202,5,0,1:0:0:0:
236,245,87322,1,2,0:0:0:0:
303,353,87442,2,0,B|306:371|289:386|289:386|270:362|283:329|307:325,1,107.999996704102,0|0,3:0|3:0,0:0:0:0:
288,93,87682,2,0,B|296:76|318:74|318:74|319:104|290:123|268:112,1,107.999996704102,4|0,1:2|0:0,0:0:0:0:
137,150,87922,2,0,B|123:137|128:114|128:114|157:123|166:157|149:175,1,107.999996704102,4|0,3:0|3:0,0:0:0:0:
390,218,88162,2,0,B|408:220|417:241|417:241|388:251|361:229|364:205,1,107.999996704102,2|0,1:2|1:0,0:0:0:0:
146,311,88402,2,0,B|129:319|110:308|110:308|127:282|161:285|173:306,1,107.999996704102,4|0,1:0|0:0,0:0:0:0:
49,246,88642,6,0,P|17:214|11:187,1,53.9999983520508,2|0,3:2|0:0,0:0:0:0:
246,384,88882,2,0,P|290:340|268:272,1,107.999996704102,10|0,0:1|0:0,0:0:0:0:
232,230,89242,1,2,0:0:0:0:
321,141,89362,6,0,P|327:103|336:83,1,53.9999983520508,0|0,3:0|1:0,0:0:0:0:
189,0,89602,2,0,P|183:38|174:58,1,53.9999983520508,0|0,3:0|0:0,0:0:0:0:
230,220,89842,2,0,P|239:161|177:116,1,107.999996704102,10|2,0:1|0:0,0:0:0:0:
36,94,90202,1,0,3:0:0:0:
19,178,90322,6,0,P|75:164|109:162,1,53.9999983520508,0|0,1:0|3:0,0:0:0:0:
172,48,90562,2,0,P|227:37|289:15,1,107.999996704102,2|10,3:2|0:1,0:0:0:0:
379,130,90922,1,0,0:0:0:0:
450,89,91042,1,0,3:0:0:0:
512,150,91162,6,0,P|507:221|451:240,1,107.999996704102,4|0,3:1|1:0,0:0:0:0:
388,294,91522,2,0,P|401:227|401:199,1,53.9999983520508,0|0,3:0|0:0,0:0:0:0:
312,357,91762,2,0,P|301:317|284:288,1,53.9999983520508,10|0,0:1|0:0,0:0:0:0:
344,95,92002,1,2,3:2:0:0:
370,137,92122,1,0,1:0:0:0:
333,174,92242,6,0,P|321:226|321:255,1,53.9999983520508,4|0,1:0|3:0,0:0:0:0:
179,266,92482,2,0,P|205:259|232:256,1,53.9999983520508,2|0,3:2|0:0,0:0:0:0:
201,377,92722,2,0,P|121:362|111:305,1,107.999996704102,10|0,0:1|1:0,0:0:0:0:
47,251,93082,1,0,0:0:0:0:
0,317,93202,6,0,P|5:358|14:380,1,53.9999983520508,0|0,3:0|1:0,0:0:0:0:
78,238,93442,2,0,P|86:200|97:180,1,53.9999983520508,0|0,3:0|0:0,0:0:0:0:
93,374,93682,2,0,P|162:360|221:361,1,107.999996704102,4|0,1:2|3:0,0:0:0:0:
316,336,94042,1,0,0:0:0:0:
381,384,94162,6,0,P|392:345|392:305,1,53.9999983520508,0|0,1:0|0:0,0:0:0:0:
239,269,94402,2,0,P|226:229|223:187,1,53.9999983520508,0|0,3:0|3:0,0:0:0:0:
365,259,94642,2,0,P|404:221|397:149,1,107.999996704102,10|0,1:0|1:0,0:0:0:0:
147,313,95002,2,0,P|108:258|129:194,1,107.999996704102,0|0,1:0|3:0,0:0:0:0:
278,260,95362,5,0,3:0:0:0:
291,216,95482,1,0,3:0:0:0:
228,173,95602,5,4,3:0:0:0:
215,123,95722,1,0,1:0:0:0:
295,80,95842,5,0,1:0:0:0:
320,7,95962,1,0,1:0:0:0:
309,2,96082,5,4,3:1:0:0:
142,82,96322,1,2,3:2:0:0:
1,36,96562,2,0,P|43:110|48:146,1,90,8|2,0:0|0:0,0:0:0:0:
26,189,96922,2,0,P|75:190|113:139,1,90,2|0,3:2|3:0,0:0:0:0:
88,266,97282,2,0,P|63:344|64:379,2,90,2|8|2,3:2|0:0|0:0,0:0:0:0:
145,333,97882,1,0,0:0:0:0:
155,338,98002,5,2,3:0:0:0:
285,255,98242,1,2,3:2:0:0:
254,95,98482,2,0,P|277:48|321:9,1,90,8|2,0:0|0:0,0:0:0:0:
346,95,98842,2,0,P|384:154|427:180,1,90,2|0,3:2|3:0,0:0:0:0:
440,77,99202,1,2,3:2:0:0:
440,77,99322,1,0,0:0:0:0:
440,77,99442,2,0,P|488:80|512:117,1,90,8|2,0:0|0:0,0:0:0:0:
512,190,99802,1,8,0:0:0:0:
507,199,99922,5,2,3:0:0:0:
322,284,100162,1,2,3:2:0:0:
486,376,100402,2,0,P|455:308|448:257,1,90,8|2,0:0|0:0,0:0:0:0:
389,244,100762,2,0,P|396:183|420:127,1,90,2|0,3:2|3:0,0:0:0:0:
431,81,101122,2,0,P|482:132|473:172,2,90,2|8|2,3:2|0:0|0:0,0:0:0:0:
346,103,101722,1,0,0:0:0:0:
337,108,101842,5,2,3:0:0:0:
203,0,102082,1,2,3:2:0:0:
241,175,102322,2,0,P|255:250|273:288,1,90,12|2,0:0|0:0,0:0:0:0:
329,310,102682,1,4,3:1:0:0:
134,372,102922,1,0,3:0:0:0:
126,364,103042,2,0,P|138:323|147:304,1,45,2|4,3:2|3:0,0:0:0:0:
38,195,103282,2,0,P|28:232|17:258,1,45,0|0,1:0|1:0,0:0:0:0:
252,176,103522,2,0,P|266:135|273:120,1,45,0|0,1:0|1:0,0:0:0:0:
177,5,103762,5,4,3:1:0:0:
343,106,104002,1,2,3:2:0:0:
509,60,104242,2,0,P|484:131|481:178,1,90,8|2,0:0|0:0,0:0:0:0:
485,224,104602,2,0,P|427:203|409:162,1,90,6|0,3:2|3:0,0:0:0:0:
358,251,104962,2,0,P|365:330|380:359,2,90,2|8|2,3:2|0:0|0:0,0:0:0:0:
434,292,105562,1,0,0:0:0:0:
444,297,105682,5,2,3:0:0:0:
291,384,105922,1,2,3:2:0:0:
233,219,106162,2,0,P|208:152|216:123,1,90,8|2,0:0|0:0,0:0:0:0:
233,61,106522,2,0,P|158:79|137:103,1,90,4|0,3:2|3:0,0:0:0:0:
104,19,106882,2,0,P|74:12|59:4,1,45,2|2,3:2|0:0,0:0:0:0:
129,167,107122,1,4,0:1:0:0:
2,251,107362,1,2,0:0:0:0:
7,260,107482,1,8,0:0:0:0:
17,262,107602,5,4,3:1:0:0:
171,379,107842,1,2,3:2:0:0:
284,218,108082,2,0,P|226:233|182:266,1,90,8|2,0:0|0:0,0:0:0:0:
190,163,108442,2,0,P|206:108|167:62,1,90,4|0,3:1|3:0,0:0:0:0:
155,3,108802,2,0,P|225:12|269:30,2,90,2|8|2,3:2|0:0|0:0,0:0:0:0:
88,53,109402,1,0,3:0:0:0:
83,62,109522,5,4,3:1:0:0:
301,118,109762,2,0,P|339:110|361:96,1,45,0|8,0:0|0:0,0:0:0:0:
449,8,110002,2,0,P|505:48|516:106,1,90,0|4,3:0|0:0,0:0:0:0:
420,85,110362,2,0,P|408:155|367:184,1,90,4|0,3:1|1:0,0:0:0:0:
468,275,110722,2,0,P|432:284|409:281,1,45,0|0,1:0|0:0,0:0:0:0:
267,370,110962,1,0,3:0:0:0:
238,342,111082,1,0,3:0:0:0:
255,309,111202,2,0,P|250:274|231:250,1,45,0|0,1:0|1:0,0:0:0:0:
436,198,111442,6,0,P|369:193|312:176,1,90,6|0,1:2|3:0,0:0:0:0:
419,86,111802,1,2,3:2:0:0:
445,61,111922,2,0,P|480:62|502:71,1,45,2|0,0:0|3:0,0:0:0:0:
267,146,112162,1,2,3:2:0:0:
212,212,112282,6,0,P|139:197|95:196,1,90,4|0,0:0|1:0,0:0:0:0:
9,115,112642,2,0,P|55:124|93:122,1,45,0|0,1:0|3:0,0:0:0:0:
275,154,112882,5,4,3:0:0:0:
337,184,113002,1,0,3:0:0:0:
390,141,113122,1,0,3:0:0:0:
430,141,113242,1,0,3:0:0:0:
451,90,113362,1,6,1:0:0:0:
256,192,113482,12,0,122962,0:0:0:0:
