osu file format v14

[General]
AudioFilename: kaese.mp3
AudioLeadIn: 0
PreviewTime: 24889
Countdown: 0
SampleSet: Normal
StackLeniency: 0.7
Mode: 1
LetterboxInBreaks: 0
WidescreenStoryboard: 0

[Editor]
DistanceSpacing: 0.8
BeatDivisor: 4
GridSize: 32
TimelineZoom: 1

[Metadata]
Title:wo ist die Kaese?
TitleUnicode:wo ist die Käse?
Artist:Yuki Kajiura
ArtistUnicode:梶浦由記
Creator:guro
Version:Oni
Source:劇場版 魔法少女まどか☆マギカ
Tags:charlotte candy witch puella magi madoka magica mahou shoujo yumyum-
BeatmapID:1582345
BeatmapSetID:751640

[Difficulty]
HPDrainRate:7
CircleSize:3
OverallDifficulty:5.5
ApproachRate:5
SliderMultiplier:1.4
SliderTickRate:1

[Events]
//Background and Video events
0,0,"BG.png",0,0
//Break Periods
//Storyboard Layer 0 (Background)
//Storyboard Layer 1 (Fail)
//Storyboard Layer 2 (Pass)
//Storyboard Layer 3 (Foreground)
//Storyboard Sound Samples

[TimingPoints]
1014,500,4,1,0,40,1,0
9014,-100,4,1,0,50,0,0
17014,-100,4,1,0,60,0,0
25014,-100,4,1,0,70,0,0
33014,-100,4,1,0,75,0,0
37014,-100,4,1,0,80,0,0

[HitObjects]
256,192,1014,5,0,0:0:0:0:
256,192,2014,1,2,0:0:0:0:
256,192,3014,1,0,0:0:0:0:
256,192,3514,1,0,0:0:0:0:
256,192,3764,1,0,0:0:0:0:
256,192,4014,1,2,0:0:0:0:
256,192,4514,1,2,0:0:0:0:
256,192,5014,1,0,0:0:0:0:
256,192,6014,1,2,0:0:0:0:
256,192,7014,1,0,0:0:0:0:
256,192,7514,1,8,0:0:0:0:
256,192,7764,1,0,0:0:0:0:
256,192,8014,1,2,0:0:0:0:
256,192,9014,5,4,0:0:0:0:
256,192,9514,1,0,0:0:0:0:
256,192,9764,1,8,0:0:0:0:
256,192,9889,1,8,0:0:0:0:
256,192,10014,1,8,0:0:0:0:
256,192,10264,1,0,0:0:0:0:
256,192,10514,1,8,0:0:0:0:
256,192,10639,1,0,0:0:0:0:
256,192,10764,1,0,0:0:0:0:
256,192,11014,1,8,0:0:0:0:
256,192,11264,1,0,0:0:0:0:
256,192,11514,1,8,0:0:0:0:
256,192,12014,1,8,0:0:0:0:
256,192,12264,1,0,0:0:0:0:
256,192,12514,1,0,0:0:0:0:
256,192,12639,1,0,0:0:0:0:
256,192,12764,1,8,0:0:0:0:
256,192,13014,1,8,0:0:0:0:
256,192,13264,1,8,0:0:0:0:
256,192,13389,1,8,0:0:0:0:
256,192,13514,1,0,0:0:0:0:
256,192,13764,1,0,0:0:0:0:
256,192,14014,1,8,0:0:0:0:
256,192,14264,1,0,0:0:0:0:
256,192,14514,1,8,0:0:0:0:
256,192,14639,1,0,0:0:0:0:
256,192,14764,1,8,0:0:0:0:
256,192,15014,1,0,0:0:0:0:
256,192,15514,1,8,0:0:0:0:
256,192,15764,1,0,0:0:0:0:
256,192,16014,1,8,0:0:0:0:
256,192,16514,1,8,0:0:0:0:
256,192,17014,5,4,0:0:0:0:
256,192,17514,1,2,0:0:0:0:
256,192,17764,1,0,0:0:0:0:
256,192,17889,1,0,0:0:0:0:
256,192,18014,1,2,0:0:0:0:
256,192,18264,1,2,0:0:0:0:
256,192,18514,1,0,0:0:0:0:
256,192,18764,1,2,0:0:0:0:
256,192,18889,1,2,0:0:0:0:
256,192,19014,1,2,0:0:0:0:
256,192,19264,1,0,0:0:0:0:
256,192,19514,1,2,0:0:0:0:
256,192,20014,1,0,0:0:0:0:
256,192,20514,1,2,0:0:0:0:
256,192,20764,1,0,0:0:0:0:
256,192,20889,1,0,0:0:0:0:
256,192,21014,1,0,0:0:0:0:
256,192,21264,1,0,0:0:0:0:
256,192,21514,1,2,0:0:0:0:
256,192,21764,1,0,0:0:0:0:
256,192,21889,1,0,0:0:0:0:
256,192,22014,1,2,0:0:0:0:
256,192,22139,1,2,0:0:0:0:
256,192,22264,1,0,0:0:0:0:
256,192,22514,1,2,0:0:0:0:
256,192,22764,1,0,0:0:0:0:
256,192,23014,1,2,0:0:0:0:
256,192,23514,1,0,0:0:0:0:
256,192,24014,1,2,0:0:0:0:
256,192,24264,1,0,0:0:0:0:
256,192,24389,1,0,0:0:0:0:
256,192,24514,1,2,0:0:0:0:
256,192,24764,1,2,0:0:0:0:
256,192,25014,5,4,0:0:0:0:
256,192,25514,1,8,0:0:0:0:
256,192,25764,1,0,0:0:0:0:
256,192,26014,1,8,0:0:0:0:
256,192,26139,1,0,0:0:0:0:
256,192,26264,1,0,0:0:0:0:
256,192,26389,1,0,0:0:0:0:
256,192,26514,1,8,0:0:0:0:
256,192,26764,1,0,0:0:0:0:
256,192,27014,1,8,0:0:0:0:
256,192,27514,1,0,0:0:0:0:
256,192,28014,1,8,0:0:0:0:
256,192,28264,1,0,0:0:0:0:
256,192,28389,1,0,0:0:0:0:
256,192,28514,1,8,0:0:0:0:
256,192,28764,1,0,0:0:0:0:
256,192,29014,1,8,0:0:0:0:
256,192,29264,1,0,0:0:0:0:
256,192,29389,1,0,0:0:0:0:
256,192,29514,1,8,0:0:0:0:
256,192,29639,1,8,0:0:0:0:
256,192,29764,1,0,0:0:0:0:
256,192,30014,1,8,0:0:0:0:
256,192,30264,1,0,0:0:0:0:
256,192,30514,1,0,0:0:0:0:
256,192,30639,1,0,0:0:0:0:
256,192,30764,1,8,0:0:0:0:
256,192,31014,1,8,0:0:0:0:
256,192,31264,1,0,0:0:0:0:
256,192,31514,1,8,0:0:0:0:
256,192,31639,1,8,0:0:0:0:
256,192,31764,1,0,0:0:0:0:
256,192,32014,1,8,0:0:0:0:
256,192,32514,1,0,0:0:0:0:
256,192,32639,1,0,0:0:0:0:
256,192,32764,1,8,0:0:0:0:
256,192,33014,5,4,0:0:0:0:
256,192,33514,1,0,0:0:0:0:
256,192,33764,1,2,0:0:0:0:
256,192,33889,1,0,0:0:0:0:
256,192,34014,1,2,0:0:0:0:
256,192,34139,1,2,0:0:0:0:
256,192,34264,1,0,0:0:0:0:
256,192,34514,1,2,0:0:0:0:
256,192,34764,1,0,0:0:0:0:
256,192,34889,1,2,0:0:0:0:
256,192,35014,1,0,0:0:0:0:
256,192,35264,1,0,0:0:0:0:
256,192,35514,1,2,0:0:0:0:
256,192,35764,1,0,0:0:0:0:
256,192,35889,1,0,0:0:0:0:
256,192,36014,1,2,0:0:0:0:
256,192,36139,1,2,0:0:0:0:
256,192,36264,1,0,0:0:0:0:
256,192,36389,1,0,0:0:0:0:
256,192,36514,1,2,0:0:0:0:
256,192,36764,1,0,0:0:0:0:
256,192,37014,1,2,0:0:0:0:
256,192,37264,1,0,0:0:0:0:
256,192,37389,1,0,0:0:0:0:
256,192,37514,1,2,0:0:0:0:
256,192,37764,1,2,0:0:0:0:
256,192,38014,1,0,0:0:0:0:
256,192,38264,1,2,0:0:0:0:
256,192,38389,1,0,0:0:0:0:
256,192,38514,1,2,0:0:0:0:
256,192,38764,1,2,0:0:0:0:
256,192,39014,1,4,0:0:0:0:
