osu file format v14

[General]
AudioFilename: kaese.mp3
AudioLeadIn: 0
PreviewTime: 24889
Countdown: 0
SampleSet: Normal
StackLeniency: 0.7
Mode: 1
LetterboxInBreaks: 0
WidescreenStoryboard: 1

[Editor]
DistanceSpacing: 0.8
BeatDivisor: 4
GridSize: 32
TimelineZoom: 1

[Metadata]
Title:wo ist die Kaese?
TitleUnicode:wo ist die Käse?
Artist:Yuki Kajiura
ArtistUnicode:梶浦由記
Creator:guro
Version:Futsuu
Source:劇場版 魔法少女まどか☆マギカ
Tags:charlotte candy witch puella magi madoka magica mahou shoujo yumyum-
BeatmapID:1582342
BeatmapSetID:751640

[Difficulty]
HPDrainRate:8
CircleSize:3
OverallDifficulty:4
ApproachRate:5
SliderMultiplier:1.4
SliderTickRate:1

[Events]
//Background and Video events
0,0,"BG.png",0,0
//Break Periods
//Storyboard Layer 0 (Background)
//Storyboard Layer 1 (Fail)
//Storyboard Layer 2 (Pass)
//Storyboard Layer 3 (Foreground)
//Storyboard Sound Samples

[TimingPoints]
1014,500,4,1,0,40,1,0
9014,-100,4,1,0,50,0,0
17014,-100,4,1,0,60,0,0
25014,-100,4,1,0,70,0,0
33014,-100,4,1,0,75,0,0
37014,-100,4,1,0,80,0,0

[HitObjects]
256,192,1014,5,0,0:0:0:0:
256,192,2014,1,2,0:0:0:0:
256,192,3014,1,0,0:0:0:0:
256,192,3514,1,0,0:0:0:0:
256,192,4014,1,2,0:0:0:0:
256,192,5014,1,0,0:0:0:0:
256,192,6014,1,2,0:0:0:0:
256,192,7014,1,0,0:0:0:0:
256,192,7514,1,0,0:0:0:0:
256,192,8014,1,2,0:0:0:0:
256,192,9014,5,4,0:0:0:0:
256,192,10014,1,8,0:0:0:0:
256,224,10514,1,0,0:0:0:0:
256,192,11014,1,8,0:0:0:0:
256,192,11514,1,0,0:0:0:0:
256,192,12014,1,8,0:0:0:0:
256,192,13014,1,8,0:0:0:0:
256,192,13514,1,8,0:0:0:0:
256,192,13764,1,0,0:0:0:0:
256,192,14014,1,0,0:0:0:0:
256,192,15014,1,8,0:0:0:0:
256,192,15514,1,0,0:0:0:0:
256,192,16014,1,8,0:0:0:0:
256,192,17014,5,4,0:0:0:0:
256,192,18014,1,0,0:0:0:0:
256,192,18514,1,2,0:0:0:0:
256,192,18764,1,0,0:0:0:0:
256,192,19014,1,2,0:0:0:0:
256,192,19514,1,0,0:0:0:0:
256,192,20014,1,2,0:0:0:0:
256,192,20514,1,0,0:0:0:0:
256,192,21014,1,2,0:0:0:0:
256,192,22014,1,0,0:0:0:0:
256,192,22264,1,2,0:0:0:0:
256,192,22514,1,0,0:0:0:0:
256,192,23014,1,0,0:0:0:0:
256,192,23514,1,2,0:0:0:0:
256,192,24014,1,0,0:0:0:0:
256,192,25014,5,4,0:0:0:0:
256,192,26014,1,8,0:0:0:0:
256,192,26264,1,8,0:0:0:0:
256,192,26514,1,0,0:0:0:0:
256,192,27014,1,0,0:0:0:0:
256,192,27514,1,8,0:0:0:0:
256,192,28014,1,0,0:0:0:0:
256,192,29014,1,8,0:0:0:0:
256,192,29264,1,0,0:0:0:0:
256,192,29514,1,8,0:0:0:0:
256,192,30014,1,0,0:0:0:0:
256,192,30514,1,0,0:0:0:0:
256,192,30764,1,0,0:0:0:0:
256,192,31014,1,8,0:0:0:0:
256,192,31514,1,8,0:0:0:0:
256,192,32014,1,0,0:0:0:0:
256,192,33014,5,4,0:0:0:0:
256,192,33514,1,2,0:0:0:0:
256,192,34014,1,2,0:0:0:0:
256,192,34264,1,2,0:0:0:0:
256,192,34514,1,0,0:0:0:0:
256,192,35014,1,0,0:0:0:0:
256,192,35514,1,2,0:0:0:0:
256,192,35764,1,0,0:0:0:0:
256,192,36014,1,0,0:0:0:0:
256,192,36264,1,2,0:0:0:0:
256,192,36514,1,2,0:0:0:0:
256,192,37014,1,0,0:0:0:0:
256,192,37514,1,0,0:0:0:0:
256,192,38014,1,2,0:0:0:0:
256,192,38514,1,2,0:0:0:0:
256,192,39014,1,4,0:0:0:0:
