osu file format v14

[General]
AudioFilename: audio.mp3
AudioLeadIn: 0
PreviewTime: 24827
Countdown: 0
SampleSet: Soft
StackLeniency: 0.7
Mode: 0
LetterboxInBreaks: 0
WidescreenStoryboard: 1

[Editor]
DistanceSpacing: 1
BeatDivisor: 4
GridSize: 32
TimelineZoom: 1

[Metadata]
Title:wo ist die Kaese?
TitleUnicode:wo ist die Käse?
Artist:Yuki Kajiura
ArtistUnicode:梶浦由記
Creator:Kisses
Version:Normal?
Source:劇場版 魔法少女まどか☆マギカ
Tags:charlotte candy witch puella magi madoka magica mahou shoujo
BeatmapID:1473016
BeatmapSetID:695152

[Difficulty]
HPDrainRate:3
CircleSize:3.5
OverallDifficulty:3
ApproachRate:3.5
SliderMultiplier:1.2
SliderTickRate:1

[Events]
//Background and Video events
0,0,"BG.png",0,0
//Break Periods
//Storyboard Layer 0 (Background)
//Storyboard Layer 1 (Fail)
//Storyboard Layer 2 (Pass)
//Storyboard Layer 3 (Foreground)
//Storyboard Sound Samples

[TimingPoints]
952,500,4,2,1,40,1,0
8952,-100,4,2,1,45,0,1
9077,-100,4,2,1,45,0,0
24952,-100,4,2,1,50,0,1
25077,-100,4,2,1,50,0,0
32952,-100,4,2,1,55,0,1
33077,-100,4,2,1,50,0,0
34952,-100,4,2,1,60,0,0
35952,-100,4,2,1,70,0,0
36952,-100,4,2,1,50,0,0
38952,-100,4,2,1,50,0,1
39077,-100,4,2,1,10,0,0

[Colours]
Combo1 : 251,248,125
Combo2 : 255,157,206
Combo3 : 170,170,255
Combo4 : 249,138,155

[HitObjects]
66,235,952,6,0,P|40:190|55:118,1,120,2|0,0:0|3:0,0:0:0:0:
141,47,1952,2,0,P|167:92|152:164,1,120,2|2,0:0|0:0,0:0:0:0:
151,234,2702,1,0,0:0:0:0:
205,294,2952,2,0,L|337:284,1,120,2|0,0:0|3:0,0:0:0:0:
381,223,3702,1,0,0:0:0:0:
324,163,3952,2,0,P|318:133|320:103,2,60,2|0|2,0:0|0:0|0:0,0:0:0:0:
286,277,4952,6,0,L|280:344,2,60,2|0|0,0:0|0:0|3:0,0:0:0:0:
230,219,5702,1,0,0:0:0:0:
179,281,5952,1,2,0:0:0:0:
62,254,6452,1,2,0:0:0:0:
127,153,6952,2,0,P|136:95|106:44,2,120,2|0|2,0:0|3:0|0:0,0:0:0:0:
167,265,8452,2,0,L|240:258,1,60,2|0,0:0|0:0,0:0:0:0:
307,252,8952,5,4,1:0:0:0:
267,138,9452,2,0,L|199:132,1,60,0|0,3:0|0:0,0:0:0:0:
161,70,9952,2,0,P|129:116|148:186,1,120,2|2,0:0|0:0,0:0:0:0:
189,240,10702,1,0,0:0:0:0:
126,288,10952,2,0,L|58:292,2,60,2|0|0,0:0|0:0|3:0,0:0:0:0:
245,296,11952,2,0,P|268:244|243:184,1,120,2|2,0:0|0:0,0:0:0:0:
195,129,12702,1,0,0:0:0:0:
253,75,12952,6,0,L|340:69,1,60,2|0,0:0|0:0,0:0:0:0:
373,126,13452,2,0,L|432:130,1,60,0|0,3:0|0:0,0:0:0:0:
497,76,13952,1,2,0:0:0:0:
503,195,14452,1,2,0:0:0:0:
397,252,14952,2,0,L|405:375,1,120,2|0,0:0|3:0,0:0:0:0:
291,332,15952,2,0,P|243:253|223:357,1,240,2|2,0:0|0:0,0:0:0:0:
88,369,17452,6,0,L|81:289,1,60,0|0,3:0|0:0,0:0:0:0:
20,265,17952,2,0,P|85:276|134:245,1,120,2|2,0:0|0:0,0:0:0:0:
113,173,18702,1,0,0:0:0:0:
178,124,18952,2,0,L|173:-2,1,120,2|0,0:0|3:0,0:0:0:0:
285,47,19952,2,0,L|289:180,1,120,2|2,0:0|0:0,0:0:0:0:
260,243,20702,1,0,0:0:0:0:
310,307,20952,6,0,P|360:281|436:306,1,120,2|0,0:0|3:0,0:0:0:0:
497,200,21952,2,0,L|505:112,1,60,2|0,0:0|0:0,0:0:0:0:
433,97,22452,2,0,L|425:9,1,60,2|0,0:0|0:0,0:0:0:0:
351,13,22952,2,0,P|303:41|235:25,2,120,2|0|2,0:0|3:0|0:0,0:0:0:0:
342,132,24452,1,2,0:0:0:0:
231,179,24952,6,0,L|238:315,1,120,4|0,1:0|3:0,0:0:0:0:
182,357,25702,1,0,0:0:0:0:
118,304,25952,2,0,P|91:293|46:294,1,60,2|0,0:0|0:0,0:0:0:0:
7,230,26452,1,2,0:0:0:0:
92,145,26952,2,0,L|86:12,2,120,2|0|2,0:0|3:0|0:0,0:0:0:0:
206,109,28452,1,2,0:0:0:0:
284,199,28952,6,0,P|275:230|279:260,1,60,2|0,0:0|0:0,0:0:0:0:
360,240,29452,2,0,P|368:208|365:179,1,60,0|0,3:0|0:0,0:0:0:0:
308,124,29952,2,0,P|263:151|199:132,1,120,2|2,0:0|0:0,0:0:0:0:
148,75,30702,1,0,0:0:0:0:
89,133,30952,2,0,P|97:164|94:194,1,60,2|0,0:0|0:0,0:0:0:0:
13,200,31452,2,0,P|4:168|8:139,1,60,0|0,3:0|0:0,0:0:0:0:
39,66,31952,2,0,P|95:49|148:75,1,120,2|2,0:0|0:0,0:0:0:0:
229,163,32952,6,0,L|242:43,1,120,4|0,1:0|3:0,0:0:0:0:
312,3,33702,1,0,0:0:0:0:
370,62,33952,2,0,P|408:61|436:48,2,60,2|0|2,0:0|0:0|0:0,0:0:0:0:
313,168,34952,2,0,P|345:217|333:286,1,120,2|0,0:0|3:0,0:0:0:0:
250,357,35952,2,0,P|218:308|230:239,1,120,2|2,0:0|0:0,0:0:0:0:
313,168,36952,5,6,3:2:0:0:
80,108,37952,1,2,3:0:0:0:
306,27,38952,1,4,1:2:0:0:
256,192,39077,12,0,42452,0:0:0:0:
