osu file format v14

[General]
AudioFilename: audio.mp3
AudioLeadIn: 0
PreviewTime: 24827
Countdown: 0
SampleSet: Soft
StackLeniency: 0.7
Mode: 0
LetterboxInBreaks: 0
WidescreenStoryboard: 1

[Editor]
DistanceSpacing: 1
BeatDivisor: 4
GridSize: 32
TimelineZoom: 1

[Metadata]
Title:wo ist die Kaese?
TitleUnicode:wo ist die Käse?
Artist:Yuki Kajiura
ArtistUnicode:梶浦由記
Creator:Kisses
Version:Insane?
Source:劇場版 魔法少女まどか☆マギカ
Tags:charlotte candy witch puella magi madoka magica mahou shoujo
BeatmapID:1472989
BeatmapSetID:695152

[Difficulty]
HPDrainRate:6
CircleSize:5
OverallDifficulty:5.4
ApproachRate:7
SliderMultiplier:1.6
SliderTickRate:1

[Events]
//Background and Video events
0,0,"BG.png",0,0
//Break Periods
//Storyboard Layer 0 (Background)
//Storyboard Layer 1 (Fail)
//Storyboard Layer 2 (Pass)
//Storyboard Layer 3 (Foreground)
//Storyboard Sound Samples

[TimingPoints]
952,500,4,2,1,40,1,0
8952,-100,4,2,1,45,0,1
9077,-100,4,2,1,45,0,0
24952,-83.3333333333333,4,2,1,50,0,1
25077,-83.3333333333333,4,2,1,50,0,0
32952,-83.3333333333333,4,2,1,55,0,1
33077,-83.3333333333333,4,2,1,50,0,0
34952,-83.3333333333333,4,2,1,60,0,0
35952,-83.3333333333333,4,2,1,70,0,0
36952,-83.3333333333333,4,2,1,50,0,0
38952,-83.3333333333333,4,2,1,50,0,1
39077,-83.3333333333333,4,2,1,10,0,0

[Colours]
Combo1 : 251,248,125
Combo2 : 255,157,206
Combo3 : 170,170,255
Combo4 : 249,138,155

[HitObjects]
178,124,952,6,0,L|258:131,1,80,2|0,0:0|0:0,0:0:0:0:
399,63,1452,2,0,L|319:55,1,80,0|0,3:0|0:0,0:0:0:0:
317,190,1952,2,0,P|394:211|447:138,1,160,2|2,0:0|0:0,0:0:0:0:
442,272,2702,1,0,0:0:0:0:
375,143,2952,6,0,P|288:152|210:169,1,160,2|0,0:0|3:0,0:0:0:0:
301,249,3702,1,0,0:0:0:0:
224,358,3952,2,0,P|211:318|195:282,1,80,2|0,0:0|0:0,0:0:0:0:
94,191,4452,2,0,P|80:235|64:265,1,80,2|0,0:0|0:0,0:0:0:0:
205,180,4952,5,2,0:0:0:0:
139,79,5202,1,0,0:0:0:0:
16,178,5452,2,0,P|61:182|107:197,1,80,0|0,3:0|0:0,0:0:0:0:
229,135,5952,2,0,P|216:197|207:273,1,120,2|0,0:0|0:0,0:0:0:0:
183,324,6452,2,0,P|179:285|171:242,1,80,2|0,0:0|0:0,0:0:0:0:
109,365,6952,6,0,P|193:354|279:348,2,160,2|0|2,0:0|3:0|0:0,0:0:0:0:
10,165,8452,2,0,P|32:197|66:219,1,80,2|0,0:0|0:0,0:0:0:0:
196,103,8952,6,0,P|156:105|116:110,1,80,4|0,1:0|0:0,0:0:0:0:
188,207,9452,1,0,3:0:0:0:
67,219,9702,1,0,0:0:0:0:
177,366,9952,2,0,L|188:195,1,160,2|2,0:0|0:0,0:0:0:0:
118,108,10702,1,0,0:0:0:0:
212,28,10952,6,0,P|250:19|307:15,1,80,2|0,0:0|0:0,0:0:0:0:
446,122,11452,2,0,P|407:111|367:105,1,80,0|0,3:0|0:0,0:0:0:0:
493,40,11952,2,0,L|477:213,1,160,2|2,0:0|0:0,0:0:0:0:
361,228,12702,1,0,0:0:0:0:
272,147,12952,6,0,L|264:53,1,80,2|0,0:0|0:0,0:0:0:0:
150,30,13452,2,0,L|156:109,1,80,0|0,3:0|0:0,0:0:0:0:
185,224,13952,1,2,0:0:0:0:
82,182,14202,1,0,0:0:0:0:
107,349,14452,1,2,0:0:0:0:
4,307,14702,1,0,0:0:0:0:
185,224,14952,6,0,P|177:267|171:311,1,80,2|0,0:0|0:0,0:0:0:0:
291,288,15452,2,0,P|299:331|305:375,1,80,0|0,3:0|0:0,0:0:0:0:
341,192,15952,2,0,P|264:212|185:224,1,160,2|2,0:0|0:0,0:0:0:0:
21,106,16952,6,0,P|102:86|175:118,1,160,2|0,0:0|3:0,0:0:0:0:
249,23,17702,1,0,0:0:0:0:
316,122,17952,2,0,L|394:106,1,80,2|0,0:0|0:0,0:0:0:0:
340,213,18452,2,0,L|261:229,1,80,2|0,0:0|0:0,0:0:0:0:
461,175,18952,6,0,P|490:97|452:31,1,160,2|0,0:0|3:0,0:0:0:0:
181,40,19952,2,0,P|260:29|339:12,1,160,2|2,0:0|0:0,0:0:0:0:
300,125,20702,1,0,0:0:0:0:
426,87,20952,6,0,P|412:172|401:268,1,160,2|0,0:0|3:0,0:0:0:0:
199,325,21952,2,0,P|163:311|108:298,1,80,2|0,0:0|0:0,0:0:0:0:
96,183,22452,2,0,P|62:202|23:213,1,80,2|0,0:0|0:0,0:0:0:0:
214,208,22952,6,0,P|192:126|201:46,1,160,2|0,0:0|3:0,0:0:0:0:
313,13,23702,1,0,0:0:0:0:
389,105,23952,2,0,P|427:116|467:120,1,80,2|0,0:0|0:0,0:0:0:0:
298,183,24452,2,0,P|258:187|219:198,1,80,2|0,0:0|0:0,0:0:0:0:
495,4,24952,5,4,1:0:0:0:
495,4,25452,2,0,P|448:14|396:20,1,95.9999970703126,0|0,3:0|0:0,0:0:0:0:
324,131,25952,1,2,0:0:0:0:
222,42,26202,1,0,0:0:0:0:
225,27,26327,1,0,0:0:0:0:
228,13,26452,1,2,0:0:0:0:
130,119,26702,1,0,0:0:0:0:
131,134,26827,1,0,0:0:0:0:
133,148,26952,6,0,P|235:135|330:130,1,191.999994140625,2|0,0:0|3:0,0:0:0:0:
421,215,27702,1,0,0:0:0:0:
428,227,27827,1,0,0:0:0:0:
436,238,27952,2,0,P|476:155|461:58,1,191.999994140625,2|2,0:0|0:0,0:0:0:0:
333,16,28702,1,0,0:0:0:0:
318,18,28827,1,0,0:0:0:0:
303,21,28952,6,0,L|207:11,1,95.9999970703126,2|0,0:0|0:0,0:0:0:0:
347,119,29452,2,0,L|442:128,1,95.9999970703126,0|0,3:0|0:0,0:0:0:0:
490,191,29827,1,0,0:0:0:0:
481,202,29952,2,0,L|468:8,1,191.999994140625,2|2,0:0|0:0,0:0:0:0:
280,28,30702,1,0,0:0:0:0:
285,41,30827,1,0,0:0:0:0:
290,54,30952,6,0,P|340:41|393:40,1,95.9999970703126,2|0,0:0|0:0,0:0:0:0:
412,176,31452,2,0,P|362:189|309:190,1,95.9999970703126,0|0,3:0|0:0,0:0:0:0:
223,101,31952,2,0,P|171:176|208:269,1,191.999994140625,2|2,0:0|0:0,0:0:0:0:
305,218,32702,1,0,0:0:0:0:
317,210,32827,1,0,0:0:0:0:
329,202,32952,6,0,L|438:191,1,95.9999970703126,4|0,1:0|0:0,0:0:0:0:
485,305,33452,1,0,3:0:0:0:
356,360,33702,1,0,0:0:0:0:
358,345,33827,1,0,0:0:0:0:
358,330,33952,2,0,P|314:318|257:309,2,95.9999970703126,2|0|2,0:0|0:0|0:0,0:0:0:0:
273,197,34702,1,0,0:0:0:0:
273,197,34827,1,0,0:0:0:0:
273,197,34952,6,0,P|189:222|150:318,1,191.999994140625,2|0,0:0|3:0,0:0:0:0:
27,258,35702,1,0,0:0:0:0:
101,159,35952,2,0,P|150:169|210:191,1,95.9999970703126,2|0,0:0|0:0,0:0:0:0:
375,92,36452,2,0,P|328:105|279:111,1,95.9999970703126,2|0,0:0|0:0,0:0:0:0:
247,50,36827,1,0,0:0:0:0:
235,43,36952,6,0,B|268:146|199:138|240:245,1,191.999994140625,6|0,0:2|3:0,0:0:0:0:
202,295,37577,1,0,3:0:0:0:
188,290,37702,1,0,3:0:0:0:
173,287,37827,1,0,3:0:0:0:
158,287,37952,1,2,3:2:0:0:
36,235,38202,5,0,3:0:0:0:
50,231,38327,1,0,3:0:0:0:
63,227,38452,2,0,L|56:173,1,47.9999985351563,2|0,3:0|3:0,0:0:0:0:
151,137,38702,2,0,L|144:184,1,47.9999985351563,0|0,3:0|3:0,0:0:0:0:
158,287,38952,5,4,1:2:0:0:
256,192,39077,12,0,42452,0:0:0:0:
