osu file format v14

[General]
AudioFilename: audio.mp3
AudioLeadIn: 0
PreviewTime: 24827
Countdown: 0
SampleSet: Soft
StackLeniency: 0.7
Mode: 0
LetterboxInBreaks: 0
WidescreenStoryboard: 1

[Editor]
DistanceSpacing: 1
BeatDivisor: 4
GridSize: 32
TimelineZoom: 1

[Metadata]
Title:wo ist die Kaese?
TitleUnicode:wo ist die Käse?
Artist:Yuki Kajiura
ArtistUnicode:梶浦由記
Creator:Kisses
Version:Hard?
Source:劇場版 魔法少女まどか☆マギカ
Tags:charlotte candy witch puella magi madoka magica mahou shoujo
BeatmapID:1472988
BeatmapSetID:695152

[Difficulty]
HPDrainRate:4
CircleSize:4
OverallDifficulty:4.2
ApproachRate:5
SliderMultiplier:1.6
SliderTickRate:1

[Events]
//Background and Video events
0,0,"BG.png",0,0
//Break Periods
//Storyboard Layer 0 (Background)
//Storyboard Layer 1 (Fail)
//Storyboard Layer 2 (Pass)
//Storyboard Layer 3 (Foreground)
//Storyboard Sound Samples

[TimingPoints]
952,500,4,2,1,40,1,0
8952,-100,4,2,1,45,0,1
9077,-100,4,2,1,45,0,0
16827,-100,4,2,1,5,0,0
16952,-100,4,2,1,45,0,0
24952,-100,4,2,1,50,0,1
25077,-100,4,2,1,50,0,0
32952,-100,4,2,1,55,0,1
33077,-100,4,2,1,50,0,0
34952,-100,4,2,1,70,0,0
36952,-100,4,2,1,50,0,0
38952,-100,4,2,1,50,0,1
39077,-100,4,2,1,10,0,0

[Colours]
Combo1 : 251,248,125
Combo2 : 255,157,206
Combo3 : 170,170,255
Combo4 : 249,138,155

[HitObjects]
149,74,952,6,0,P|124:110|121:162,1,80,2|0,0:0|0:0,0:0:0:0:
163,211,1452,2,0,P|171:255|176:304,1,80,0|0,3:0|0:0,0:0:0:0:
132,358,1952,2,0,P|190:315|273:343,1,160,2|2,0:0|0:0,0:0:0:0:
346,319,2702,1,0,0:0:0:0:
310,247,2952,2,0,B|330:66,1,160,2|0,0:0|3:0,0:0:0:0:
394,42,3702,1,0,0:0:0:0:
456,91,3952,2,0,P|468:128|459:170,2,80,2|0|2,0:0|0:0|0:0,0:0:0:0:
318,8,4952,5,2,0:0:0:0:
255,57,5202,1,0,0:0:0:0:
328,89,5452,2,0,L|337:177,1,80,0|0,3:0|0:0,0:0:0:0:
283,228,5952,2,0,P|207:249|149:183,1,160,2|2,0:0|0:0,0:0:0:0:
31,317,6952,2,0,L|22:155,2,160,2|0|2,0:0|3:0|0:0,0:0:0:0:
164,233,8452,2,0,P|175:193|172:152,1,80,2|0,0:0|0:0,0:0:0:0:
233,284,8952,5,4,1:0:0:0:
233,284,9452,1,0,3:0:0:0:
160,318,9702,1,0,0:0:0:0:
94,271,9952,2,0,P|65:199|105:132,1,160,2|2,0:0|0:0,0:0:0:0:
165,79,10702,1,0,0:0:0:0:
122,11,10952,2,0,P|83:19|39:25,1,80,2|0,0:0|0:0,0:0:0:0:
12,98,11452,1,0,3:0:0:0:
161,154,11952,2,0,P|188:221|144:303,1,160,2|2,0:0|0:0,0:0:0:0:
13,233,12952,6,0,L|92:221,1,80,2|0,0:0|0:0,0:0:0:0:
136,153,13452,2,0,P|177:152|214:167,1,80,0|0,3:0|0:0,0:0:0:0:
262,103,13952,2,0,P|247:70|255:13,2,80,2|0|2,0:0|0:0|0:0,0:0:0:0:
323,154,14702,1,0,0:0:0:0:
277,219,14952,2,0,L|266:382,1,160,2|0,0:0|3:0,0:0:0:0:
115,324,15952,2,0,B|80:259|101:174|135:197|159:128|123:46,1,280,2|0,0:0|0:0,0:0:0:0:
127,56,16952,6,0,P|207:82|277:33,1,160,2|0,0:0|3:0,0:0:0:0:
346,27,17702,1,0,0:0:0:0:
404,83,17952,2,0,P|393:163|384:250,1,160,2|2,0:0|0:0,0:0:0:0:
278,357,18952,2,0,P|356:378|414:331,1,160,2|0,0:0|3:0,0:0:0:0:
257,266,19952,2,0,L|95:279,1,160,2|2,0:0|0:0,0:0:0:0:
48,215,20702,1,0,0:0:0:0:
92,148,20952,6,0,P|177:123|239:176,1,160,2|0,0:0|3:0,0:0:0:0:
350,54,21952,2,0,L|362:142,1,80,2|0,0:0|0:0,0:0:0:0:
428,176,22452,2,0,P|428:221|414:257,1,80,2|0,0:0|0:0,0:0:0:0:
345,292,22952,2,0,L|521:280,1,160,2|0,0:0|3:0,0:0:0:0:
354,200,23952,2,0,P|318:185|259:197,1,80,2|0,0:0|0:0,0:0:0:0:
210,143,24452,2,0,L|203:63,1,80,2|0,0:0|0:0,0:0:0:0:
159,205,24952,5,4,1:0:0:0:
23,120,25452,1,0,3:0:0:0:
77,61,25702,2,0,L|82:10,2,40,0|0|2,0:0|0:0|0:0,0:0:0:0:
133,117,26202,1,0,0:0:0:0:
133,117,26452,2,0,L|216:107,1,80,2|0,0:0|0:0,0:0:0:0:
230,98,26827,1,0,0:0:0:0:
248,91,26952,6,0,P|301:144|267:235,1,160,2|0,0:0|3:0,0:0:0:0:
233,282,27702,2,0,L|239:342,2,40,0|0|2,0:0|0:0|0:0,0:0:0:0:
165,238,28202,1,0,0:0:0:0:
106,292,28452,1,2,0:0:0:0:
45,239,28702,1,0,0:0:0:0:
42,237,28827,1,0,0:0:0:0:
39,235,28952,6,0,P|33:195|53:151,1,80,2|0,0:0|0:0,0:0:0:0:
108,107,29452,2,0,P|114:67|94:23,1,80,0|0,3:0|0:0,0:0:0:0:
82,22,29827,1,0,0:0:0:0:
64,11,29952,2,0,P|149:33|214:-1,1,160,2|2,0:0|0:0,0:0:0:0:
265,60,30702,1,0,0:0:0:0:
268,62,30827,1,0,0:0:0:0:
271,64,30952,6,0,L|264:150,1,80,2|0,0:0|0:0,0:0:0:0:
196,185,31452,2,0,L|202:264,1,80,0|0,3:0|0:0,0:0:0:0:
265,313,31952,2,0,P|195:344|131:302,1,160,2|2,0:0|0:0,0:0:0:0:
71,249,32702,1,0,0:0:0:0:
74,247,32827,1,0,0:0:0:0:
76,244,32952,6,0,P|93:207|86:156,1,80,4|0,1:0|0:0,0:0:0:0:
45,102,33452,1,0,3:0:0:0:
109,54,33702,2,0,L|112:-2,2,40,0|0|2,0:0|0:0|0:0,0:0:0:0:
156,121,34202,1,0,0:0:0:0:
156,121,34452,2,0,L|241:112,1,80,2|0,0:0|0:0,0:0:0:0:
288,52,34952,6,0,P|248:118|278:189,1,160,2|0,0:0|3:0,0:0:0:0:
351,155,35702,1,0,0:0:0:0:
395,220,35952,2,0,L|388:299,1,80,2|0,0:0|0:0,0:0:0:0:
446,159,36452,2,0,L|439:79,1,80,2|0,0:0|0:0,0:0:0:0:
496,219,36952,5,6,0:0:0:0:
369,317,37452,2,0,L|365:359,2,40,0|0|0,3:0|3:0|3:0,0:0:0:0:
333,245,37952,1,2,3:0:0:0:
194,324,38452,1,2,3:0:0:0:
192,327,38577,1,0,3:0:0:0:
190,330,38702,1,0,3:0:0:0:
152,259,38952,5,4,1:2:0:0:
256,192,39077,12,0,42452,0:0:0:0:
