osu file format v14

[General]
AudioFilename: audio.mp3
AudioLeadIn: 0
PreviewTime: 36028
Countdown: 0
SampleSet: Soft
StackLeniency: 0.7
Mode: 0
LetterboxInBreaks: 0
WidescreenStoryboard: 0

[Editor]
DistanceSpacing: 1
BeatDivisor: 4
GridSize: 8
TimelineZoom: 2.1

[Metadata]
Title:she is a witch
TitleUnicode:she is a witch
Artist:Yuki Kajiura
ArtistUnicode:梶浦由記
Creator:-Light-
Version:Oktavia von Seckendorff
Source:魔法少女まどか★マギカ
Tags:Puella Magi Madoka Magica sayaka miki 美樹 さやか
BeatmapID:1543808
BeatmapSetID:731567

[Difficulty]
HPDrainRate:5
CircleSize:5
OverallDifficulty:7
ApproachRate:8
SliderMultiplier:3
SliderTickRate:1

[Events]
//Background and Video events
0,0,"Konachan.com - 149084 sample.jpg",0,0
//Break Periods
//Storyboard Layer 0 (Background)
//Storyboard Layer 1 (Fail)
//Storyboard Layer 2 (Pass)
//Storyboard Layer 3 (Foreground)
//Storyboard Sound Samples

[TimingPoints]
1735,428.571428571429,5,2,1,20,1,0
1735,-200,5,2,1,20,0,0
13306,-133.333333333333,5,2,1,30,0,0
15020,-200,5,2,1,20,0,0
18877,-133.333333333333,5,2,1,30,0,0
27877,-117.647058823529,5,2,1,30,0,0
36028,428.571428571429,5,2,1,45,1,0
36028,-100,5,2,1,45,0,0
40313,-80,5,2,1,45,0,0
40956,-100,5,2,1,45,0,0
44599,-80,5,2,1,45,0,0
45242,-100,5,2,1,45,0,0
48885,-80,5,2,1,45,0,0
49528,-100,5,2,1,45,0,0
52313,-80,5,2,1,45,0,0
55313,-80,5,2,1,45,0,0
74599,-66.6666666666667,5,2,1,45,0,0
75028,-57.1428571428571,5,2,1,45,0,0
75456,-50,5,2,1,45,0,0

[Colours]
Combo1 : 217,233,75
Combo2 : 30,228,234
Combo3 : 43,94,230
Combo4 : 71,237,71

[HitObjects]
133,75,1735,5,6,0:0:0:0:
264,212,2485,5,0,0:0:0:0:
270,221,2699,2,0,B|260:334|260:334|240:304,2,150
317,120,4520,5,0,0:0:0:0:
325,128,4735,2,0,B|438:109|438:109|406:82,2,150
131,47,6020,5,8,0:0:0:0:
70,187,6663,5,0,0:0:0:0:
65,197,6877,2,0,P|78:250|64:317,1,112.5
51,383,7306,2,0,B|100:367|100:367|205:374,1,150
327,320,8163,5,2,0:0:0:0:
408,214,8592,6,0,B|409:185|422:161|422:161|411:136|415:95|415:95|431:123,3,150
286,36,10306,5,6,0:0:0:0:
145,178,10735,1,0,0:0:0:0:
180,243,11163,6,0,B|221:231|221:231|334:251,2,150
92,365,12449,5,0,0:0:0:0:
35,159,12877,6,0,P|88:163|134:117,1,112.5
104,52,13306,2,0,B|185:24|182:88|266:62,1,168.750006437302
347,24,13735,6,0,B|378:83|359:170|329:201|298:190|284:155|293:137|315:136,2,225.000008583069
450,250,15020,6,0,P|405:234|340:257,1,112.5
299,311,15449,2,0,B|258:294|258:294|181:301,1,112.5
98,356,15877,2,0,P|119:283|76:223,2,150
193,70,17163,5,0,0:0:0:0:
233,138,17592,2,0,B|256:228|197:195|226:301,2,150
430,66,18877,6,0,P|403:35|380:133,2,225.000008583069,6|0|0,0:0|0:0|0:0,0:0:0:0:
501,233,20163,2,0,B|471:244|471:244|269:199,1,225.000008583069
71,58,21020,6,0,P|134:44|227:154,1,225.000008583069
151,282,21663,1,0,0:0:0:0:
133,303,21877,2,0,B|109:246|109:246|122:140,1,168.750006437302
171,74,22306,6,0,P|247:101|328:54,1,168.750006437302
396,136,22735,2,0,P|334:188|334:281,1,168.750006437302
407,360,23163,6,0,B|293:311|301:410|170:348,1,225.000008583069
214,173,23806,2,0,P|234:222|234:296,2,112.500004291535
60,249,24449,2,0,P|26:192|67:93,1,168.750006437302
128,33,24877,2,0,B|142:78|142:78|126:206,1,168.750006437302
131,283,25306,6,0,P|188:264|240:283,1,112.500004291535
317,342,25627,1,0,0:0:0:0:
317,342,25735,6,0,B|306:289|306:289|327:166,1,168.750006437302
379,114,26163,1,0,0:0:0:0:
436,269,26592,1,0,0:0:0:0:
239,374,27020,1,0,0:0:0:0:
108,217,27449,6,0,B|102:164|102:164|134:22,1,168.750006437302,6|0,0:0|0:0,0:0:0:0:
194,106,27877,6,0,P|256:171|351:128,1,191.250003647804
445,71,28306,2,0,B|426:121|426:121|440:267,1,191.250003647804
384,334,28735,2,0,B|237:288|285:399|132:336,2,255.000004863739,0|0|8,0:0|0:0|0:0,0:0:0:0:
208,274,30020,6,0,P|182:209|219:94,1,191.250003647804
178,0,30449,2,0,P|134:55|16:80,1,191.250003647804
24,177,30877,2,0,B|161:139|136:244|288:186,2,255.000004863739
263,376,32163,6,0,B|236:279|310:297|269:190,1,191.250003647804
185,121,32592,2,0,P|234:89|351:133,1,191.250003647804
384,244,33020,2,0,B|340:268|340:268|133:239,2,255.000004863739
84,64,34306,5,0,0:0:0:0:
67,51,34520,2,0,L|72:187,2,127.50000243187
34,271,35163,2,0,P|88:241|213:289,1,191.250003647804
216,352,35592,2,0,B|202:298|202:298|226:154,1,191.250003647804
344,74,36028,6,0,B|236:38|246:133|114:87|114:87|143:69|182:83,1,300,6|0,0:0|0:0,0:0:0:0:
299,150,36670,2,0,P|325:209|294:311,1,150,2|0,0:0|0:0,0:0:0:0:
167,368,37099,1,2,0:0:0:0:
41,207,37313,6,0,L|118:197,1,75,2|0,0:0|0:0,0:0:0:0:
218,279,37528,2,0,L|143:269,1,75,2|0,0:0|0:0,0:0:0:0:
32,203,37742,2,0,L|201:181,1,150,2|0,0:0|0:0,0:0:0:0:
497,87,38170,6,0,B|427:109|427:109|263:68,1,225,6|0,0:0|0:0,0:0:0:0:
177,41,38599,2,0,P|158:113|185:189,1,150,2|0,0:0|0:0,0:0:0:0:
360,329,39028,2,0,P|382:258|363:187,1,150,2|0,0:0|0:0,0:0:0:0:
251,369,39456,6,0,B|258:330|258:330|256:283,1,75,2|0,0:0|0:0,0:0:0:0:
132,236,39670,2,0,B|130:271|130:271|137:310,1,75,2|0,0:0|0:0,0:0:0:0:
256,375,39885,2,0,B|266:329|266:329|262:221,1,150,2|0,0:0|0:0,0:0:0:0:
34,79,40313,6,0,B|193:17|138:151|327:87|327:87|301:69|263:79,1,375,6|0,0:0|0:0,0:0:0:0:
107,146,40956,2,0,P|94:215|119:306,1,150,2|0,0:0|0:0,0:0:0:0:
256,375,41385,1,2,0:0:0:0:
410,190,41599,6,0,L|326:177,1,75,2|0,0:0|0:0,0:0:0:0:
218,261,41813,2,0,L|292:249,1,75,2|0,0:0|0:0,0:0:0:0:
420,186,42028,2,0,L|261:162,1,150,2|0,0:0|0:0,0:0:0:0:
51,42,42456,6,0,B|88:83|88:83|71:262,1,225,6|0,0:0|0:0,0:0:0:0:
162,345,42885,2,0,B|133:372|133:372|146:246,1,150,2|0,0:0|0:0,0:0:0:0:
174,57,43313,2,0,B|296:37|273:107|401:72,1,225,2|0,0:0|0:0,0:0:0:0:
490,158,43742,6,0,P|485:194|490:232,1,75,2|0,0:0|0:0,0:0:0:0:
345,370,43956,2,0,P|350:332|345:295,1,75,2|0,0:0|0:0,0:0:0:0:
219,140,44170,2,0,P|208:214|218:288,1,150,2|0,0:0|0:0,0:0:0:0:
453,45,44599,6,0,B|316:10|337:113|176:57|176:57|221:9|259:54,1,375,6|0,0:0|0:0,0:0:0:0:
361,123,45242,2,0,P|299:149|181:116,1,150,2|0,0:0|0:0,0:0:0:0:
56,50,45670,1,2,0:0:0:0:
64,197,45885,6,0,L|69:278,1,75,2|0,0:0|0:0,0:0:0:0:
194,361,46099,2,0,L|198:286,1,75,2|0,0:0|0:0,0:0:0:0:
57,188,46313,2,0,L|67:352,1,150,2|0,0:0|0:0,0:0:0:0:
310,250,46742,6,0,B|282:174|282:174|303:5,1,225,6|0,0:0|0:0,0:0:0:0:
405,98,47170,2,0,P|364:140|415:208,1,150,2|0,0:0|0:0,0:0:0:0:
359,357,47599,2,0,L|197:331,1,150,2|0,0:0|0:0,0:0:0:0:
58,142,48028,6,0,B|91:138|91:138|144:149,1,75,2|0,0:0|0:0,0:0:0:0:
200,263,48242,2,0,B|167:267|167:267|114:256,1,75,2|0,0:0|0:0,0:0:0:0:
50,135,48456,2,0,B|92:128|92:128|198:147,1,150,2|0,0:0|0:0,0:0:0:0:
341,384,48885,6,0,B|324:305|324:305|363:12,1,375,6|0,0:0|0:0,0:0:0:0:
406,232,49528,2,0,P|360:249|264:216,1,150,2|0,0:0|0:0,0:0:0:0:
184,62,49956,1,2,0:0:0:0:
362,13,50170,6,0,L|351:96,1,75,2|0,0:0|0:0,0:0:0:0:
190,225,50385,2,0,L|199:150,1,75,2|0,0:0|0:0,0:0:0:0:
370,2,50599,2,0,L|349:158,1,150,2|0,0:0|0:0,0:0:0:0:
282,357,51028,6,0,B|168:299|180:411|55:340,1,225,6|0,0:0|0:0,0:0:0:0:
9,294,51456,1,2,0:0:0:0:
121,78,51670,2,0,B|154:39|154:39|127:293,1,300,2|0,0:0|0:0,0:0:0:0:
240,70,52313,6,0,P|303:35|390:246,2,375,6|6|2,0:0|0:0|0:0,0:0:0:0:
481,291,55313,6,0,B|422:257|326:281|326:281|235:365|48:314|48:314|100:277|157:314,1,562.5,14|0,0:0|0:0,0:0:0:0:
366,57,56170,2,0,P|397:116|333:210,1,187.5,2|0,0:0|0:0,0:0:0:0:
74,113,56599,6,0,B|122:90|122:90|280:114,1,187.5,10|0,0:0|0:0,0:0:0:0:
400,335,57028,2,0,B|352:358|352:358|219:337,1,187.5,10|0,0:0|0:0,0:0:0:0:
354,0,57456,2,0,L|333:284,1,281.25,6|0,0:0|0:0,0:0:0:0:
219,337,57885,6,0,B|235:258|235:258|195:136|195:136|175:60|206:-12|206:-12|298:49|219:178,1,562.5,14|0,0:0|0:0,0:0:0:0:
89,289,58742,2,0,P|61:215|80:102,1,187.5,2|0,0:0|0:0,0:0:0:0:
325,79,59170,1,8,0:0:0:0:
372,211,59385,2,0,P|345:123|427:32,2,187.5,2|0|0,0:0|0:0|0:0,0:0:0:0:
452,370,60028,6,0,P|384:317|201:368,1,281.25,2|0,0:0|0:0,0:0:0:0:
86,383,60456,6,0,B|134:302|134:302|103:16,1,375,14|0,0:0|0:0,0:0:0:0:
31,207,61099,1,2,0:0:0:0:
198,240,61313,2,0,L|387:210,1,187.5,2|0,0:0|0:0,0:0:0:0:
261,22,61742,6,0,P|231:94|251:210,1,187.5,10|0,0:0|0:0,0:0:0:0:
460,297,62170,2,0,P|476:205|444:118,1,187.5,10|0,0:0|0:0,0:0:0:0:
117,336,62599,2,0,B|276:300|225:404|400:348,1,281.25,2|0,0:0|0:0,0:0:0:0:
385,274,63028,6,0,P|300:290|299:77,1,375,14|0,0:0|0:0,0:0:0:0:
456,192,63670,1,2,0:0:0:0:
311,185,63885,2,0,L|119:157,1,187.5,2|0,0:0|0:0,0:0:0:0:
91,17,64313,1,10,0:0:0:0:
210,47,64528,1,2,0:0:0:0:
252,218,64742,1,10,0:0:0:0:
116,344,64956,6,0,B|131:253|131:253|124:138,2,187.5,14|10|2,0:0|0:0|0:0,0:0:0:0:
39,99,65599,6,0,B|240:27|212:202|466:116|466:116|414:64|347:130,1,562.5,14|0,0:0|0:0,0:0:0:0:
383,363,66456,2,0,P|436:298|395:199,1,187.5,2|0,0:0|0:0,0:0:0:0:
151,277,66885,6,0,B|194:292|194:292|336:277,1,187.5,10|0,0:0|0:0,0:0:0:0:
249,62,67313,2,0,B|206:47|206:47|64:62,1,187.5,10|0,0:0|0:0,0:0:0:0:
295,147,67742,2,0,P|377:169|316:46,1,281.25,2|0,0:0|0:0,0:0:0:0:
249,62,68170,6,0,B|208:110|208:110|247:218|219:357|219:357|190:331|199:289,1,375,14|0,0:0|0:0,0:0:0:0:
305,236,68813,1,2,0:0:0:0:
486,348,69028,6,0,B|456:364|456:364|268:344,1,187.5,8|0,0:0|0:0,0:0:0:0:
112,146,69456,2,0,B|142:130|142:130|330:150,1,187.5,8|0,0:0|0:0,0:0:0:0:
123,260,69885,1,2,0:0:0:0:
123,260,70099,1,2,0:0:0:0:
31,50,70313,2,0,B|185:10|153:108|332:58,1,281.25,2|0,0:0|0:0,0:0:0:0:
429,25,70742,6,0,B|309:148|436:314|436:314|446:285|428:247,1,375,14|0,0:0|0:0,0:0:0:0:
280,178,71385,1,2,0:0:0:0:
171,348,71599,2,0,L|365:316,1,187.5,2|0,0:0|0:0,0:0:0:0:
194,154,72028,6,0,P|139:142|99:371,1,375,14|0,0:0|0:0,0:0:0:0:
237,256,72670,1,2,0:0:0:0:
321,70,72885,2,0,B|264:53|264:53|130:70,1,187.5,2|0,0:0|0:0,0:0:0:0:
389,289,73313,6,0,B|399:195|399:195|390:107|390:107|406:5,1,281.25,14|0,0:0|0:0,0:0:0:0:
478,64,73742,1,2,0:0:0:0:
316,194,73956,1,2,0:0:0:0:
316,194,74170,2,0,P|252:170|273:306,1,281.25,10|0,0:0|0:0,0:0:0:0:
462,372,74599,6,0,B|357:351|357:351|271:394|271:394|119:361,1,337.500012874604,14|0,0:0|0:0,0:0:0:0:
0,188,75028,6,0,P|145:239|111:61,1,393.750003755093,14|0,0:0|0:0,0:0:0:0:
301,32,75456,6,0,B|262:98|262:98|280:389|280:389|360:350|360:350,1,450,14|0,0:0|0:0,0:0:0:0:
