osu file format v14

[General]
AudioFilename: audio.mp3
AudioLeadIn: 0
PreviewTime: 9896
Countdown: 0
SampleSet: Soft
StackLeniency: 0.7
Mode: 0
LetterboxInBreaks: 0
WidescreenStoryboard: 1

[Editor]
DistanceSpacing: 1.1
BeatDivisor: 4
GridSize: 4
TimelineZoom: 3.9

[Metadata]
Title:absolute configuration
TitleUnicode:absolute configuration
Artist:Yuki Kajiura
ArtistUnicode:梶浦由記
Creator:Lily Bread
Version:Normal
Source:劇場版 魔法少女まどか☆マギカ[新編]叛逆の物語
Tags:gekijouban mahou shoujo madoka magika shinhen hangyaku no monogatari movie the rebellion story
BeatmapID:1076579
BeatmapSetID:457805

[Difficulty]
HPDrainRate:3
CircleSize:3.5
OverallDifficulty:3
ApproachRate:5
SliderMultiplier:1.1
SliderTickRate:1

[Events]
//Background and Video events
0,0,"BG.png",0,0
//Break Periods
//Storyboard Layer 0 (Background)
//Storyboard Layer 1 (Fail)
//Storyboard Layer 2 (Pass)
//Storyboard Layer 3 (Foreground)
//Storyboard Sound Samples

[TimingPoints]
800,387.096774193548,3,2,1,35,1,0
10090,-100,3,2,1,45,0,0
28670,-100,3,2,0,45,0,0
28767,-100,3,2,1,45,0,0
37961,-100,3,2,0,45,0,0
38058,-100,3,2,1,45,0,0
44929,-100,3,2,0,45,0,0
45025,-100,3,2,1,45,0,0
54219,-100,3,2,0,45,0,0
54316,-100,3,2,1,45,0,0
63509,-100,3,2,0,45,0,0
63606,-100,3,2,1,45,0,0
82090,-100,3,2,0,45,0,0
82187,-100,3,2,1,45,0,0
91380,-100,3,2,0,45,0,0
91477,-100,3,2,1,45,0,0
114606,-100,3,2,0,45,0,0

[Colours]
Combo1 : 255,128,128
Combo2 : 223,223,0
Combo3 : 164,72,255
Combo4 : 0,240,0

[HitObjects]
88,72,800,6,0,P|40:144|64:196,1,110,4|2,0:0|0:0,0:0:0:0:
80,208,1380,2,0,L|88:332,1,110,8|2,0:0|0:0,0:0:0:0:
132,356,1961,2,0,P|208:368|252:344,2,110,2|2|2,0:0|0:0|0:0,0:0:0:0:
180,244,3122,6,0,L|176:124,1,110,2|2,0:0|0:0,0:0:0:0:
204,80,3703,2,0,P|268:60|320:84,1,110,8|2,0:0|0:0,0:0:0:0:
336,128,4283,2,0,L|348:248,2,110,2|2|2,0:0|0:0|0:0,0:0:0:0:
420,40,5445,6,0,P|476:72|496:144,1,110,2|2,0:0|0:0,0:0:0:0:
468,164,6025,2,0,L|472:296,1,110,8|2,0:0|0:0,0:0:0:0:
424,312,6606,2,0,P|356:340|288:316,2,110,2|2|2,0:0|0:0|0:0,0:0:0:0:
332,236,7767,6,0,P|252:252|220:292,1,110,2|0,0:0|0:0,0:0:0:0:
204,324,8348,2,0,L|80:336,1,110,8|2,0:0|0:0,0:0:0:0:
48,296,8929,6,0,P|20:236|76:128,1,165,8|8,0:0|0:0,0:0:0:0:
96,104,9703,1,8,0:0:0:0:
200,40,10090,2,0,P|208:144|184:168,1,110,4|0,0:0|0:0,0:0:0:0:
188,200,10670,1,8,0:0:0:0:
188,200,10864,2,0,L|192:312,2,110,0|2|2,0:0|0:0|0:0,0:0:0:0:
296,148,12025,1,2,0:0:0:0:
308,268,12412,6,0,P|361:262|401:226,1,110,2|2,0:0|0:0,0:0:0:0:
428,172,12993,1,8,0:0:0:0:
428,172,13187,2,0,L|432:48,1,110,2|2,0:0|0:0,0:0:0:0:
316,32,13961,2,0,P|256:32|192:52,1,110,2|2,0:0|0:0,0:0:0:0:
112,120,14735,6,0,L|100:240,1,110,2|0,0:0|0:0,0:0:0:0:
140,276,15316,1,8,0:0:0:0:
140,276,15509,2,0,P|200:300|248:292,2,110,0|2|2,0:0|0:0|0:0,0:0:0:0:
224,188,16670,2,0,L|296:188,2,55,2|2|4,0:0|0:0|0:0,0:0:0:0:
132,112,17445,6,0,L|64:112,2,55,0|8|2,0:0|0:0|0:0,0:0:0:0:
236,52,18219,1,2,0:0:0:0:
348,100,18606,2,0,P|399:117|452:107,1,110,2|2,0:0|0:0,0:0:0:0:
504,216,19380,6,0,L|440:332,1,110,4|2,0:0|0:0,0:0:0:0:
392,332,19961,1,8,0:0:0:0:
392,332,20154,2,0,P|328:324|264:340,2,110,2|2|2,0:0|0:0|0:0,0:0:0:0:
348,220,21316,1,2,0:0:0:0:
248,152,21703,6,0,P|228:216|248:272,1,110,4|2,0:0|0:0,0:0:0:0:
232,316,22283,1,8,0:0:0:0:
232,316,22477,2,0,P|168:344|124:328,1,110,0|2,0:0|0:0,0:0:0:0:
52,244,23251,2,0,L|40:124,1,110,2|2,0:0|0:0,0:0:0:0:
128,48,24025,6,0,P|208:40|256:60,1,110,4|2,0:0|0:0,0:0:0:0:
264,100,24606,1,8,0:0:0:0:
264,100,24799,2,0,L|288:216,2,110,0|2|2,0:0|0:0|0:0,0:0:0:0:
360,28,25961,2,0,L|428:28,2,55,2|2|4,0:0|0:0|0:0,0:0:0:0:
240,24,26735,6,0,L|156:24,2,55,2|8|2,0:0|0:0|0:0,0:0:0:0:
300,128,27509,1,2,0:0:0:0:
388,212,27896,2,0,P|324:240|276:236,1,110,2|0,0:0|0:0,0:0:0:0:
204,148,28670,5,4,0:0:0:0:
220,28,29058,2,0,P|144:40|108:68,1,110,2|0,0:0|0:0,0:0:0:0:
48,156,29832,1,2,0:0:0:0:
108,260,30219,2,0,P|155:286|210:289,1,110,2|2,0:0|0:0,0:0:0:0:
292,200,30993,5,2,0:0:0:0:
364,296,31380,2,0,P|418:292|466:266,2,110,2|0|2,0:0|0:0|0:0,0:0:0:0:
384,176,32541,2,0,L|376:52,1,110,2|2,0:0|0:0,0:0:0:0:
264,28,33316,5,2,0:0:0:0:
256,148,33703,2,0,P|188:120|160:84,1,110,2|0,0:0|0:0,0:0:0:0:
60,32,34477,1,2,0:0:0:0:
72,152,34864,2,0,L|80:272,2,110,2|2|2,0:0|0:0|0:0,0:0:0:0:
168,76,36025,5,2,0:0:0:0:
212,188,36412,1,0,0:0:0:0:
288,96,36799,2,0,P|372:88|420:128,1,110,2|2,0:0|0:0,0:0:0:0:
464,196,37574,1,0,0:0:0:0:
396,296,37961,5,4,0:0:0:0:
304,220,38348,2,0,P|232:204|184:224,1,110,2|0,0:0|0:0,0:0:0:0:
112,296,39122,1,2,0:0:0:0:
68,184,39509,2,0,L|68:64,1,110,2|2,0:0|0:0,0:0:0:0:
176,20,40283,5,2,0:0:0:0:
268,100,40670,2,0,L|384:112,2,110,2|0|2,0:0|0:0|0:0,0:0:0:0:
176,180,41832,1,2,0:0:0:0:
260,268,42219,1,2,0:0:0:0:
356,192,42606,6,0,L|464:176,2,110,2|0|0,0:0|0:0|0:0,0:0:0:0:
268,108,43767,1,2,0:0:0:0:
156,64,44154,2,0,P|149:127|175:172,1,110,2|2,0:0|0:0,0:0:0:0:
220,280,44929,6,0,P|120:280|88:296,1,110,4|2,0:0|0:0,0:0:0:0:
56,300,45509,2,0,L|24:180,1,110,8|2,0:0|0:0,0:0:0:0:
28,132,46090,2,0,L|28:8,2,110,2|2|2,0:0|0:0|0:0,0:0:0:0:
140,172,47251,6,0,P|208:160|240:120,1,110,2|2,0:0|0:0,0:0:0:0:
280,92,47832,2,0,P|344:80|388:92,1,110,8|0,0:0|0:0,0:0:0:0:
416,144,48412,2,0,L|440:256,2,110,2|2|2,0:0|0:0|0:0,0:0:0:0:
328,228,49574,6,0,P|272:272|228:276,1,110,2|2,0:0|0:0,0:0:0:0:
196,232,50154,2,0,L|140:124,1,110,8|0,0:0|0:0,0:0:0:0:
116,80,50735,2,0,P|48:52|12:64,2,110,2|2|2,0:0|0:0|0:0,0:0:0:0:
236,88,51896,6,0,P|316:64|352:80,1,110,2|0,0:0|0:0,0:0:0:0:
380,112,52477,2,0,L|424:248,1,110,8|0,0:0|0:0,0:0:0:0:
436,272,53058,1,2,0:0:0:0:
352,360,53445,1,8,0:0:0:0:
272,268,53832,1,0,0:0:0:0:
172,336,54219,6,0,L|108:336,1,55,4|0,0:0|0:0,0:0:0:0:
68,300,54606,1,2,0:0:0:0:
68,300,54799,2,0,P|44:232|56:188,1,110,8|0,0:0|0:0,0:0:0:0:
88,148,55380,2,0,L|96:24,2,110,2|2|2,0:0|0:0|0:0,0:0:0:0:
204,176,56541,6,0,L|288:176,1,55,4|2,0:0|0:0,0:0:0:0:
360,112,57122,2,0,P|380:172|364:224,1,110,8|0,0:0|0:0,0:0:0:0:
312,240,57703,2,0,P|301:293|320:343,2,110,2|2|2,0:0|0:0|0:0,0:0:0:0:
424,284,58864,6,0,L|460:216,1,55,2|0,0:0|0:0,0:0:0:0:
476,180,59251,1,2,0:0:0:0:
476,180,59445,2,0,P|488:128|476:48,1,110,8|0,0:0|0:0,0:0:0:0:
436,36,60025,2,0,P|352:20|312:40,2,110,2|2|2,0:0|0:0|0:0,0:0:0:0:
364,132,61187,6,0,L|328:212,1,55,4|2,0:0|0:0,0:0:0:0:
252,264,61767,2,0,P|168:248|128:268,1,110,8|0,0:0|0:0,0:0:0:0:
88,272,62348,2,0,P|49:233|36:180,2,110,2|2|2,0:0|0:0|0:0,0:0:0:0:
192,332,63509,6,0,L|256:332,2,55,4|0|0,0:0|0:0|0:0,0:0:0:0:
172,276,64090,2,0,L|172:136,1,110,8|0,0:0|0:0,0:0:0:0:
168,106,64670,2,0,P|96:90|40:118,2,110,2|2|2,0:0|0:0|0:0,0:0:0:0:
268,172,65832,6,0,L|336:172,1,55,4|2,0:0|0:0,0:0:0:0:
412,256,66412,2,0,P|444:204|444:144,1,110,8|0,0:0|0:0,0:0:0:0:
404,116,66993,2,0,L|400:-4,2,110,2|2|2,0:0|0:0|0:0,0:0:0:0:
292,156,68154,6,0,L|200:152,1,55,4|2,0:0|0:0,0:0:0:0:
116,148,68735,2,0,P|136:220|172:248,1,110,8|0,0:0|0:0,0:0:0:0:
214,272,69316,2,0,L|346:276,2,110
108,328,70477,5,4,0:0:0:0:
108,328,70670,2,0,P|48:276|36:240,2,110,2|8|0,0:0|0:0|0:0,0:0:0:0:
168,332,71638,1,8,0:0:0:0:
168,332,71832,2,0,P|247:334|279:355,2,110,0|2|0,0:0|0:0|0:0,0:0:0:0:
136,280,72799,6,0,L|136:196,1,55,4|0,0:0|0:0,0:0:0:0:
120,168,73187,1,0,0:0:0:0:
120,168,73380,2,0,P|188:144|232:156,1,110,8|0,0:0|0:0,0:0:0:0:
272,184,73961,2,0,L|328:308,2,110,2|2|2,0:0|0:0|0:0,0:0:0:0:
248,64,75122,6,0,L|224:8,1,55,4|2,0:0|0:0,0:0:0:0:
348,28,75703,2,0,L|392:144,1,110,8|0,0:0|0:0,0:0:0:0:
412,188,76283,2,0,P|422:241|403:291,2,110,2|2|2,0:0|0:0|0:0,0:0:0:0:
304,240,77445,6,0,L|232:252,1,55,2|0,0:0|0:0,0:0:0:0:
192,260,77832,1,0,0:0:0:0:
192,260,78025,2,0,P|137:264|83:252,1,110,8|0,0:0|0:0,0:0:0:0:
36,216,78606,2,0,P|25:162|44:111,2,110,2|2|2,0:0|0:0|0:0,0:0:0:0:
148,164,79767,6,0,L|184:84,1,55,4|2,0:0|0:0,0:0:0:0:
268,40,80348,2,0,P|352:51|391:29,1,110,8|0,0:0|0:0,0:0:0:0:
432,56,80929,2,0,L|488:176,2,110,2|2|2,0:0|0:0|0:0,0:0:0:0:
336,132,82090,6,0,L|272:132,2,55,4|0|0,0:0|0:0|0:0,0:0:0:0:
376,176,82670,2,0,P|376:240|344:308,1,110,8|0,0:0|0:0,0:0:0:0:
376,340,83251,2,0,P|448:356|504:328,2,110,2|2|2,0:0|0:0|0:0,0:0:0:0:
260,300,84412,6,0,L|192:300,1,55,4|2,0:0|0:0,0:0:0:0:
100,360,84993,2,0,P|82:308|91:254,1,110,8|0,0:0|0:0,0:0:0:0:
124,204,85574,2,0,L|136:76,2,110,2|2|2,0:0|0:0|0:0,0:0:0:0:
244,220,86735,6,0,L|320:212,1,55,4|2,0:0|0:0,0:0:0:0:
420,216,87316,2,0,P|400:144|364:116,1,110,8|0,0:0|0:0,0:0:0:0:
320,100,87896,2,0,P|260:108|188:96,2,110,2|0|0,0:0|0:0|0:0,0:0:0:0:
428,48,89058,5,4,0:0:0:0:
428,48,89251,2,0,P|488:100|500:136,2,110,2|8|0,0:0|0:0|0:0,0:0:0:0:
368,32,90219,1,8,0:0:0:0:
368,32,90412,2,0,P|288:29|256:8,2,110,0|2|0,0:0|0:0|0:0,0:0:0:0:
392,88,91380,6,0,L|384:220,1,110,4|0,0:0|0:0,0:0:0:0:
348,248,91961,2,0,P|272:280|228:268,1,110,8|0,0:0|0:0,0:0:0:0:
196,244,92541,2,0,P|116:240|72:260,2,110,2|0|0,0:0|0:0|0:0,0:0:0:0:
264,144,93703,6,0,P|195:124|146:128,1,110,4|2,0:0|0:0,0:0:0:0:
108,160,94283,2,0,L|68:56,1,110,8|0,0:0|0:0,0:0:0:0:
124,32,94864,2,0,P|172:16|248:32,2,110,2|0|0,0:0|0:0|0:0,0:0:0:0:
204,120,96025,6,0,P|257:127|310:111,1,110,4|2,0:0|0:0,0:0:0:0:
348,64,96606,2,0,P|396:48|472:64,1,110,8|2,0:0|0:0,0:0:0:0:
476,112,97187,2,0,L|492:240,1,110,0|0,0:0|0:0,0:0:0:0:
432,328,97961,1,0,0:0:0:0:
336,256,98348,6,0,L|252:252,1,55,4|0,0:0|0:0,0:0:0:0:
220,260,98735,1,0,0:0:0:0:
220,260,98929,2,0,P|156:260|92:240,1,110,8|0,0:0|0:0,0:0:0:0:
64,212,99509,2,0,L|40:96,1,110,2|2,0:0|0:0,0:0:0:0:
148,48,100283,2,0,L|228:48,1,55,2|0,0:0|0:0,0:0:0:0:
264,36,100670,6,0,P|324:52|360:88,1,110,4|0,0:0|0:0,0:0:0:0:
368,144,101251,2,0,L|376:268,1,110,8|0,0:0|0:0,0:0:0:0:
392,312,101832,2,0,P|448:352|496:352,2,110,0|0|0,0:0|0:0|0:0,0:0:0:0:
276,276,102993,6,0,P|196:264|160:280,1,110,4|2,0:0|0:0,0:0:0:0:
112,272,103574,2,0,L|56:164,1,110,4|0,0:0|0:0,0:0:0:0:
52,116,104154,2,0,P|72:72|136:36,2,110,0|0|0,0:0|0:0|0:0,0:0:0:0:
156,176,105316,6,0,P|232:176|280:164,1,110,4|0,0:0|0:0,0:0:0:0:
284,112,105896,2,0,P|338:102|392:104,1,110,8|0,0:0|0:0,0:0:0:0:
428,152,106477,2,0,L|448:264,1,110,0|0,0:0|0:0,0:0:0:0:
384,364,107251,1,0,0:0:0:0:
300,280,107638,6,0,P|228:280|188:320,1,110,4|0,0:0|0:0,0:0:0:0:
156,344,108219,2,0,P|103:357|53:337,1,110,8|0,0:0|0:0,0:0:0:0:
28,284,108799,2,0,L|12:168,2,110,2|2|2,0:0|0:0|0:0,0:0:0:0:
104,188,109961,6,0,P|160:152|208:152,1,110,4|2,0:0|0:0,0:0:0:0:
248,188,110541,2,0,P|300:202|352:188,1,110,8|0,0:0|0:0,0:0:0:0:
408,164,111122,2,0,P|439:119|444:65,1,110,8|2,0:0|0:0,0:0:0:0:
392,36,111703,2,0,L|264:24,1,110,8|2,0:0|0:0,0:0:0:0:
224,44,112283,6,0,P|168:80|120:80,1,110,4|2,0:0|0:0,0:0:0:0:
72,56,112864,2,0,L|36:180,1,110,8|2,0:0|0:0,0:0:0:0:
76,208,113445,2,0,P|168:204|212:232,1,110,8|2,0:0|0:0,0:0:0:0:
212,264,114025,2,0,L|284:264,2,55,8|8|8,0:0|0:0|0:0,0:0:0:0:
156,288,114606,5,4,0:0:0:0:
