osu file format v14

[General]
AudioFilename: audio.mp3
AudioLeadIn: 0
PreviewTime: 9896
Countdown: 0
SampleSet: Soft
StackLeniency: 0.7
Mode: 0
LetterboxInBreaks: 0
WidescreenStoryboard: 0

[Editor]
DistanceSpacing: 1.4
BeatDivisor: 4
GridSize: 4
TimelineZoom: 3.4

[Metadata]
Title:absolute configuration
TitleUnicode:absolute configuration
Artist:Yuki Kajiura
ArtistUnicode:梶浦由記
Creator:Lily Bread
Version:Insane
Source:劇場版 魔法少女まどか☆マギカ[新編]叛逆の物語
Tags:gekijouban mahou shoujo madoka magika shinhen hangyaku no monogatari movie the rebellion story
BeatmapID:1088962
BeatmapSetID:457805

[Difficulty]
HPDrainRate:6
CircleSize:4
OverallDifficulty:7
ApproachRate:9
SliderMultiplier:1.8
SliderTickRate:1

[Events]
//Background and Video events
0,0,"BG.png",0,0
//Break Periods
//Storyboard Layer 0 (Background)
//Storyboard Layer 1 (Fail)
//Storyboard Layer 2 (Pass)
//Storyboard Layer 3 (Foreground)
//Storyboard Sound Samples

[TimingPoints]
800,387.096774193548,3,2,1,35,1,0
10090,-100,3,2,1,45,0,0
28670,-100,3,2,0,45,0,0
28767,-100,3,2,1,45,0,0
37961,-100,3,2,0,45,0,0
38058,-100,3,2,1,45,0,0
44929,-100,3,2,0,45,0,0
45025,-100,3,2,1,45,0,0
54219,-100,3,2,0,45,0,0
54316,-100,3,2,1,45,0,0
63509,-100,3,2,0,45,0,0
63606,-100,3,2,1,45,0,0
82090,-100,3,2,0,45,0,0
82187,-100,3,2,1,45,0,0
91380,-100,3,2,0,45,0,0
91477,-100,3,2,1,45,0,0
114606,-100,3,2,0,45,0,0

[Colours]
Combo1 : 255,128,128
Combo2 : 223,223,0
Combo3 : 164,72,255
Combo4 : 0,240,0

[HitObjects]
32,120,800,6,0,P|64:92|124:84,1,90,4|0,0:0|0:0,0:0:0:0:
116,208,1187,1,2,0:0:0:0:
193,293,1380,2,0,P|159:322|116:332,1,90,8|0,0:0|0:0,0:0:0:0:
256,184,1767,1,2,0:0:0:0:
256,56,1961,1,2,0:0:0:0:
256,36,2348,1,2,0:0:0:0:
256,16,2735,1,2,0:0:0:0:
402,82,3122,6,0,P|446:91|480:120,1,90,2|0,0:0|0:0,0:0:0:0:
396,208,3509,1,2,0:0:0:0:
395,332,3703,2,0,P|351:321|318:293,1,90,8|0,0:0|0:0,0:0:0:0:
256,184,4090,1,2,0:0:0:0:
192,293,4283,1,2,0:0:0:0:
356,173,4477,1,0,0:0:0:0:
153,173,4670,1,2,0:0:0:0:
318,293,4864,1,0,0:0:0:0:
255,99,5058,2,0,L|256:4,1,90,2|0,0:0|0:0,0:0:0:0:
153,173,5445,6,0,P|144:232|112:276,2,90,2|0|2,0:0|0:0|0:0,0:0:0:0:
359,173,6025,2,0,P|368:232|400:276,2,90,8|0|2,0:0|0:0|0:0,0:0:0:0:
256,244,6606,1,2,0:0:0:0:
256,264,6993,1,2,0:0:0:0:
256,288,7380,2,0,L|256:384,1,90,2|0,0:0|0:0,0:0:0:0:
471,262,7767,6,0,P|419:266|355:242,1,90,2|0,0:0|0:0,0:0:0:0:
256,192,8154,1,0,0:0:0:0:
40,261,8348,2,0,P|85:266|129:256,1,90,8|0,0:0|0:0,0:0:0:0:
211,114,8735,1,2,0:0:0:0:
301,269,8929,1,8,0:0:0:0:
166,191,9122,1,0,0:0:0:0:
301,114,9316,1,2,0:0:0:0:
211,269,9509,1,8,0:0:0:0:
341,192,9703,1,8,0:0:0:0:
312,192,9799,1,0,0:0:0:0:
284,192,9896,1,2,0:0:0:0:
256,192,9993,1,0,0:0:0:0:
228,192,10090,6,0,L|100:192,1,90,4|0,0:0|0:0,0:0:0:0:
32,112,10477,1,0,0:0:0:0:
120,276,10670,1,8,0:0:0:0:
212,112,10864,2,0,P|256:104|320:120,1,90,0|0,0:0|0:0,0:0:0:0:
392,276,11251,1,2,0:0:0:0:
480,112,11445,1,2,0:0:0:0:
256,28,11638,1,2,0:0:0:0:
388,176,11832,1,2,0:0:0:0:
124,176,12025,1,2,0:0:0:0:
256,312,12219,1,8,0:0:0:0:
140,268,12412,6,0,P|60:252|32:156,1,180,2|2,0:0|0:0,0:0:0:0:
176,112,12993,1,8,0:0:0:0:
256,212,13187,1,2,0:0:0:0:
336,112,13380,1,0,0:0:0:0:
196,36,13574,2,0,P|144:41|100:86,1,90,2|0,0:0|0:0,0:0:0:0:
316,36,13961,2,0,P|367:41|411:86,1,90,2|0,0:0|0:0,0:0:0:0:
256,167,14348,2,0,L|256:264,1,90,2|0,0:0|0:0,0:0:0:0:
372,268,14735,6,0,P|452:252|480:156,1,180,2|0,0:0|0:0,0:0:0:0:
336,192,15316,1,8,0:0:0:0:
256,257,15509,1,0,0:0:0:0:
176,192,15703,1,0,0:0:0:0:
172,304,15896,2,0,L|56:328,1,90,2|0,0:0|0:0,0:0:0:0:
340,304,16283,2,0,L|456:328,1,90,2|0,0:0|0:0,0:0:0:0:
364,160,16670,1,2,0:0:0:0:
256,352,16864,1,2,0:0:0:0:
148,160,17058,5,4,0:0:0:0:
148,160,17445,1,0,0:0:0:0:
364,160,17638,1,8,0:0:0:0:
256,268,17832,2,0,L|256:152,1,90,2|0,0:0|0:0,0:0:0:0:
256,52,18219,1,2,0:0:0:0:
155,239,18606,2,0,P|112:228|77:201,1,90,2|0,0:0|0:0,0:0:0:0:
356,239,18993,2,0,P|399:228|434:201,1,90,2|0,0:0|0:0,0:0:0:0:
256,178,19380,6,0,L|256:308,1,90,4|0,0:0|0:0,0:0:0:0:
184,348,19767,1,2,0:0:0:0:
356,239,19961,1,8,0:0:0:0:
212,92,20154,2,0,P|256:80|304:92,1,90,2|0,0:0|0:0,0:0:0:0:
156,239,20541,1,2,0:0:0:0:
328,348,20735,1,2,0:0:0:0:
256,178,20929,1,2,0:0:0:0:
256,352,21122,1,2,0:0:0:0:
356,239,21316,1,2,0:0:0:0:
184,348,21509,1,2,0:0:0:0:
400,260,21703,6,0,P|432:160|408:80,1,180,4|2,0:0|0:0,0:0:0:0:
304,32,22283,1,8,0:0:0:0:
256,152,22477,2,0,P|208:128|188:84,1,90,0|0,0:0|0:0,0:0:0:0:
73,97,22864,2,0,P|48:134|8:152,1,90,2|0,0:0|0:0,0:0:0:0:
8,272,23251,2,0,P|48:289|73:326,1,90,2|0,0:0|0:0,0:0:0:0:
190,326,23638,2,0,P|215:289|256:272,1,90,2|0,0:0|0:0,0:0:0:0:
400,124,24025,6,0,P|431:207|413:294,1,180,4|2,0:0|0:0,0:0:0:0:
304,352,24606,1,8,0:0:0:0:
236,192,24799,2,0,L|146:192,1,90,0|0,0:0|0:0,0:0:0:0:
32,104,25187,2,0,L|136:92,1,90,2|0,0:0|0:0,0:0:0:0:
121,290,25574,2,0,L|32:280,1,90,2|0,0:0|0:0,0:0:0:0:
121,93,25961,1,2,0:0:0:0:
256,284,26154,1,2,0:0:0:0:
391,93,26348,5,4,0:0:0:0:
391,93,26735,1,2,0:0:0:0:
391,291,26929,1,8,0:0:0:0:
312,192,27122,2,0,L|402:192,1,90,2|0,0:0|0:0,0:0:0:0:
492,192,27509,1,2,0:0:0:0:
492,192,27896,2,0,L|384:192,1,90,2|0,0:0|0:0,0:0:0:0:
232,192,28283,1,0,0:0:0:0:
202,192,28380,1,0,0:0:0:0:
172,192,28477,1,0,0:0:0:0:
142,192,28574,1,0,0:0:0:0:
112,192,28670,6,0,L|16:192,1,90,4|0,0:0|0:0,0:0:0:0:
80,88,29058,1,2,0:0:0:0:
180,268,29251,1,8,0:0:0:0:
208,120,29445,2,0,P|256:116|304:120,1,90
432,88,29832,1,2,0:0:0:0:
432,88,30219,2,0,P|436:136|432:184,1,90,2|0,0:0|0:0,0:0:0:0:
308,312,30606,2,0,P|304:264|308:216,1,90,2|0,0:0|0:0,0:0:0:0:
432,296,30993,5,2,0:0:0:0:
432,296,31380,1,2,0:0:0:0:
332,116,31574,1,8,0:0:0:0:
304,264,31767,2,0,P|256:268|208:264,1,90
80,296,32154,1,2,0:0:0:0:
80,296,32541,2,0,P|76:248|80:200,1,90,2|0,0:0|0:0,0:0:0:0:
204,72,32929,2,0,P|208:120|204:168,1,90,2|0,0:0|0:0,0:0:0:0:
176,284,33316,5,2,0:0:0:0:
176,284,33703,1,2,0:0:0:0:
356,156,33896,1,8,0:0:0:0:
336,284,34090,2,0,P|380:282|421:264,1,90,0|0,0:0|0:0,0:0:0:0:
488,160,34477,1,2,0:0:0:0:
488,160,34864,2,0,L|476:56,1,90,2|0,0:0|0:0,0:0:0:0:
344,36,35251,2,0,L|352:140,1,90,2|0,0:0|0:0,0:0:0:0:
336,284,35638,5,2,0:0:0:0:
336,284,36025,1,2,0:0:0:0:
156,156,36219,1,8,0:0:0:0:
176,284,36412,2,0,P|131:282|90:264,1,90
24,160,36799,2,0,L|36:56,1,90,2|0,0:0|0:0,0:0:0:0:
168,36,37187,2,0,L|160:140,1,90,2|0,0:0|0:0,0:0:0:0:
280,213,37574,2,0,L|280:168,3,45
332,192,37961,6,0,L|448:192,1,90,4|0,0:0|0:0,0:0:0:0:
472,284,38348,1,2,0:0:0:0:
384,92,38541,1,8,0:0:0:0:
280,168,38735,2,0,P|233:156|180:125,2,90,0|0|2,0:0|0:0|0:0,0:0:0:0:
280,168,39509,2,0,P|305:130|307:63,1,90,2|0,0:0|0:0,0:0:0:0:
144,70,39896,2,0,P|118:107|116:174,1,90,2|0,0:0|0:0,0:0:0:0:
40,284,40283,5,2,0:0:0:0:
40,284,40670,1,2,0:0:0:0:
128,92,40864,1,8,0:0:0:0:
232,168,41058,2,0,P|278:156|331:125,2,90,0|0|2,0:0|0:0|0:0,0:0:0:0:
232,168,41832,2,0,P|206:130|204:63,1,90,2|0,0:0|0:0,0:0:0:0:
368,70,42219,2,0,P|393:107|395:174,1,90,2|0,0:0|0:0,0:0:0:0:
336,260,42606,5,2,0:0:0:0:
336,260,42993,1,0,0:0:0:0:
496,112,43187,2,0,P|484:56|456:4,1,90,8|0,0:0|0:0,0:0:0:0:
496,272,43574,2,0,P|484:328|456:380,1,90,0|2,0:0|0:0,0:0:0:0:
240,112,44154,2,0,P|252:56|280:4,1,90,2|0,0:0|0:0,0:0:0:0:
240,272,44541,2,0,P|252:328|280:380,1,90,2|0,0:0|0:0,0:0:0:0:
332,192,44929,6,0,L|148:192,1,180,4|2,0:0|0:0,0:0:0:0:
64,68,45509,2,0,P|100:44|160:44,1,90,8|0,0:0|0:0,0:0:0:0:
256,88,45896,1,2,0:0:0:0:
366,40,46090,2,0,P|410:43|448:68,1,90,2|0,0:0|0:0,0:0:0:0:
352,152,46477,2,0,L|340:264,1,90,2|0,0:0|0:0,0:0:0:0:
448,315,46864,2,0,P|410:340|366:343,1,90,2|0,0:0|0:0,0:0:0:0:
256,268,47251,6,0,L|256:80,1,180,2|2,0:0|0:0,0:0:0:0:
160,152,47832,1,8,0:0:0:0:
160,152,48025,2,0,L|169:241,1,90,2|0,0:0|0:0,0:0:0:0:
144,343,48412,2,0,P|100:339|63:315,1,90,2|0,0:0|0:0,0:0:0:0:
256,268,48799,2,0,L|256:168,1,90,2|0,0:0|0:0,0:0:0:0:
367,343,49187,2,0,P|411:339|449:315,1,90,2|0,0:0|0:0,0:0:0:0:
512,192,49574,6,0,L|328:192,1,180,2|2,0:0|0:0,0:0:0:0:
316,68,50154,1,8,0:0:0:0:
316,68,50348,2,0,L|444:36,1,90,2|0,0:0|0:0,0:0:0:0:
196,68,50735,2,0,L|68:36,1,90,2|0,0:0|0:0,0:0:0:0:
180,192,51122,2,0,L|90:192,1,90,2|0,0:0|0:0,0:0:0:0:
196,316,51509,2,0,L|68:348,1,90,2|0,0:0|0:0,0:0:0:0:
264,191,51896,6,0,P|345:159|427:191,1,180,2|0,0:0|0:0,0:0:0:0:
348,292,52477,1,8,0:0:0:0:
459,348,52670,2,0,P|475:306|470:261,1,90,2|0,0:0|0:0,0:0:0:0:
221,261,53058,2,0,P|216:306|232:348,1,90,2|0,0:0|0:0,0:0:0:0:
264,191,53445,2,0,P|304:173|333:138,1,90,8|0,0:0|0:0,0:0:0:0:
188,188,53832,1,0,0:0:0:0:
165,168,53929,1,0,0:0:0:0:
137,157,54025,1,0,0:0:0:0:
107,154,54122,1,0,0:0:0:0:
76,160,54219,6,0,P|36:178|7:213,1,90,4|0,0:0|0:0,0:0:0:0:
112,276,54606,1,2,0:0:0:0:
160,64,54799,1,8,0:0:0:0:
264,191,54993,2,0,P|304:173|333:138,1,90,0|0,0:0|0:0,0:0:0:0:
400,276,55380,1,2,0:0:0:0:
352,64,55574,1,2,0:0:0:0:
452,176,55767,1,2,0:0:0:0:
252,104,55961,1,2,0:0:0:0:
320,276,56154,1,2,0:0:0:0:
452,88,56348,1,2,0:0:0:0:
326,192,56541,6,0,L|202:192,1,90,4|2,0:0|0:0,0:0:0:0:
236,192,57122,2,0,L|32:193,1,180,8|0,0:0|0:0,0:0:0:0:
12,296,57703,2,0,P|56:328|112:336,1,90,2|0,0:0|0:0,0:0:0:0:
212,292,58090,2,0,P|256:288|320:296,1,90,2|0,0:0|0:0,0:0:0:0:
422,336,58477,2,0,P|464:323|500:296,1,90,2|0,0:0|0:0,0:0:0:0:
408,208,58864,6,0,L|376:116,1,90,2|0,0:0|0:0,0:0:0:0:
211,19,59251,2,0,P|255:11|300:19,1,90,2|8,0:0|0:0,0:0:0:0:
133,122,59638,2,0,L|104:208,1,90,0|0,0:0|0:0,0:0:0:0:
208,352,60025,1,2,0:0:0:0:
208,180,60219,1,2,0:0:0:0:
304,352,60412,1,2,0:0:0:0:
304,180,60606,1,2,0:0:0:0:
158,266,60799,1,2,0:0:0:0:
353,266,60993,1,2,0:0:0:0:
256,112,61187,6,0,L|256:8,1,90,4|2,0:0|0:0,0:0:0:0:
256,22,61767,2,0,P|156:6|56:34,1,180,8|0,0:0|0:0,0:0:0:0:
32,148,62348,2,0,P|36:196|20:244,1,90,2|0,0:0|0:0,0:0:0:0:
128,304,62735,2,0,L|128:214,1,90,2|0,0:0|0:0,0:0:0:0:
224,148,63122,2,0,P|220:196|236:244,1,90,2|0,0:0|0:0,0:0:0:0:
384,304,63509,6,0,L|384:214,1,90,4|0,0:0|0:0,0:0:0:0:
479,148,63896,2,0,P|475:192|487:235,1,90,0|8,0:0|0:0,0:0:0:0:
280,235,64283,2,0,P|292:192|288:148,1,90,0|0,0:0|0:0,0:0:0:0:
74,101,64670,1,2,0:0:0:0:
74,264,64864,1,2,0:0:0:0:
216,184,65058,1,2,0:0:0:0:
357,264,65251,1,2,0:0:0:0:
357,101,65445,1,2,0:0:0:0:
216,184,65638,1,2,0:0:0:0:
380,184,65832,6,0,L|496:184,1,90,4|2,0:0|0:0,0:0:0:0:
470,184,66412,2,0,P|487:271|470:359,1,180,8|0,0:0|0:0,0:0:0:0:
348,328,66993,2,0,L|252:308,1,90,2|0,0:0|0:0,0:0:0:0:
212,192,67380,2,0,L|324:192,1,90,2|0,0:0|0:0,0:0:0:0:
220,92,67767,2,0,L|124:72,1,90,2|0,0:0|0:0,0:0:0:0:
132,184,68154,6,0,L|16:184,1,90,4|2,0:0|0:0,0:0:0:0:
42,184,68735,2,0,P|24:271|41:359,1,180,8|0,0:0|0:0,0:0:0:0:
136,220,69316,1,0,0:0:0:0:
312,340,69509,1,0,0:0:0:0:
376,220,69703,1,0,0:0:0:0:
200,340,69896,1,0,0:0:0:0:
160,140,70090,1,0,0:0:0:0:
352,140,70283,1,0,0:0:0:0:
256,248,70477,6,0,L|256:128,1,90,4|2,0:0|0:0,0:0:0:0:
496,124,71058,2,0,P|460:44|372:0,1,180,8|0,0:0|0:0,0:0:0:0:
256,68,71638,2,0,L|256:176,1,90,8|0,0:0|0:0,0:0:0:0:
16,260,72219,1,2,0:0:0:0:
131,338,72412,2,0,L|131:383,3,45
176,356,72799,6,0,L|268:356,1,90,4|0,0:0|0:0,0:0:0:0:
408,280,73187,1,0,0:0:0:0:
220,156,73380,1,8,0:0:0:0:
278,279,73574,2,0,P|316:256|348:224,1,90,0|0,0:0|0:0,0:0:0:0:
192,72,73961,1,2,0:0:0:0:
352,120,74154,1,2,0:0:0:0:
200,256,74348,1,2,0:0:0:0:
360,156,74541,1,2,0:0:0:0:
176,224,74735,1,2,0:0:0:0:
368,192,74929,1,2,0:0:0:0:
188,180,75122,6,0,L|88:172,1,90,4|2,0:0|0:0,0:0:0:0:
98,172,75703,2,0,P|56:248|100:324,1,180,8|0,0:0|0:0,0:0:0:0:
220,344,76283,2,0,L|316:324,1,90,2|0,0:0|0:0,0:0:0:0:
356,208,76670,2,0,L|244:208,1,90,2|0,0:0|0:0,0:0:0:0:
348,108,77058,2,0,L|444:88,1,90,2|0,0:0|0:0,0:0:0:0:
164,108,77445,6,0,L|68:88,1,90,2|0,0:0|0:0,0:0:0:0:
211,19,77832,2,0,P|255:11|300:19,1,90,0|8,0:0|0:0,0:0:0:0:
246,208,78219,2,0,L|156:208,1,90,0|0,0:0|0:0,0:0:0:0:
296,294,78606,1,2,0:0:0:0:
296,122,78799,1,2,0:0:0:0:
392,294,78993,1,2,0:0:0:0:
392,122,79187,1,2,0:0:0:0:
246,208,79380,1,2,0:0:0:0:
441,208,79574,1,2,0:0:0:0:
296,122,79767,6,0,L|172:122,1,90,4|2,0:0|0:0,0:0:0:0:
206,122,80348,2,0,P|106:106|6:134,1,180,8|0,0:0|0:0,0:0:0:0:
158,200,80929,2,0,P|201:211|245:207,1,90,2|0,0:0|0:0,0:0:0:0:
320,58,81316,2,0,L|320:148,1,90,2|0,0:0|0:0,0:0:0:0:
479,200,81703,2,0,P|436:212|392:208,1,90,2|0,0:0|0:0,0:0:0:0:
320,352,82090,6,0,L|320:262,1,90,4|0,0:0|0:0,0:0:0:0:
428,136,82477,2,0,P|415:92|419:48,1,90,0|8,0:0|0:0,0:0:0:0:
208,136,82864,2,0,P|220:93|216:49,1,90,0|0,0:0|0:0,0:0:0:0:
84,84,83251,1,2,0:0:0:0:
186,212,83445,1,2,0:0:0:0:
25,236,83638,1,2,0:0:0:0:
96,168,83832,1,2,0:0:0:0:
199,293,84025,1,2,0:0:0:0:
258,141,84219,1,2,0:0:0:0:
216,262,84412,6,0,L|340:262,1,90,4|2,0:0|0:0,0:0:0:0:
306,262,84993,2,0,P|406:278|506:250,1,180,8|0,0:0|0:0,0:0:0:0:
472,120,85574,2,0,L|436:20,1,90,2|0,0:0|0:0,0:0:0:0:
340,184,85961,2,0,L|340:94,1,90,2|0,0:0|0:0,0:0:0:0:
208,120,86348,2,0,L|244:20,1,90,2|0,0:0|0:0,0:0:0:0:
132,184,86735,6,0,L|16:184,1,90,4|2,0:0|0:0,0:0:0:0:
42,184,87316,2,0,P|24:271|116:320,1,180,8|0,0:0|0:0,0:0:0:0:
188,240,87896,1,2,0:0:0:0:
252,360,88090,1,0,0:0:0:0:
428,240,88283,1,0,0:0:0:0:
364,360,88477,1,0,0:0:0:0:
212,160,88670,1,0,0:0:0:0:
308,288,88864,1,0,0:0:0:0:
396,160,89058,6,0,L|396:56,1,90,4|2,0:0|0:0,0:0:0:0:
88,62,89638,2,0,P|22:116|42:200,1,180,8|0,0:0|0:0,0:0:0:0:
168,192,90219,2,0,L|268:192,1,90,8|0,0:0|0:0,0:0:0:0:
480,312,90799,1,2,0:0:0:0:
412,216,90993,1,0,0:0:0:0:
390,195,91090,1,0,0:0:0:0:
379,167,91187,1,0,0:0:0:0:
379,137,91283,1,0,0:0:0:0:
392,108,91380,6,0,B|368:64|368:64|320:36,1,90,4|0,0:0|0:0,0:0:0:0:
248,160,91767,1,0,0:0:0:0:
152,76,91961,1,8,0:0:0:0:
128,224,92154,2,0,B|152:268|152:268|200:296,1,90,0|0,0:0|0:0,0:0:0:0:
360,308,92541,5,2,0:0:0:0:
268,212,92735,2,0,L|220:212,2,45,0|0|0,0:0|0:0|0:0,0:0:0:0:
360,116,93122,1,2,0:0:0:0:
472,152,93316,2,0,B|476:102|476:102|452:52,1,90,0|0,0:0|0:0,0:0:0:0:
276,128,93703,6,0,B|240:145|240:145|190:141,1,90,4|0,0:0|0:0,0:0:0:0:
72,36,94090,2,0,B|107:18|107:18|157:22,1,90,2|8,0:0|0:0,0:0:0:0:
112,136,94477,1,2,0:0:0:0:
280,52,94670,1,0,0:0:0:0:
296,200,94864,5,2,0:0:0:0:
392,120,95058,2,0,L|456:120,2,45,0|0|0,0:0|0:0|0:0,0:0:0:0:
408,244,95445,1,2,0:0:0:0:
276,128,95638,2,0,B|232:152|232:152|204:200,1,90,0|0,0:0|0:0,0:0:0:0:
120,312,96025,6,0,B|88:333|88:333|88:176,1,180,4|2,0:0|0:0,0:0:0:0:
292,52,96606,2,0,B|212:36|212:36|112:56,1,180,8|2,0:0|0:0,0:0:0:0:
204,148,97187,6,0,P|208:200|184:256,1,90,0|0,0:0|0:0,0:0:0:0:
308,204,97574,2,0,L|308:294,1,90,0|0,0:0|0:0,0:0:0:0:
412,148,97961,2,0,P|408:200|432:256,1,90,0|0,0:0|0:0,0:0:0:0:
488,120,98348,6,0,P|492:68|468:12,1,90,4|0,0:0|0:0,0:0:0:0:
368,84,98735,1,0,0:0:0:0:
368,84,98929,2,0,L|176:84,1,180,8|0,0:0|0:0,0:0:0:0:
76,140,99509,6,0,P|112:180|156:192,1,90,2|0,0:0|0:0,0:0:0:0:
272,176,99896,2,0,P|316:168|380:192,1,90,2|0,0:0|0:0,0:0:0:0:
312,296,100283,1,2,0:0:0:0:
436,280,100477,1,0,0:0:0:0:
272,176,100670,5,4,0:0:0:0:
443,120,100864,2,0,L|499:120,2,45
328,48,101251,1,8,0:0:0:0:
232,128,101445,2,0,P|186:135|116:120,1,90,0|0,0:0|0:0,0:0:0:0:
40,56,101832,5,0,0:0:0:0:
92,200,102025,1,0,0:0:0:0:
188,56,102219,1,0,0:0:0:0:
268,200,102412,2,0,P|308:152|256:56,1,180,2|2,0:0|0:0,0:0:0:0:
184,208,102993,6,0,P|208:260|256:280,1,90,4|0,0:0|0:0,0:0:0:0:
236,128,103380,1,2,0:0:0:0:
364,272,103574,2,0,P|399:245|414:204,1,90,4|0,0:0|0:0,0:0:0:0:
408,76,103961,2,0,L|408:28,2,45
512,176,104348,5,0,0:0:0:0:
360,148,104541,2,0,L|256:148,1,90
200,72,104929,2,0,L|312:72,1,90
432,184,105316,6,0,B|448:224|448:224|268:224,1,180,4|0,0:0|0:0,0:0:0:0:
110,214,105896,2,0,P|114:130|202:110,1,180,8|0,0:0|0:0,0:0:0:0:
212,232,106477,5,0,0:0:0:0:
202,264,106574,1,0,0:0:0:0:
181,290,106670,1,0,0:0:0:0:
152,307,106767,1,0,0:0:0:0:
120,316,106864,2,0,P|69:325|25:313,1,90
288,264,107251,2,0,P|339:255|383:267,1,90,0|0,0:0|0:0,0:0:0:0:
488,356,107638,5,4,0:0:0:0:
468,192,107832,2,0,L|468:72,1,90,0|0,0:0|0:0,0:0:0:0:
364,32,108219,1,8,0:0:0:0:
284,128,108412,2,0,B|316:148|316:148|388:144,1,90
364,32,108799,6,0,B|256:36|256:36|184:88,2,180,2|2|2,0:0|0:0|0:0,0:0:0:0:
367,151,109767,1,2,0:0:0:0:
367,151,109864,1,2,0:0:0:0:
367,151,109961,5,4,0:0:0:0:
248,192,110154,2,0,L|192:192,2,45,2|2|2,0:0|0:0|0:0,0:0:0:0:
344,276,110541,1,8,0:0:0:0:
220,288,110735,2,0,P|136:300|108:324,1,90,0|0,0:0|0:0,0:0:0:0:
20,356,111122,5,8,0:0:0:0:
32,232,111316,1,2,0:0:0:0:
32,232,111412,1,2,0:0:0:0:
32,232,111509,1,2,0:0:0:0:
156,200,111703,1,8,0:0:0:0:
64,112,111896,2,0,L|48:48,2,45,2|2|2,0:0|0:0|0:0,0:0:0:0:
252,96,112283,5,4,0:0:0:0:
284,228,112477,1,2,0:0:0:0:
284,228,112574,1,2,0:0:0:0:
284,228,112670,1,2,0:0:0:0:
424,140,112864,1,8,0:0:0:0:
352,36,113058,2,0,L|292:36,2,45,2|2|2,0:0|0:0|0:0,0:0:0:0:
328,148,113445,5,8,0:0:0:0:
448,252,113638,1,2,0:0:0:0:
448,252,113735,1,2,0:0:0:0:
448,252,113832,1,2,0:0:0:0:
260,336,114025,1,8,0:0:0:0:
216,136,114219,1,8,0:0:0:0:
424,140,114412,1,8,0:0:0:0:
392,344,114606,5,4,0:0:0:0:
