osu file format v14

[General]
AudioFilename: audio.mp3
AudioLeadIn: 0
PreviewTime: 134466
Countdown: 0
SampleSet: Normal
StackLeniency: 0.7
Mode: 3
LetterboxInBreaks: 0
SpecialStyle: 0
WidescreenStoryboard: 0

[Editor]
DistanceSpacing: 1.2
BeatDivisor: 4
GridSize: 4
TimelineZoom: 1.3

[Metadata]
Title:Sonata Magica
TitleUnicode:Sonata Magica
Artist:Yuki Kajiura
ArtistUnicode:Yuki Kajiura
Creator:Fantyful
Version:FF
Source:Mahou Shoujo Madoka Magica
Tags:Puella Magi Magical Girls
BeatmapID:1082818
BeatmapSetID:509150

[Difficulty]
HPDrainRate:5
CircleSize:4
OverallDifficulty:5
ApproachRate:5
SliderMultiplier:1.4
SliderTickRate:1

[Events]
//Background and Video events
0,0,"black-background.jpg",0,0
//Break Periods
//Storyboard Layer 0 (Background)
//Storyboard Layer 1 (Fail)
//Storyboard Layer 2 (Pass)
//Storyboard Layer 3 (Foreground)
//Storyboard Sound Samples

[TimingPoints]
10806,410.958904109589,4,1,0,100,1,0
10806,-100,4,1,0,15,0,0
20669,-100,4,1,0,30,0,0
21286,-100,4,1,0,20,0,0
21902,-100,4,1,0,30,0,0
22313,-100,4,1,0,20,0,0
23135,-100,4,1,0,30,0,0
23752,-100,4,1,0,20,0,0
26834,-100,4,1,0,30,0,0
27245,-100,4,1,0,20,0,0
30532,-100,4,1,0,30,0,0
30943,-100,4,1,0,20,0,0
31765,-100,4,1,0,30,0,0
31971,-100,4,1,0,20,0,0
32998,-100,4,1,0,30,0,0
33409,-100,4,1,0,20,0,0
34642,-100,4,1,0,30,0,0
35875,-100,4,1,0,20,0,0
36697,-100,4,1,0,30,0,0
36902,-100,4,1,0,20,0,0
37930,-100,4,1,0,30,0,0
38135,-100,4,1,0,20,0,0
39163,-100,4,1,0,30,0,0
39368,-100,4,1,0,20,0,0
40395,-100,4,1,0,30,0,0
40601,-100,4,1,0,20,0,0
41628,-100,4,1,0,30,0,0
42039,-100,4,1,0,20,0,0
43272,-100,4,1,0,30,0,0
43683,-100,4,1,0,20,0,0
44094,-100,4,1,0,35,0,0
45532,-100,4,1,0,25,0,0
45738,-100,4,1,0,35,0,0
45943,-100,4,1,0,25,0,0
46560,-100,4,1,0,35,0,0
46765,-100,4,1,0,25,0,0
47793,-100,4,1,0,35,0,0
47998,-100,4,1,0,25,0,0
49026,-100,4,1,0,35,0,0
49231,-100,4,1,0,25,0,0
50258,-100,4,1,0,35,0,0
50464,-100,4,1,0,25,0,0
51491,-100,4,1,0,35,0,0
51697,-100,4,1,0,25,0,0
51902,-100,4,1,0,35,0,0
52108,-100,4,1,0,25,0,0
52313,-100,4,1,0,35,0,0
52519,-100,4,1,0,25,0,0
52724,-100,4,1,0,35,0,0
52930,-100,4,1,0,25,0,0
53546,-100,4,1,0,35,0,0
53752,-100,4,1,0,25,0,0
55190,-100,4,1,0,35,0,0
55395,-100,4,1,0,25,0,0
56423,-100,4,1,0,35,0,0
56628,-100,4,1,0,25,0,0
57656,-100,4,1,0,35,0,0
57861,-100,4,1,0,25,0,0
58889,-100,4,1,0,35,0,0
59094,-100,4,1,0,25,0,0
60121,-100,4,1,0,35,0,0
60327,-100,4,1,0,25,0,0
61354,-100,4,1,0,35,0,0
61560,-100,4,1,0,25,0,0
62587,-100,4,1,0,35,0,0
62793,-100,4,1,0,25,0,0
63820,-100,4,1,0,35,0,0
64026,-100,4,1,0,25,0,0
65053,-100,4,1,0,35,0,0
65258,-100,4,1,0,25,0,0
66286,-100,4,1,0,35,0,0
66491,-100,4,1,0,25,0,0
67108,-100,4,1,0,20,0,0
67313,-100,4,1,0,25,0,0
68752,-100,4,1,0,35,0,0
68957,-100,4,1,0,25,0,0
72450,-100,4,1,0,35,0,0
72656,-100,4,1,0,25,0,0
74916,-100,4,1,0,20,0,0
77382,-100,4,1,0,15,0,0
82313,-100,4,1,0,10,0,0
83806,408.163265306122,4,1,0,30,1,0
87162,410.958904109589,4,1,0,20,1,0
87461,410.958904109589,4,1,0,15,1,0
89928,530.973451327434,4,1,0,10,1,0
97361,-100,4,1,0,15,0,0
97428,-100,4,1,0,10,0,0
98954,-100,4,1,0,15,0,0
99020,-100,4,1,0,10,0,0
100501,416.666666666667,4,1,0,15,1,0
103001,-100,4,1,0,30,0,0
104876,-100,4,1,0,20,0,0
106004,416.666666666667,4,1,0,30,1,0
108474,392.156862745098,4,1,0,25,1,0
121807,-100,4,1,0,30,0,0
122591,-100,4,1,0,35,0,0
123408,-100,4,1,0,20,0,0
124160,410.958904109589,4,1,0,100,1,0
124160,-100,4,1,0,35,0,0
124673,-100,4,1,0,20,0,0
130357,410.958904109589,4,1,0,20,1,0
140256,410.958904109589,4,1,0,20,1,0
162292,410.958904109589,4,1,0,20,1,0
163963,410.958904109589,4,1,0,20,1,0
167100,425.531914893617,4,1,0,20,1,0
172212,425.531914893617,4,1,0,20,1,0
175857,431.654676258993,4,1,0,20,1,0
177650,431.654676258993,4,1,0,20,1,0
179174.090909091,454.545454545455,4,1,0,20,1,0
182810,487.80487804878,4,1,0,20,1,0
185720,476.190476190476,4,1,0,20,1,0
187672,500,4,1,0,20,1,0
195172,500,4,1,0,20,1,0
195473,500,4,1,0,20,1,0
195756,500,4,1,0,20,1,0
196042,500,4,1,0,20,1,0
196345,500,4,1,0,20,1,0
196688,500,4,1,0,20,1,0
199166,500,4,1,0,20,1,0
200041,416.666666666667,4,1,0,10,1,0
208118,329.67032967033,4,1,0,20,1,0
208118,-133.333333333333,4,1,0,20,0,0
218667,-133.333333333333,4,1,0,25,0,0
221304,-133.333333333333,4,1,0,30,0,0
223942,-133.333333333333,4,1,0,40,0,0
227898,-133.333333333333,4,1,0,30,0,0
243015,458.015267175573,4,1,0,20,1,0
254012,441.176470588235,4,1,0,35,1,0
264600,419.58041958042,4,1,0,25,1,0
273620,-100,4,1,0,10,0,0
274669,422.535211267606,4,1,0,25,1,0
286909,422.535211267606,4,1,0,25,1,0
292345,500,4,1,0,40,1,0

[HitObjects]
192,192,10805,5,0,0:0:0:0:
192,192,11422,1,0,0:0:0:0:
448,192,11627,1,0,0:0:0:0:
320,192,12038,1,0,0:0:0:0:
192,192,12449,1,0,0:0:0:0:
64,192,13066,1,0,0:0:0:0:
192,192,13271,1,0,0:0:0:0:
192,192,13888,1,0,0:0:0:0:
320,192,14093,1,0,0:0:0:0:
448,192,14504,1,0,0:0:0:0:
320,192,14915,1,0,0:0:0:0:
64,192,15532,1,0,0:0:0:0:
192,192,15737,1,0,0:0:0:0:
192,192,16353,1,0,0:0:0:0:
320,192,16559,1,0,0:0:0:0:
320,192,16970,1,0,0:0:0:0:
192,192,17381,1,0,0:0:0:0:
320,192,17792,1,0,0:0:0:0:
320,192,18203,1,0,0:0:0:0:
192,192,18408,1,0,0:0:0:0:
64,192,18614,1,0,0:0:0:0:
64,192,20669,1,0,0:0:0:0:
192,192,20669,1,0,0:0:0:0:
192,192,21285,1,0,0:0:0:0:
448,192,21490,1,0,0:0:0:0:
320,192,21901,1,0,0:0:0:0:
64,192,21901,1,0,0:0:0:0:
64,192,22312,1,0,0:0:0:0:
448,192,22723,1,0,0:0:0:0:
192,192,22929,1,0,0:0:0:0:
64,192,23134,1,0,0:0:0:0:
192,192,23134,1,0,0:0:0:0:
192,192,23751,1,0,0:0:0:0:
448,192,23956,1,0,0:0:0:0:
192,192,24367,1,0,0:0:0:0:
448,192,24367,1,0,0:0:0:0:
64,192,24778,1,0,0:0:0:0:
448,192,25189,1,0,0:0:0:0:
192,192,25395,1,0,0:0:0:0:
64,192,25600,1,0,0:0:0:0:
192,192,25600,1,0,0:0:0:0:
192,192,26216,1,0,0:0:0:0:
448,192,26422,1,0,0:0:0:0:
64,192,26833,1,0,0:0:0:0:
320,192,26833,1,0,0:0:0:0:
192,192,27244,1,0,0:0:0:0:
448,192,27655,1,0,0:0:0:0:
192,192,28066,1,0,0:0:0:0:
320,192,28271,1,0,0:0:0:0:
64,192,28477,1,0,0:0:0:0:
448,192,28888,1,0,0:0:0:0:
448,192,29299,1,0,0:0:0:0:
448,192,29710,1,0,0:0:0:0:
64,192,29915,1,0,0:0:0:0:
192,192,30121,1,0,0:0:0:0:
320,192,30326,1,0,0:0:0:0:
448,192,30532,1,0,0:0:0:0:
192,192,30532,1,0,0:0:0:0:
192,192,30942,1,0,0:0:0:0:
64,192,31353,1,0,0:0:0:0:
192,192,31559,1,0,0:0:0:0:
320,192,31764,1,0,0:0:0:0:
64,192,31764,1,0,0:0:0:0:
192,192,31970,1,0,0:0:0:0:
64,192,32175,1,0,0:0:0:0:
192,192,32586,1,0,0:0:0:0:
192,192,32792,1,0,0:0:0:0:
64,192,32997,1,0,0:0:0:0:
320,192,32997,1,0,0:0:0:0:
320,192,33408,1,0,0:0:0:0:
64,192,33614,1,0,0:0:0:0:
192,192,34025,1,0,0:0:0:0:
320,192,34230,1,0,0:0:0:0:
448,192,34436,1,0,0:0:0:0:
320,192,34641,1,0,0:0:0:0:
448,192,34847,1,0,0:0:0:0:
192,192,35052,1,0,0:0:0:0:
448,192,35258,1,0,0:0:0:0:
64,192,35463,1,0,0:0:0:0:
320,192,35463,1,0,0:0:0:0:
64,192,35874,1,0,0:0:0:0:
320,192,36285,1,0,0:0:0:0:
448,192,36490,1,0,0:0:0:0:
64,192,36696,1,0,0:0:0:0:
192,192,36696,1,0,0:0:0:0:
320,192,36901,1,0,0:0:0:0:
64,192,37107,1,0,0:0:0:0:
192,192,37518,1,0,0:0:0:0:
448,192,37723,1,0,0:0:0:0:
64,192,37929,1,0,0:0:0:0:
320,192,37929,1,0,0:0:0:0:
448,192,38134,1,0,0:0:0:0:
448,192,38340,1,0,0:0:0:0:
448,192,38956,1,0,0:0:0:0:
64,192,39162,1,0,0:0:0:0:
192,192,39162,1,0,0:0:0:0:
320,192,39367,1,0,0:0:0:0:
320,192,39573,1,0,0:0:0:0:
448,192,40189,1,0,0:0:0:0:
320,192,40395,1,0,0:0:0:0:
64,192,40395,1,0,0:0:0:0:
192,192,40600,1,0,0:0:0:0:
192,192,40806,1,0,0:0:0:0:
320,192,41422,1,0,0:0:0:0:
448,192,41627,1,0,0:0:0:0:
192,192,41627,1,0,0:0:0:0:
64,192,42038,1,0,0:0:0:0:
320,192,42449,1,0,0:0:0:0:
64,192,42860,1,0,0:0:0:0:
192,192,42860,1,0,0:0:0:0:
320,192,43066,1,0,0:0:0:0:
64,192,43271,1,0,0:0:0:0:
448,192,43271,1,0,0:0:0:0:
320,192,43682,1,0,0:0:0:0:
192,192,44093,1,0,0:0:0:0:
64,192,44299,1,0,0:0:0:0:
448,192,44504,1,0,0:0:0:0:
64,192,44607,1,0,0:0:0:0:
448,192,44710,1,0,0:0:0:0:
64,192,44761,1,0,0:0:0:0:
192,192,44812,1,0,0:0:0:0:
448,192,44864,1,0,0:0:0:0:
320,192,44915,1,0,0:0:0:0:
64,192,44966,1,0,0:0:0:0:
192,192,45018,1,0,0:0:0:0:
448,192,45069,1,0,0:0:0:0:
320,192,45121,1,0,0:0:0:0:
64,192,45172,1,0,0:0:0:0:
192,192,45223,1,0,0:0:0:0:
448,192,45275,1,0,0:0:0:0:
320,192,45326,1,0,0:0:0:0:
64,192,45326,1,0,0:0:0:0:
320,192,45532,1,0,0:0:0:0:
448,192,45737,1,0,0:0:0:0:
64,192,45737,1,0,0:0:0:0:
192,192,45942,1,0,0:0:0:0:
320,192,46148,1,0,0:0:0:0:
192,192,46353,1,0,0:0:0:0:
448,192,46559,1,0,0:0:0:0:
320,192,46559,1,0,0:0:0:0:
192,192,46764,1,0,0:0:0:0:
64,192,46970,1,0,0:0:0:0:
192,192,47175,1,0,0:0:0:0:
320,192,47381,1,0,0:0:0:0:
192,192,47586,1,0,0:0:0:0:
64,192,47792,1,0,0:0:0:0:
320,192,47792,1,0,0:0:0:0:
192,192,47997,1,0,0:0:0:0:
320,192,48203,1,0,0:0:0:0:
448,192,48408,1,0,0:0:0:0:
192,192,48614,1,0,0:0:0:0:
448,192,48819,1,0,0:0:0:0:
320,192,49025,1,0,0:0:0:0:
192,192,49025,1,0,0:0:0:0:
448,192,49230,1,0,0:0:0:0:
320,192,49436,1,0,0:0:0:0:
192,192,49641,1,0,0:0:0:0:
64,192,49847,1,0,0:0:0:0:
320,192,50052,1,0,0:0:0:0:
192,192,50258,1,0,0:0:0:0:
64,192,50258,1,0,0:0:0:0:
320,192,50463,1,0,0:0:0:0:
448,192,50669,1,0,0:0:0:0:
64,192,50874,1,0,0:0:0:0:
192,192,51079,1,0,0:0:0:0:
320,192,51285,1,0,0:0:0:0:
192,192,51490,1,0,0:0:0:0:
64,192,51490,1,0,0:0:0:0:
320,192,51696,1,0,0:0:0:0:
448,192,51901,1,0,0:0:0:0:
192,192,51901,1,0,0:0:0:0:
320,192,52107,1,0,0:0:0:0:
192,192,52312,1,0,0:0:0:0:
320,192,52518,1,0,0:0:0:0:
64,192,52723,1,0,0:0:0:0:
448,192,52723,1,0,0:0:0:0:
192,192,52929,1,0,0:0:0:0:
448,192,53134,1,0,0:0:0:0:
64,192,53340,1,0,0:0:0:0:
320,192,53545,1,0,0:0:0:0:
448,192,53545,1,0,0:0:0:0:
448,192,53751,1,0,0:0:0:0:
320,192,53956,1,0,0:0:0:0:
448,192,54162,1,0,0:0:0:0:
320,192,54367,1,0,0:0:0:0:
448,192,54573,1,0,0:0:0:0:
320,192,54778,1,0,0:0:0:0:
192,192,54984,1,0,0:0:0:0:
64,192,55189,1,0,0:0:0:0:
192,192,55189,1,0,0:0:0:0:
320,192,55395,1,0,0:0:0:0:
192,192,55600,1,0,0:0:0:0:
64,192,55806,1,0,0:0:0:0:
192,192,56011,1,0,0:0:0:0:
320,192,56216,1,0,0:0:0:0:
64,192,56422,1,0,0:0:0:0:
448,192,56422,1,0,0:0:0:0:
192,192,56627,1,0,0:0:0:0:
320,192,56833,1,0,0:0:0:0:
448,192,56833,1,0,0:0:0:0:
192,192,57038,1,0,0:0:0:0:
64,192,57244,1,0,0:0:0:0:
192,192,57449,1,0,0:0:0:0:
448,192,57655,1,0,0:0:0:0:
320,192,57655,1,0,0:0:0:0:
64,192,57860,1,0,0:0:0:0:
448,192,58066,1,0,0:0:0:0:
192,192,58271,1,0,0:0:0:0:
448,192,58477,1,0,0:0:0:0:
320,192,58682,1,0,0:0:0:0:
448,192,58888,1,0,0:0:0:0:
192,192,58888,1,0,0:0:0:0:
64,192,59093,1,0,0:0:0:0:
448,192,59299,1,0,0:0:0:0:
192,192,59504,1,0,0:0:0:0:
320,192,59710,1,0,0:0:0:0:
192,192,59915,1,0,0:0:0:0:
64,192,60121,1,0,0:0:0:0:
320,192,60121,1,0,0:0:0:0:
192,192,60326,1,0,0:0:0:0:
448,192,60532,1,0,0:0:0:0:
192,192,60737,1,0,0:0:0:0:
448,192,60942,1,0,0:0:0:0:
192,192,61148,1,0,0:0:0:0:
320,192,61353,1,0,0:0:0:0:
64,192,61353,1,0,0:0:0:0:
192,192,61559,1,0,0:0:0:0:
64,192,61764,1,0,0:0:0:0:
192,192,61764,1,0,0:0:0:0:
192,192,61970,1,0,0:0:0:0:
320,192,62175,1,0,0:0:0:0:
192,192,62381,1,0,0:0:0:0:
192,192,62586,1,0,0:0:0:0:
64,192,62586,1,0,0:0:0:0:
320,192,62792,1,0,0:0:0:0:
448,192,62997,1,0,0:0:0:0:
192,192,63203,1,0,0:0:0:0:
448,192,63408,1,0,0:0:0:0:
64,192,63614,1,0,0:0:0:0:
320,192,63819,1,0,0:0:0:0:
192,192,63819,1,0,0:0:0:0:
64,192,64025,1,0,0:0:0:0:
320,192,64230,1,0,0:0:0:0:
64,192,64436,1,0,0:0:0:0:
448,192,64641,1,0,0:0:0:0:
320,192,64847,1,0,0:0:0:0:
448,192,65052,1,0,0:0:0:0:
192,192,65052,1,0,0:0:0:0:
448,192,65258,1,0,0:0:0:0:
192,192,65463,1,0,0:0:0:0:
320,192,65669,1,0,0:0:0:0:
448,192,65874,1,0,0:0:0:0:
192,192,66079,1,0,0:0:0:0:
192,192,66285,1,0,0:0:0:0:
64,192,66285,1,0,0:0:0:0:
64,192,66490,1,0,0:0:0:0:
192,192,66696,1,0,0:0:0:0:
64,192,66901,1,0,0:0:0:0:
192,192,67107,1,0,0:0:0:0:
320,192,67107,1,0,0:0:0:0:
64,192,67312,1,0,0:0:0:0:
320,192,67518,1,0,0:0:0:0:
448,192,67723,1,0,0:0:0:0:
192,192,67929,1,0,0:0:0:0:
320,192,68134,1,0,0:0:0:0:
448,192,68340,1,0,0:0:0:0:
192,192,68545,1,0,0:0:0:0:
448,192,68751,1,0,0:0:0:0:
64,192,68751,1,0,0:0:0:0:
320,192,68956,1,0,0:0:0:0:
448,192,69162,1,0,0:0:0:0:
64,192,69367,1,0,0:0:0:0:
192,192,69573,1,0,0:0:0:0:
320,192,69778,1,0,0:0:0:0:
448,192,69984,1,0,0:0:0:0:
448,192,70395,1,0,0:0:0:0:
192,192,70600,1,0,0:0:0:0:
320,192,70600,1,0,0:0:0:0:
64,192,70806,1,0,0:0:0:0:
320,192,71011,1,0,0:0:0:0:
448,192,71216,1,0,0:0:0:0:
320,192,71422,1,0,0:0:0:0:
192,192,71627,1,0,0:0:0:0:
320,192,71833,1,0,0:0:0:0:
64,192,72038,1,0,0:0:0:0:
192,192,72244,1,0,0:0:0:0:
448,192,72449,1,0,0:0:0:0:
64,192,72449,1,0,0:0:0:0:
64,192,72655,1,0,0:0:0:0:
448,192,72860,1,0,0:0:0:0:
64,192,73066,1,0,0:0:0:0:
320,192,73271,1,0,0:0:0:0:
64,192,73477,1,0,0:0:0:0:
320,192,73682,1,0,0:0:0:0:
64,192,73888,1,0,0:0:0:0:
320,192,74093,1,0,0:0:0:0:
64,192,74299,1,0,0:0:0:0:
192,192,74504,1,0,0:0:0:0:
320,192,74710,1,0,0:0:0:0:
448,192,74915,1,0,0:0:0:0:
320,192,75326,1,0,0:0:0:0:
320,192,75737,1,0,0:0:0:0:
448,192,75942,1,0,0:0:0:0:
448,192,76148,1,0,0:0:0:0:
320,192,76353,1,0,0:0:0:0:
64,192,76559,1,0,0:0:0:0:
192,192,76970,1,0,0:0:0:0:
448,192,77175,1,0,0:0:0:0:
448,192,77381,1,0,0:0:0:0:
192,192,77586,1,0,0:0:0:0:
320,192,77792,1,0,0:0:0:0:
448,192,78408,1,0,0:0:0:0:
320,192,78614,1,0,0:0:0:0:
64,192,78819,1,0,0:0:0:0:
192,192,79025,1,0,0:0:0:0:
320,192,79641,1,0,0:0:0:0:
192,192,79847,1,0,0:0:0:0:
320,192,80052,1,0,0:0:0:0:
64,192,80258,1,0,0:0:0:0:
448,192,80874,1,0,0:0:0:0:
320,192,81079,1,0,0:0:0:0:
192,192,81285,1,0,0:0:0:0:
64,192,81490,1,0,0:0:0:0:
64,192,82312,1,0,0:0:0:0:
320,192,83853,1,0,0:0:0:0:
64,192,83853,1,0,0:0:0:0:
192,192,84010,1,0,0:0:0:0:
64,192,84214,1,0,0:0:0:0:
64,192,84418,1,0,0:0:0:0:
192,192,84622,1,0,0:0:0:0:
192,192,84826,1,0,0:0:0:0:
320,192,85030,1,0,0:0:0:0:
320,192,85234,1,0,0:0:0:0:
448,192,85438,1,0,0:0:0:0:
448,192,85642,1,0,0:0:0:0:
64,192,85846,1,0,0:0:0:0:
64,192,86050,1,0,0:0:0:0:
192,192,86254,1,0,0:0:0:0:
192,192,86459,1,0,0:0:0:0:
320,192,86663,1,0,0:0:0:0:
320,192,86867,1,0,0:0:0:0:
448,192,87173,1,0,0:0:0:0:
448,192,87470,1,0,0:0:0:0:
448,192,87769,1,0,0:0:0:0:
64,192,89926,1,0,0:0:0:0:
192,192,90193,1,0,0:0:0:0:
320,192,90458,1,0,0:0:0:0:
192,192,90724,1,0,0:0:0:0:
320,192,90989,1,0,0:0:0:0:
448,192,90989,1,0,0:0:0:0:
64,192,91520,1,0,0:0:0:0:
64,192,91786,1,0,0:0:0:0:
448,192,92317,1,0,0:0:0:0:
320,192,92582,1,0,0:0:0:0:
192,192,92582,1,0,0:0:0:0:
64,192,92848,1,0,0:0:0:0:
64,192,93113,1,0,0:0:0:0:
192,192,93910,1,0,0:0:0:0:
192,192,94175,1,0,0:0:0:0:
64,192,94175,1,0,0:0:0:0:
320,192,94706,1,0,0:0:0:0:
192,192,94972,1,0,0:0:0:0:
64,192,95237,1,0,0:0:0:0:
64,192,95768,1,0,0:0:0:0:
192,192,96034,1,0,0:0:0:0:
320,192,96299,1,0,0:0:0:0:
448,192,96565,1,0,0:0:0:0:
448,192,96830,1,0,0:0:0:0:
320,192,97096,1,0,0:0:0:0:
320,192,97317,1,0,0:0:0:0:
192,192,97361,1,0,0:0:0:0:
64,192,97405,1,0,0:0:0:0:
320,192,97494,1,0,0:0:0:0:
448,192,97538,1,0,0:0:0:0:
192,192,97892,1,0,0:0:0:0:
192,192,98158,1,0,0:0:0:0:
448,192,98689,1,0,0:0:0:0:
448,192,98954,1,0,0:0:0:0:
320,192,98954,1,0,0:0:0:0:
192,192,98998,1,0,0:0:0:0:
64,192,99220,1,0,0:0:0:0:
192,192,99485,1,0,0:0:0:0:
192,192,100547,1,0,0:0:0:0:
192,192,103001,1,0,0:0:0:0:
64,192,103001,1,0,0:0:0:0:
320,192,104876,1,0,0:0:0:0:
64,192,104876,1,0,0:0:0:0:
192,192,106021,1,0,0:0:0:0:
64,192,108504,1,0,0:0:0:0:
192,192,108572,1,0,0:0:0:0:
320,192,108670,1,0,0:0:0:0:
448,192,108768,1,0,0:0:0:0:
192,192,108866,1,0,0:0:0:0:
320,192,108964,1,0,0:0:0:0:
448,192,109062,1,0,0:0:0:0:
64,192,109160,1,0,0:0:0:0:
192,192,109258,1,0,0:0:0:0:
320,192,109356,1,0,0:0:0:0:
192,192,109454,1,0,0:0:0:0:
320,192,109552,1,0,0:0:0:0:
448,192,109650,1,0,0:0:0:0:
64,192,109748,1,0,0:0:0:0:
192,192,109846,1,0,0:0:0:0:
448,192,109944,1,0,0:0:0:0:
192,192,110042,1,0,0:0:0:0:
64,192,110140,1,0,0:0:0:0:
448,192,110238,1,0,0:0:0:0:
320,192,110336,1,0,0:0:0:0:
192,192,110434,1,0,0:0:0:0:
320,192,110532,1,0,0:0:0:0:
192,192,110630,1,0,0:0:0:0:
64,192,110728,1,0,0:0:0:0:
448,192,110826,1,0,0:0:0:0:
320,192,110924,1,0,0:0:0:0:
192,192,111023,1,0,0:0:0:0:
448,192,111121,1,0,0:0:0:0:
320,192,111219,1,0,0:0:0:0:
192,192,111317,1,0,0:0:0:0:
64,192,111415,1,0,0:0:0:0:
192,192,111513,1,0,0:0:0:0:
64,192,111611,1,0,0:0:0:0:
192,192,111709,1,0,0:0:0:0:
320,192,111807,1,0,0:0:0:0:
448,192,111905,1,0,0:0:0:0:
192,192,112003,1,0,0:0:0:0:
320,192,112101,1,0,0:0:0:0:
448,192,112199,1,0,0:0:0:0:
64,192,112297,1,0,0:0:0:0:
192,192,112395,1,0,0:0:0:0:
320,192,112493,1,0,0:0:0:0:
192,192,112591,1,0,0:0:0:0:
320,192,112689,1,0,0:0:0:0:
448,192,112787,1,0,0:0:0:0:
64,192,112885,1,0,0:0:0:0:
192,192,112983,1,0,0:0:0:0:
448,192,113081,1,0,0:0:0:0:
192,192,113179,1,0,0:0:0:0:
64,192,113277,1,0,0:0:0:0:
448,192,113375,1,0,0:0:0:0:
320,192,113474,1,0,0:0:0:0:
192,192,113572,1,0,0:0:0:0:
320,192,113670,1,0,0:0:0:0:
192,192,113768,1,0,0:0:0:0:
64,192,113866,1,0,0:0:0:0:
448,192,113964,1,0,0:0:0:0:
320,192,114062,1,0,0:0:0:0:
192,192,114160,1,0,0:0:0:0:
448,192,114258,1,0,0:0:0:0:
320,192,114356,1,0,0:0:0:0:
192,192,114454,1,0,0:0:0:0:
64,192,114552,1,0,0:0:0:0:
192,192,114650,1,0,0:0:0:0:
64,192,114748,1,0,0:0:0:0:
192,192,114846,1,0,0:0:0:0:
320,192,114944,1,0,0:0:0:0:
448,192,115042,1,0,0:0:0:0:
192,192,115140,1,0,0:0:0:0:
320,192,115238,1,0,0:0:0:0:
448,192,115336,1,0,0:0:0:0:
64,192,115434,1,0,0:0:0:0:
320,192,115532,1,0,0:0:0:0:
64,192,115630,1,0,0:0:0:0:
192,192,115728,1,0,0:0:0:0:
320,192,115826,1,0,0:0:0:0:
192,192,115924,1,0,0:0:0:0:
448,192,116023,1,0,0:0:0:0:
320,192,116121,1,0,0:0:0:0:
448,192,116219,1,0,0:0:0:0:
192,192,116317,1,0,0:0:0:0:
320,192,116415,1,0,0:0:0:0:
192,192,116513,1,0,0:0:0:0:
64,192,116611,1,0,0:0:0:0:
320,192,116709,1,0,0:0:0:0:
192,192,116807,1,0,0:0:0:0:
64,192,116905,1,0,0:0:0:0:
448,192,117003,1,0,0:0:0:0:
320,192,117101,1,0,0:0:0:0:
192,192,117199,1,0,0:0:0:0:
320,192,117297,1,0,0:0:0:0:
192,192,117395,1,0,0:0:0:0:
64,192,117493,1,0,0:0:0:0:
448,192,117591,1,0,0:0:0:0:
320,192,117689,1,0,0:0:0:0:
64,192,117787,1,0,0:0:0:0:
192,192,117885,1,0,0:0:0:0:
64,192,117983,1,0,0:0:0:0:
192,192,118081,1,0,0:0:0:0:
320,192,118179,1,0,0:0:0:0:
448,192,118277,1,0,0:0:0:0:
64,192,118375,1,0,0:0:0:0:
192,192,118474,1,0,0:0:0:0:
320,192,118572,1,0,0:0:0:0:
448,192,118670,1,0,0:0:0:0:
64,192,118768,1,0,0:0:0:0:
192,192,118866,1,0,0:0:0:0:
320,192,118964,1,0,0:0:0:0:
64,192,119062,1,0,0:0:0:0:
192,192,119160,1,0,0:0:0:0:
320,192,119258,1,0,0:0:0:0:
448,192,119356,1,0,0:0:0:0:
192,192,119454,1,0,0:0:0:0:
64,192,119552,1,0,0:0:0:0:
320,192,119650,1,0,0:0:0:0:
448,192,119748,1,0,0:0:0:0:
320,192,119846,1,0,0:0:0:0:
448,192,119944,1,0,0:0:0:0:
192,192,120042,1,0,0:0:0:0:
64,192,120140,1,0,0:0:0:0:
320,192,120238,1,0,0:0:0:0:
448,192,120336,1,0,0:0:0:0:
320,192,120434,1,0,0:0:0:0:
448,192,120532,1,0,0:0:0:0:
192,192,120630,1,0,0:0:0:0:
64,192,120728,1,0,0:0:0:0:
320,192,120826,1,0,0:0:0:0:
448,192,120924,1,0,0:0:0:0:
320,192,121023,1,0,0:0:0:0:
64,192,121023,1,0,0:0:0:0:
320,192,121219,1,0,0:0:0:0:
64,192,121219,1,0,0:0:0:0:
320,192,121415,1,0,0:0:0:0:
64,192,121415,1,0,0:0:0:0:
320,192,121611,1,0,0:0:0:0:
64,192,121611,1,0,0:0:0:0:
320,192,121807,1,0,0:0:0:0:
64,192,121807,1,0,0:0:0:0:
320,192,122003,1,0,0:0:0:0:
64,192,122003,1,0,0:0:0:0:
320,192,122199,1,0,0:0:0:0:
64,192,122199,1,0,0:0:0:0:
320,192,122395,1,0,0:0:0:0:
64,192,122395,1,0,0:0:0:0:
320,192,122591,1,0,0:0:0:0:
64,192,122591,1,0,0:0:0:0:
320,192,122787,1,0,0:0:0:0:
64,192,122787,1,0,0:0:0:0:
320,192,122983,1,0,0:0:0:0:
64,192,122983,1,0,0:0:0:0:
320,192,123179,1,0,0:0:0:0:
64,192,123179,1,0,0:0:0:0:
320,192,123375,1,0,0:0:0:0:
64,192,123375,1,0,0:0:0:0:
192,192,123408,1,0,0:0:0:0:
64,192,123441,1,0,0:0:0:0:
448,192,123474,1,0,0:0:0:0:
320,192,123506,1,0,0:0:0:0:
192,192,123539,1,0,0:0:0:0:
64,192,123572,1,0,0:0:0:0:
448,192,123604,1,0,0:0:0:0:
320,192,123637,1,0,0:0:0:0:
192,192,123670,1,0,0:0:0:0:
64,192,123702,1,0,0:0:0:0:
448,192,123735,1,0,0:0:0:0:
320,192,123768,1,0,0:0:0:0:
192,192,123800,1,0,0:0:0:0:
64,192,123833,1,0,0:0:0:0:
448,192,123866,1,0,0:0:0:0:
320,192,123898,1,0,0:0:0:0:
192,192,123931,1,0,0:0:0:0:
64,192,123964,1,0,0:0:0:0:
448,192,123996,1,0,0:0:0:0:
320,192,124029,1,0,0:0:0:0:
192,192,124062,1,0,0:0:0:0:
64,192,124094,1,0,0:0:0:0:
448,192,124160,1,0,0:0:0:0:
320,192,124160,1,0,0:0:0:0:
192,192,124160,1,0,0:0:0:0:
64,192,124673,1,0,0:0:0:0:
192,192,124776,1,0,0:0:0:0:
320,192,124879,1,0,0:0:0:0:
192,192,124981,1,0,0:0:0:0:
64,192,124981,1,0,0:0:0:0:
192,192,125495,1,0,0:0:0:0:
320,192,125598,1,0,0:0:0:0:
448,192,125701,1,0,0:0:0:0:
192,192,125803,1,0,0:0:0:0:
320,192,125803,1,0,0:0:0:0:
448,192,126214,1,0,0:0:0:0:
192,192,126214,1,0,0:0:0:0:
64,192,126317,1,0,0:0:0:0:
320,192,126420,1,0,0:0:0:0:
192,192,126523,1,0,0:0:0:0:
448,192,126625,1,0,0:0:0:0:
320,192,126625,1,0,0:0:0:0:
320,192,127036,1,0,0:0:0:0:
192,192,127036,1,0,0:0:0:0:
320,192,127242,1,0,0:0:0:0:
64,192,127242,1,0,0:0:0:0:
64,192,127447,1,0,0:0:0:0:
192,192,127447,1,0,0:0:0:0:
64,192,127858,1,0,0:0:0:0:
192,192,127858,1,0,0:0:0:0:
192,192,128064,1,0,0:0:0:0:
320,192,128064,1,0,0:0:0:0:
320,192,128269,1,0,0:0:0:0:
448,192,128269,1,0,0:0:0:0:
320,192,128680,1,0,0:0:0:0:
64,192,128680,1,0,0:0:0:0:
192,192,128783,1,0,0:0:0:0:
64,192,128886,1,0,0:0:0:0:
192,192,128988,1,0,0:0:0:0:
448,192,129091,1,0,0:0:0:0:
320,192,129091,1,0,0:0:0:0:
64,192,129502,1,0,0:0:0:0:
448,192,129502,1,0,0:0:0:0:
192,192,129605,1,0,0:0:0:0:
320,192,129707,1,0,0:0:0:0:
192,192,129810,1,0,0:0:0:0:
448,192,129913,1,0,0:0:0:0:
320,192,129913,1,0,0:0:0:0:
320,192,130324,1,0,0:0:0:0:
192,192,130324,1,0,0:0:0:0:
320,192,130562,1,0,0:0:0:0:
64,192,130562,1,0,0:0:0:0:
64,192,130767,1,0,0:0:0:0:
192,192,130767,1,0,0:0:0:0:
320,192,130870,1,0,0:0:0:0:
192,192,130973,1,0,0:0:0:0:
64,192,131076,1,0,0:0:0:0:
320,192,131178,1,0,0:0:0:0:
448,192,131178,1,0,0:0:0:0:
64,192,131281,1,0,0:0:0:0:
192,192,131384,1,0,0:0:0:0:
320,192,131487,1,0,0:0:0:0:
448,192,131589,1,0,0:0:0:0:
192,192,131589,1,0,0:0:0:0:
64,192,131692,1,0,0:0:0:0:
192,192,131795,1,0,0:0:0:0:
320,192,131898,1,0,0:0:0:0:
448,192,132000,1,0,0:0:0:0:
64,192,132103,1,0,0:0:0:0:
192,192,132206,1,0,0:0:0:0:
320,192,132309,1,0,0:0:0:0:
448,192,132411,1,0,0:0:0:0:
64,192,132514,1,0,0:0:0:0:
192,192,132617,1,0,0:0:0:0:
320,192,132720,1,0,0:0:0:0:
448,192,132822,1,0,0:0:0:0:
320,192,132925,1,0,0:0:0:0:
192,192,133028,1,0,0:0:0:0:
64,192,133130,1,0,0:0:0:0:
448,192,133233,1,0,0:0:0:0:
320,192,133336,1,0,0:0:0:0:
192,192,133439,1,0,0:0:0:0:
64,192,133541,1,0,0:0:0:0:
192,192,133644,1,0,0:0:0:0:
320,192,133644,1,0,0:0:0:0:
64,192,133747,1,0,0:0:0:0:
192,192,133850,1,0,0:0:0:0:
448,192,133850,1,0,0:0:0:0:
64,192,133952,1,0,0:0:0:0:
320,192,134055,1,0,0:0:0:0:
448,192,134055,1,0,0:0:0:0:
320,192,134466,1,0,0:0:0:0:
64,192,134569,1,0,0:0:0:0:
192,192,134672,1,0,0:0:0:0:
320,192,134774,1,0,0:0:0:0:
192,192,134877,1,0,0:0:0:0:
448,192,134877,1,0,0:0:0:0:
448,192,135288,1,0,0:0:0:0:
192,192,135391,1,0,0:0:0:0:
320,192,135493,1,0,0:0:0:0:
448,192,135596,1,0,0:0:0:0:
192,192,135699,1,0,0:0:0:0:
320,192,135699,1,0,0:0:0:0:
64,192,136110,1,0,0:0:0:0:
320,192,136110,1,0,0:0:0:0:
192,192,136213,1,0,0:0:0:0:
320,192,136315,1,0,0:0:0:0:
64,192,136418,1,0,0:0:0:0:
448,192,136521,1,0,0:0:0:0:
320,192,136521,1,0,0:0:0:0:
192,192,136624,1,0,0:0:0:0:
448,192,136726,1,0,0:0:0:0:
320,192,136829,1,0,0:0:0:0:
64,192,136932,1,0,0:0:0:0:
192,192,136932,1,0,0:0:0:0:
320,192,137035,1,0,0:0:0:0:
64,192,137137,1,0,0:0:0:0:
192,192,137137,1,0,0:0:0:0:
448,192,137240,1,0,0:0:0:0:
64,192,137343,1,0,0:0:0:0:
320,192,137343,1,0,0:0:0:0:
64,192,137754,1,0,0:0:0:0:
192,192,137754,1,0,0:0:0:0:
192,192,137959,1,0,0:0:0:0:
320,192,137959,1,0,0:0:0:0:
448,192,138165,1,0,0:0:0:0:
320,192,138165,1,0,0:0:0:0:
320,192,138576,1,0,0:0:0:0:
64,192,138576,1,0,0:0:0:0:
192,192,138678,1,0,0:0:0:0:
64,192,138781,1,0,0:0:0:0:
192,192,138884,1,0,0:0:0:0:
448,192,138987,1,0,0:0:0:0:
320,192,138987,1,0,0:0:0:0:
448,192,139398,1,0,0:0:0:0:
64,192,139398,1,0,0:0:0:0:
192,192,139500,1,0,0:0:0:0:
320,192,139603,1,0,0:0:0:0:
192,192,139706,1,0,0:0:0:0:
320,192,139809,1,0,0:0:0:0:
448,192,139809,1,0,0:0:0:0:
320,192,140220,1,0,0:0:0:0:
192,192,140220,1,0,0:0:0:0:
448,192,140220,1,0,0:0:0:0:
448,192,140461,1,0,0:0:0:0:
320,192,140461,1,0,0:0:0:0:
64,192,140461,1,0,0:0:0:0:
320,192,140666,1,0,0:0:0:0:
192,192,140666,1,0,0:0:0:0:
64,192,140666,1,0,0:0:0:0:
448,192,140769,1,0,0:0:0:0:
192,192,140872,1,0,0:0:0:0:
320,192,140975,1,0,0:0:0:0:
448,192,141077,1,0,0:0:0:0:
192,192,141077,1,0,0:0:0:0:
64,192,141180,1,0,0:0:0:0:
320,192,141283,1,0,0:0:0:0:
192,192,141386,1,0,0:0:0:0:
320,192,141488,1,0,0:0:0:0:
448,192,141488,1,0,0:0:0:0:
64,192,141591,1,0,0:0:0:0:
192,192,141694,1,0,0:0:0:0:
320,192,141797,1,0,0:0:0:0:
448,192,141899,1,0,0:0:0:0:
64,192,142002,1,0,0:0:0:0:
192,192,142105,1,0,0:0:0:0:
448,192,142208,1,0,0:0:0:0:
320,192,142310,1,0,0:0:0:0:
64,192,142413,1,0,0:0:0:0:
320,192,142516,1,0,0:0:0:0:
192,192,142619,1,0,0:0:0:0:
64,192,142721,1,0,0:0:0:0:
448,192,142824,1,0,0:0:0:0:
320,192,142927,1,0,0:0:0:0:
192,192,143029,1,0,0:0:0:0:
64,192,143132,1,0,0:0:0:0:
320,192,143235,1,0,0:0:0:0:
192,192,143338,1,0,0:0:0:0:
320,192,143440,1,0,0:0:0:0:
448,192,143543,1,0,0:0:0:0:
192,192,143543,1,0,0:0:0:0:
64,192,143646,1,0,0:0:0:0:
192,192,143749,1,0,0:0:0:0:
320,192,143851,1,0,0:0:0:0:
448,192,143954,1,0,0:0:0:0:
64,192,143954,1,0,0:0:0:0:
320,192,144057,1,0,0:0:0:0:
192,192,144160,1,0,0:0:0:0:
64,192,144262,1,0,0:0:0:0:
320,192,144365,1,0,0:0:0:0:
192,192,144468,1,0,0:0:0:0:
64,192,144571,1,0,0:0:0:0:
448,192,144673,1,0,0:0:0:0:
320,192,144776,1,0,0:0:0:0:
192,192,144879,1,0,0:0:0:0:
64,192,144982,1,0,0:0:0:0:
320,192,145084,1,0,0:0:0:0:
192,192,145187,1,0,0:0:0:0:
64,192,145187,1,0,0:0:0:0:
448,192,145290,1,0,0:0:0:0:
320,192,145392,1,0,0:0:0:0:
192,192,145392,1,0,0:0:0:0:
448,192,145495,1,0,0:0:0:0:
192,192,145598,1,0,0:0:0:0:
64,192,145598,1,0,0:0:0:0:
448,192,145701,1,0,0:0:0:0:
320,192,145803,1,0,0:0:0:0:
192,192,145906,1,0,0:0:0:0:
64,192,146009,1,0,0:0:0:0:
448,192,146112,1,0,0:0:0:0:
320,192,146214,1,0,0:0:0:0:
192,192,146317,1,0,0:0:0:0:
448,192,146420,1,0,0:0:0:0:
64,192,146420,1,0,0:0:0:0:
320,192,146523,1,0,0:0:0:0:
192,192,146625,1,0,0:0:0:0:
320,192,146728,1,0,0:0:0:0:
448,192,146831,1,0,0:0:0:0:
64,192,146831,1,0,0:0:0:0:
320,192,146934,1,0,0:0:0:0:
192,192,147036,1,0,0:0:0:0:
448,192,147036,1,0,0:0:0:0:
64,192,147139,1,0,0:0:0:0:
448,192,147242,1,0,0:0:0:0:
320,192,147242,1,0,0:0:0:0:
192,192,147345,1,0,0:0:0:0:
448,192,147447,1,0,0:0:0:0:
320,192,147550,1,0,0:0:0:0:
448,192,147653,1,0,0:0:0:0:
192,192,147653,1,0,0:0:0:0:
320,192,147756,1,0,0:0:0:0:
192,192,147858,1,0,0:0:0:0:
64,192,147961,1,0,0:0:0:0:
320,192,148064,1,0,0:0:0:0:
192,192,148064,1,0,0:0:0:0:
64,192,148166,1,0,0:0:0:0:
448,192,148269,1,0,0:0:0:0:
320,192,148372,1,0,0:0:0:0:
448,192,148475,1,0,0:0:0:0:
192,192,148475,1,0,0:0:0:0:
320,192,148577,1,0,0:0:0:0:
192,192,148680,1,0,0:0:0:0:
64,192,148783,1,0,0:0:0:0:
448,192,148886,1,0,0:0:0:0:
320,192,148886,1,0,0:0:0:0:
64,192,148988,1,0,0:0:0:0:
320,192,149091,1,0,0:0:0:0:
192,192,149194,1,0,0:0:0:0:
64,192,149297,1,0,0:0:0:0:
448,192,149297,1,0,0:0:0:0:
192,192,149399,1,0,0:0:0:0:
320,192,149502,1,0,0:0:0:0:
448,192,149605,1,0,0:0:0:0:
192,192,149708,1,0,0:0:0:0:
448,192,149810,1,0,0:0:0:0:
320,192,149913,1,0,0:0:0:0:
192,192,150016,1,0,0:0:0:0:
64,192,150119,1,0,0:0:0:0:
320,192,150119,1,0,0:0:0:0:
192,192,150221,1,0,0:0:0:0:
64,192,150324,1,0,0:0:0:0:
448,192,150427,1,0,0:0:0:0:
64,192,150529,1,0,0:0:0:0:
192,192,150529,1,0,0:0:0:0:
320,192,150632,1,0,0:0:0:0:
192,192,150735,1,0,0:0:0:0:
64,192,150838,1,0,0:0:0:0:
448,192,150940,1,0,0:0:0:0:
320,192,151043,1,0,0:0:0:0:
448,192,151146,1,0,0:0:0:0:
320,192,151249,1,0,0:0:0:0:
192,192,151351,1,0,0:0:0:0:
64,192,151454,1,0,0:0:0:0:
448,192,151557,1,0,0:0:0:0:
320,192,151660,1,0,0:0:0:0:
448,192,151762,1,0,0:0:0:0:
192,192,151762,1,0,0:0:0:0:
64,192,151865,1,0,0:0:0:0:
320,192,151968,1,0,0:0:0:0:
448,192,151968,1,0,0:0:0:0:
64,192,152071,1,0,0:0:0:0:
192,192,152173,1,0,0:0:0:0:
448,192,152173,1,0,0:0:0:0:
320,192,152276,1,0,0:0:0:0:
192,192,152379,1,0,0:0:0:0:
64,192,152482,1,0,0:0:0:0:
448,192,152584,1,0,0:0:0:0:
320,192,152687,1,0,0:0:0:0:
192,192,152790,1,0,0:0:0:0:
64,192,152892,1,0,0:0:0:0:
192,192,152995,1,0,0:0:0:0:
448,192,152995,1,0,0:0:0:0:
64,192,153098,1,0,0:0:0:0:
320,192,153201,1,0,0:0:0:0:
192,192,153303,1,0,0:0:0:0:
448,192,153406,1,0,0:0:0:0:
64,192,153406,1,0,0:0:0:0:
320,192,153509,1,0,0:0:0:0:
448,192,153612,1,0,0:0:0:0:
192,192,153612,1,0,0:0:0:0:
64,192,153714,1,0,0:0:0:0:
448,192,153817,1,0,0:0:0:0:
320,192,153817,1,0,0:0:0:0:
192,192,153920,1,0,0:0:0:0:
64,192,154023,1,0,0:0:0:0:
320,192,154125,1,0,0:0:0:0:
192,192,154228,1,0,0:0:0:0:
64,192,154331,1,0,0:0:0:0:
192,192,154434,1,0,0:0:0:0:
320,192,154536,1,0,0:0:0:0:
448,192,154639,1,0,0:0:0:0:
192,192,154639,1,0,0:0:0:0:
320,192,154742,1,0,0:0:0:0:
192,192,154845,1,0,0:0:0:0:
64,192,154947,1,0,0:0:0:0:
448,192,155050,1,0,0:0:0:0:
320,192,155153,1,0,0:0:0:0:
192,192,155256,1,0,0:0:0:0:
64,192,155358,1,0,0:0:0:0:
320,192,155461,1,0,0:0:0:0:
192,192,155461,1,0,0:0:0:0:
64,192,155564,1,0,0:0:0:0:
448,192,155666,1,0,0:0:0:0:
320,192,155769,1,0,0:0:0:0:
192,192,155872,1,0,0:0:0:0:
64,192,155975,1,0,0:0:0:0:
192,192,156077,1,0,0:0:0:0:
448,192,156180,1,0,0:0:0:0:
320,192,156283,1,0,0:0:0:0:
64,192,156283,1,0,0:0:0:0:
192,192,156386,1,0,0:0:0:0:
64,192,156488,1,0,0:0:0:0:
448,192,156488,1,0,0:0:0:0:
320,192,156591,1,0,0:0:0:0:
192,192,156694,1,0,0:0:0:0:
64,192,156797,1,0,0:0:0:0:
448,192,156899,1,0,0:0:0:0:
320,192,157002,1,0,0:0:0:0:
192,192,157105,1,0,0:0:0:0:
64,192,157105,1,0,0:0:0:0:
448,192,157105,1,0,0:0:0:0:
320,192,157208,1,0,0:0:0:0:
448,192,157310,1,0,0:0:0:0:
64,192,157413,1,0,0:0:0:0:
192,192,157516,1,0,0:0:0:0:
320,192,157619,1,0,0:0:0:0:
448,192,157721,1,0,0:0:0:0:
320,192,157824,1,0,0:0:0:0:
192,192,157927,1,0,0:0:0:0:
448,192,157927,1,0,0:0:0:0:
320,192,158029,1,0,0:0:0:0:
192,192,158132,1,0,0:0:0:0:
64,192,158235,1,0,0:0:0:0:
448,192,158338,1,0,0:0:0:0:
320,192,158440,1,0,0:0:0:0:
192,192,158543,1,0,0:0:0:0:
64,192,158646,1,0,0:0:0:0:
192,192,158749,1,0,0:0:0:0:
448,192,158749,1,0,0:0:0:0:
320,192,158749,1,0,0:0:0:0:
64,192,158851,1,0,0:0:0:0:
192,192,158954,1,0,0:0:0:0:
320,192,159057,1,0,0:0:0:0:
448,192,159160,1,0,0:0:0:0:
192,192,159262,1,0,0:0:0:0:
320,192,159365,1,0,0:0:0:0:
448,192,159365,1,0,0:0:0:0:
192,192,159468,1,0,0:0:0:0:
320,192,159571,1,0,0:0:0:0:
448,192,159571,1,0,0:0:0:0:
192,192,159673,1,0,0:0:0:0:
64,192,159776,1,0,0:0:0:0:
192,192,159879,1,0,0:0:0:0:
320,192,159982,1,0,0:0:0:0:
192,192,160084,1,0,0:0:0:0:
320,192,160187,1,0,0:0:0:0:
64,192,160290,1,0,0:0:0:0:
192,192,160392,1,0,0:0:0:0:
320,192,160495,1,0,0:0:0:0:
192,192,160598,1,0,0:0:0:0:
320,192,160701,1,0,0:0:0:0:
448,192,160803,1,0,0:0:0:0:
192,192,160906,1,0,0:0:0:0:
448,192,161009,1,0,0:0:0:0:
320,192,161112,1,0,0:0:0:0:
192,192,161214,1,0,0:0:0:0:
64,192,161317,1,0,0:0:0:0:
320,192,161420,1,0,0:0:0:0:
192,192,161523,1,0,0:0:0:0:
64,192,161625,1,0,0:0:0:0:
320,192,161625,1,0,0:0:0:0:
448,192,161728,1,0,0:0:0:0:
320,192,161831,1,0,0:0:0:0:
64,192,161831,1,0,0:0:0:0:
448,192,161934,1,0,0:0:0:0:
320,192,162036,1,0,0:0:0:0:
192,192,162036,1,0,0:0:0:0:
64,192,162242,1,0,0:0:0:0:
192,192,162497,1,0,0:0:0:0:
320,192,162702,1,0,0:0:0:0:
192,192,162908,1,0,0:0:0:0:
448,192,162908,1,0,0:0:0:0:
64,192,163113,1,0,0:0:0:0:
192,192,163319,1,0,0:0:0:0:
320,192,163524,1,0,0:0:0:0:
448,192,163730,1,0,0:0:0:0:
64,192,163730,1,0,0:0:0:0:
320,192,163935,1,0,0:0:0:0:
320,192,164168,1,0,0:0:0:0:
192,192,164168,1,0,0:0:0:0:
448,192,164373,1,0,0:0:0:0:
320,192,164579,1,0,0:0:0:0:
448,192,164579,1,0,0:0:0:0:
64,192,164784,1,0,0:0:0:0:
192,192,164990,1,0,0:0:0:0:
320,192,165195,1,0,0:0:0:0:
64,192,165401,1,0,0:0:0:0:
192,192,165401,1,0,0:0:0:0:
64,192,165606,1,0,0:0:0:0:
320,192,165812,1,0,0:0:0:0:
192,192,165812,1,0,0:0:0:0:
448,192,166017,1,0,0:0:0:0:
192,192,166017,1,0,0:0:0:0:
448,192,166223,1,0,0:0:0:0:
320,192,166223,1,0,0:0:0:0:
64,192,166428,1,0,0:0:0:0:
320,192,166634,1,0,0:0:0:0:
192,192,166839,1,0,0:0:0:0:
192,192,167147,1,0,0:0:0:0:
320,192,167147,1,0,0:0:0:0:
64,192,167312,1,0,0:0:0:0:
320,192,167525,1,0,0:0:0:0:
192,192,167525,1,0,0:0:0:0:
448,192,167738,1,0,0:0:0:0:
192,192,167738,1,0,0:0:0:0:
448,192,167951,1,0,0:0:0:0:
320,192,167951,1,0,0:0:0:0:
64,192,168163,1,0,0:0:0:0:
448,192,168376,1,0,0:0:0:0:
320,192,168589,1,0,0:0:0:0:
64,192,168802,1,0,0:0:0:0:
448,192,168802,1,0,0:0:0:0:
320,192,169014,1,0,0:0:0:0:
448,192,169227,1,0,0:0:0:0:
64,192,169440,1,0,0:0:0:0:
448,192,169653,1,0,0:0:0:0:
320,192,169653,1,0,0:0:0:0:
192,192,169865,1,0,0:0:0:0:
320,192,170078,1,0,0:0:0:0:
448,192,170291,1,0,0:0:0:0:
192,192,170504,1,0,0:0:0:0:
320,192,170504,1,0,0:0:0:0:
64,192,170717,1,0,0:0:0:0:
448,192,170929,1,0,0:0:0:0:
192,192,170929,1,0,0:0:0:0:
64,192,171142,1,0,0:0:0:0:
448,192,171355,1,0,0:0:0:0:
320,192,171355,1,0,0:0:0:0:
192,192,171568,1,0,0:0:0:0:
320,192,171780,1,0,0:0:0:0:
448,192,171993,1,0,0:0:0:0:
64,192,172206,1,0,0:0:0:0:
320,192,172206,1,0,0:0:0:0:
64,192,172424,1,0,0:0:0:0:
192,192,172637,1,0,0:0:0:0:
320,192,172637,1,0,0:0:0:0:
192,192,172850,1,0,0:0:0:0:
448,192,172850,1,0,0:0:0:0:
320,192,173063,1,0,0:0:0:0:
448,192,173063,1,0,0:0:0:0:
192,192,173275,1,0,0:0:0:0:
64,192,173488,1,0,0:0:0:0:
320,192,173488,1,0,0:0:0:0:
64,192,173701,1,0,0:0:0:0:
320,192,173914,1,0,0:0:0:0:
448,192,173914,1,0,0:0:0:0:
192,192,174126,1,0,0:0:0:0:
320,192,174339,1,0,0:0:0:0:
448,192,174339,1,0,0:0:0:0:
320,192,174552,1,0,0:0:0:0:
192,192,174552,1,0,0:0:0:0:
320,192,174765,1,0,0:0:0:0:
448,192,174765,1,0,0:0:0:0:
64,192,174977,1,0,0:0:0:0:
192,192,175190,1,0,0:0:0:0:
320,192,175403,1,0,0:0:0:0:
448,192,175616,1,0,0:0:0:0:
320,192,175616,1,0,0:0:0:0:
320,192,175829,1,0,0:0:0:0:
448,192,176072,1,0,0:0:0:0:
64,192,176288,1,0,0:0:0:0:
192,192,176504,1,0,0:0:0:0:
320,192,176720,1,0,0:0:0:0:
448,192,176936,1,0,0:0:0:0:
320,192,177151,1,0,0:0:0:0:
448,192,177367,1,0,0:0:0:0:
320,192,177367,1,0,0:0:0:0:
320,192,177650,1,0,0:0:0:0:
448,192,177865,1,0,0:0:0:0:
64,192,178081,1,0,0:0:0:0:
192,192,178297,1,0,0:0:0:0:
320,192,178513,1,0,0:0:0:0:
448,192,178729,1,0,0:0:0:0:
320,192,178944,1,0,0:0:0:0:
320,192,179174,1,0,0:0:0:0:
448,192,179174,1,0,0:0:0:0:
320,192,179401,1,0,0:0:0:0:
448,192,179628,1,0,0:0:0:0:
192,192,179628,1,0,0:0:0:0:
192,192,179855,1,0,0:0:0:0:
320,192,180083,1,0,0:0:0:0:
64,192,180083,1,0,0:0:0:0:
320,192,180310,1,0,0:0:0:0:
448,192,180537,1,0,0:0:0:0:
64,192,180992,1,0,0:0:0:0:
320,192,180992,1,0,0:0:0:0:
320,192,181219,1,0,0:0:0:0:
448,192,181446,1,0,0:0:0:0:
192,192,181446,1,0,0:0:0:0:
64,192,181674,1,0,0:0:0:0:
192,192,181901,1,0,0:0:0:0:
320,192,182128,1,0,0:0:0:0:
448,192,182355,1,0,0:0:0:0:
64,192,182810,1,0,0:0:0:0:
192,192,182810,1,0,0:0:0:0:
192,192,183053,1,0,0:0:0:0:
320,192,183297,1,0,0:0:0:0:
448,192,183541,1,0,0:0:0:0:
64,192,183785,1,0,0:0:0:0:
192,192,184029,1,0,0:0:0:0:
448,192,184273,1,0,0:0:0:0:
320,192,184517,1,0,0:0:0:0:
448,192,184761,1,0,0:0:0:0:
320,192,184761,1,0,0:0:0:0:
320,192,185005,1,0,0:0:0:0:
448,192,185249,1,0,0:0:0:0:
64,192,185492,1,0,0:0:0:0:
192,192,185736,1,0,0:0:0:0:
448,192,185736,1,0,0:0:0:0:
320,192,185958,1,0,0:0:0:0:
448,192,186196,1,0,0:0:0:0:
320,192,186434,1,0,0:0:0:0:
448,192,186672,1,0,0:0:0:0:
64,192,186910,1,0,0:0:0:0:
448,192,187148,1,0,0:0:0:0:
320,192,187148,1,0,0:0:0:0:
320,192,187386,1,0,0:0:0:0:
192,192,187624,1,0,0:0:0:0:
448,192,187624,1,0,0:0:0:0:
320,192,187922,1,0,0:0:0:0:
448,192,188172,1,0,0:0:0:0:
320,192,188213,1,0,0:0:0:0:
192,192,188422,1,0,0:0:0:0:
64,192,188672,1,0,0:0:0:0:
320,192,188672,1,0,0:0:0:0:
192,192,188922,1,0,0:0:0:0:
192,192,189172,1,0,0:0:0:0:
64,192,189172,1,0,0:0:0:0:
64,192,189422,1,0,0:0:0:0:
192,192,189672,1,0,0:0:0:0:
320,192,189922,1,0,0:0:0:0:
448,192,190172,1,0,0:0:0:0:
320,192,190422,1,0,0:0:0:0:
192,192,190672,1,0,0:0:0:0:
64,192,190922,1,0,0:0:0:0:
448,192,191172,1,0,0:0:0:0:
320,192,191422,1,0,0:0:0:0:
192,192,191672,1,0,0:0:0:0:
64,192,191922,1,0,0:0:0:0:
448,192,192172,1,0,0:0:0:0:
320,192,192422,1,0,0:0:0:0:
192,192,192672,1,0,0:0:0:0:
64,192,192922,1,0,0:0:0:0:
448,192,193172,1,0,0:0:0:0:
320,192,193422,1,0,0:0:0:0:
192,192,193672,1,0,0:0:0:0:
64,192,193922,1,0,0:0:0:0:
448,192,194172,1,0,0:0:0:0:
320,192,194422,1,0,0:0:0:0:
192,192,194672,1,0,0:0:0:0:
64,192,194922,1,0,0:0:0:0:
448,192,195172,1,0,0:0:0:0:
320,192,195422,1,0,0:0:0:0:
192,192,195723,1,0,0:0:0:0:
64,192,196006,1,0,0:0:0:0:
320,192,196292,1,0,0:0:0:0:
192,192,196720,1,0,0:0:0:0:
192,192,199188,1,0,0:0:0:0:
448,192,200041,1,0,0:0:0:0:
320,192,200179,1,0,0:0:0:0:
448,192,200318,1,0,0:0:0:0:
320,192,200388,1,0,0:0:0:0:
448,192,200457,1,0,0:0:0:0:
320,192,200527,1,0,0:0:0:0:
448,192,200596,1,0,0:0:0:0:
320,192,200666,1,0,0:0:0:0:
448,192,200735,1,0,0:0:0:0:
320,192,200804,1,0,0:0:0:0:
448,192,200874,1,0,0:0:0:0:
320,192,200943,1,0,0:0:0:0:
448,192,201013,1,0,0:0:0:0:
320,192,201082,1,0,0:0:0:0:
448,192,201152,1,0,0:0:0:0:
320,192,201221,1,0,0:0:0:0:
448,192,201291,1,0,0:0:0:0:
320,192,201360,1,0,0:0:0:0:
448,192,201429,1,0,0:0:0:0:
320,192,201499,1,0,0:0:0:0:
448,192,201568,1,0,0:0:0:0:
320,192,201638,1,0,0:0:0:0:
448,192,201707,1,0,0:0:0:0:
320,192,201777,1,0,0:0:0:0:
448,192,201846,1,0,0:0:0:0:
320,192,201916,1,0,0:0:0:0:
448,192,201985,1,0,0:0:0:0:
320,192,202054,1,0,0:0:0:0:
448,192,202124,1,0,0:0:0:0:
320,192,202193,1,0,0:0:0:0:
448,192,202263,1,0,0:0:0:0:
320,192,202332,1,0,0:0:0:0:
448,192,202402,1,0,0:0:0:0:
320,192,202471,1,0,0:0:0:0:
448,192,202541,1,0,0:0:0:0:
320,192,202610,1,0,0:0:0:0:
448,192,202679,1,0,0:0:0:0:
320,192,202749,1,0,0:0:0:0:
448,192,202818,1,0,0:0:0:0:
320,192,202888,1,0,0:0:0:0:
448,192,202957,1,0,0:0:0:0:
320,192,203027,1,0,0:0:0:0:
448,192,203096,1,0,0:0:0:0:
320,192,203166,1,0,0:0:0:0:
448,192,203235,1,0,0:0:0:0:
320,192,203304,1,0,0:0:0:0:
448,192,203374,1,0,0:0:0:0:
320,192,203443,1,0,0:0:0:0:
192,192,203530,1,0,0:0:0:0:
64,192,203530,1,0,0:0:0:0:
320,192,203634,1,0,0:0:0:0:
448,192,203634,1,0,0:0:0:0:
192,192,203738,1,0,0:0:0:0:
64,192,203738,1,0,0:0:0:0:
320,192,203843,1,0,0:0:0:0:
448,192,203843,1,0,0:0:0:0:
192,192,203947,1,0,0:0:0:0:
64,192,203947,1,0,0:0:0:0:
64,192,204624,128,0,207541:0:0:0:0:
448,192,208118,5,0,0:0:0:0:
320,192,208282,1,0,0:0:0:0:
192,192,208447,1,0,0:0:0:0:
64,192,208612,1,0,0:0:0:0:
64,192,208777,1,0,0:0:0:0:
192,192,208942,1,0,0:0:0:0:
320,192,209107,1,0,0:0:0:0:
448,192,209271,1,0,0:0:0:0:
448,192,209436,1,0,0:0:0:0:
320,192,209601,1,0,0:0:0:0:
192,192,209766,1,0,0:0:0:0:
64,192,209931,1,0,0:0:0:0:
64,192,210096,1,0,0:0:0:0:
192,192,210260,1,0,0:0:0:0:
320,192,210425,1,0,0:0:0:0:
448,192,210590,1,0,0:0:0:0:
448,192,210755,1,0,0:0:0:0:
320,192,210920,1,0,0:0:0:0:
192,192,211085,1,0,0:0:0:0:
64,192,211249,1,0,0:0:0:0:
64,192,211414,1,0,0:0:0:0:
192,192,211579,1,0,0:0:0:0:
320,192,211744,1,0,0:0:0:0:
448,192,211909,1,0,0:0:0:0:
448,192,212074,1,0,0:0:0:0:
320,192,212238,1,0,0:0:0:0:
192,192,212403,1,0,0:0:0:0:
64,192,212568,1,0,0:0:0:0:
64,192,212733,1,0,0:0:0:0:
192,192,212898,1,0,0:0:0:0:
320,192,213063,1,0,0:0:0:0:
448,192,213227,1,0,0:0:0:0:
448,192,213392,1,0,0:0:0:0:
320,192,213557,1,0,0:0:0:0:
192,192,213722,1,0,0:0:0:0:
64,192,213887,1,0,0:0:0:0:
64,192,214052,1,0,0:0:0:0:
192,192,214216,1,0,0:0:0:0:
320,192,214381,1,0,0:0:0:0:
448,192,214546,1,0,0:0:0:0:
448,192,214711,1,0,0:0:0:0:
320,192,214876,1,0,0:0:0:0:
192,192,215041,1,0,0:0:0:0:
64,192,215205,1,0,0:0:0:0:
64,192,215370,1,0,0:0:0:0:
192,192,215535,1,0,0:0:0:0:
320,192,215700,1,0,0:0:0:0:
448,192,215865,1,0,0:0:0:0:
448,192,216030,1,0,0:0:0:0:
320,192,216194,1,0,0:0:0:0:
192,192,216359,1,0,0:0:0:0:
64,192,216524,1,0,0:0:0:0:
64,192,216689,1,0,0:0:0:0:
192,192,216854,1,0,0:0:0:0:
320,192,217019,1,0,0:0:0:0:
448,192,217183,1,0,0:0:0:0:
448,192,217348,1,0,0:0:0:0:
320,192,217513,1,0,0:0:0:0:
192,192,217678,1,0,0:0:0:0:
64,192,217843,1,0,0:0:0:0:
64,192,218008,1,0,0:0:0:0:
192,192,218172,1,0,0:0:0:0:
320,192,218337,1,0,0:0:0:0:
448,192,218502,1,0,0:0:0:0:
64,192,218667,1,0,0:0:0:0:
192,192,218667,1,0,0:0:0:0:
192,192,218832,1,0,0:0:0:0:
320,192,218997,1,0,0:0:0:0:
448,192,219161,1,0,0:0:0:0:
64,192,219326,1,0,0:0:0:0:
192,192,219326,1,0,0:0:0:0:
192,192,219491,1,0,0:0:0:0:
320,192,219656,1,0,0:0:0:0:
448,192,219821,1,0,0:0:0:0:
64,192,219986,1,0,0:0:0:0:
192,192,219986,1,0,0:0:0:0:
192,192,220150,1,0,0:0:0:0:
320,192,220315,1,0,0:0:0:0:
448,192,220480,1,0,0:0:0:0:
64,192,220645,1,0,0:0:0:0:
192,192,220645,1,0,0:0:0:0:
192,192,220810,1,0,0:0:0:0:
320,192,220975,1,0,0:0:0:0:
448,192,221139,1,0,0:0:0:0:
64,192,221304,1,0,0:0:0:0:
192,192,221304,1,0,0:0:0:0:
192,192,221469,1,0,0:0:0:0:
320,192,221634,1,0,0:0:0:0:
448,192,221799,1,0,0:0:0:0:
64,192,221964,1,0,0:0:0:0:
192,192,221964,1,0,0:0:0:0:
192,192,222128,1,0,0:0:0:0:
320,192,222293,1,0,0:0:0:0:
448,192,222458,1,0,0:0:0:0:
64,192,222623,1,0,0:0:0:0:
192,192,222623,1,0,0:0:0:0:
192,192,222788,1,0,0:0:0:0:
320,192,222953,1,0,0:0:0:0:
448,192,223118,1,0,0:0:0:0:
64,192,223282,1,0,0:0:0:0:
192,192,223282,1,0,0:0:0:0:
192,192,223447,1,0,0:0:0:0:
320,192,223612,1,0,0:0:0:0:
448,192,223777,1,0,0:0:0:0:
64,192,223942,1,0,0:0:0:0:
192,192,223942,1,0,0:0:0:0:
320,192,224024,1,0,0:0:0:0:
448,192,224107,1,0,0:0:0:0:
320,192,224189,1,0,0:0:0:0:
192,192,224271,1,0,0:0:0:0:
64,192,224354,1,0,0:0:0:0:
448,192,224436,1,0,0:0:0:0:
320,192,224519,1,0,0:0:0:0:
192,192,224601,1,0,0:0:0:0:
64,192,224601,1,0,0:0:0:0:
320,192,224683,1,0,0:0:0:0:
448,192,224766,1,0,0:0:0:0:
320,192,224848,1,0,0:0:0:0:
192,192,224931,1,0,0:0:0:0:
64,192,225013,1,0,0:0:0:0:
448,192,225096,1,0,0:0:0:0:
320,192,225178,1,0,0:0:0:0:
192,192,225260,1,0,0:0:0:0:
64,192,225260,1,0,0:0:0:0:
320,192,225343,1,0,0:0:0:0:
448,192,225425,1,0,0:0:0:0:
320,192,225508,1,0,0:0:0:0:
192,192,225590,1,0,0:0:0:0:
64,192,225672,1,0,0:0:0:0:
448,192,225755,1,0,0:0:0:0:
320,192,225837,1,0,0:0:0:0:
192,192,225920,1,0,0:0:0:0:
64,192,225920,1,0,0:0:0:0:
320,192,226002,1,0,0:0:0:0:
448,192,226085,1,0,0:0:0:0:
320,192,226167,1,0,0:0:0:0:
192,192,226249,1,0,0:0:0:0:
64,192,226332,1,0,0:0:0:0:
448,192,226414,1,0,0:0:0:0:
320,192,226497,1,0,0:0:0:0:
192,192,226579,1,0,0:0:0:0:
64,192,226579,1,0,0:0:0:0:
320,192,226689,1,0,0:0:0:0:
192,192,226799,1,0,0:0:0:0:
64,192,226909,1,0,0:0:0:0:
192,192,227019,1,0,0:0:0:0:
64,192,227128,1,0,0:0:0:0:
192,192,227238,1,0,0:0:0:0:
64,192,227348,1,0,0:0:0:0:
192,192,227458,1,0,0:0:0:0:
320,192,227568,1,0,0:0:0:0:
192,192,227678,1,0,0:0:0:0:
320,192,227788,1,0,0:0:0:0:
448,192,227898,1,0,0:0:0:0:
320,192,228008,1,0,0:0:0:0:
448,192,228118,1,0,0:0:0:0:
320,192,228227,1,0,0:0:0:0:
192,192,228337,1,0,0:0:0:0:
448,192,228447,1,0,0:0:0:0:
320,192,228557,1,0,0:0:0:0:
448,192,228667,1,0,0:0:0:0:
320,192,228777,1,0,0:0:0:0:
64,192,228887,1,0,0:0:0:0:
192,192,228997,1,0,0:0:0:0:
320,192,229107,1,0,0:0:0:0:
320,192,229216,1,0,0:0:0:0:
448,192,229381,1,0,0:0:0:0:
320,192,229491,1,0,0:0:0:0:
192,192,229601,1,0,0:0:0:0:
320,192,229711,1,0,0:0:0:0:
448,192,229821,1,0,0:0:0:0:
320,192,229931,1,0,0:0:0:0:
448,192,230041,1,0,0:0:0:0:
320,192,230150,1,0,0:0:0:0:
192,192,230260,1,0,0:0:0:0:
320,192,230370,1,0,0:0:0:0:
448,192,230480,1,0,0:0:0:0:
320,192,230590,1,0,0:0:0:0:
448,192,230755,1,0,0:0:0:0:
320,192,230865,1,0,0:0:0:0:
192,192,230975,1,0,0:0:0:0:
64,192,231085,1,0,0:0:0:0:
192,192,231194,1,0,0:0:0:0:
448,192,231304,1,0,0:0:0:0:
320,192,231414,1,0,0:0:0:0:
192,192,231524,1,0,0:0:0:0:
64,192,231634,1,0,0:0:0:0:
192,192,231744,1,0,0:0:0:0:
448,192,231854,1,0,0:0:0:0:
192,192,232019,1,0,0:0:0:0:
64,192,232019,1,0,0:0:0:0:
192,192,232238,1,0,0:0:0:0:
320,192,232238,1,0,0:0:0:0:
320,192,232458,1,0,0:0:0:0:
448,192,232458,1,0,0:0:0:0:
64,192,233172,1,0,0:0:0:0:
192,192,233392,1,0,0:0:0:0:
448,192,233392,1,0,0:0:0:0:
320,192,233557,1,0,0:0:0:0:
64,192,233557,1,0,0:0:0:0:
192,192,233722,1,0,0:0:0:0:
448,192,233722,1,0,0:0:0:0:
320,192,233859,1,0,0:0:0:0:
64,192,233859,1,0,0:0:0:0:
448,192,234326,1,0,0:0:0:0:
320,192,234326,1,0,0:0:0:0:
320,192,234546,1,0,0:0:0:0:
192,192,234546,1,0,0:0:0:0:
320,192,234766,1,0,0:0:0:0:
448,192,234766,1,0,0:0:0:0:
320,192,235260,1,0,0:0:0:0:
192,192,235260,1,0,0:0:0:0:
64,192,235700,1,0,0:0:0:0:
320,192,235700,1,0,0:0:0:0:
192,192,236139,1,0,0:0:0:0:
64,192,236139,1,0,0:0:0:0:
64,192,236579,1,0,0:0:0:0:
320,192,236579,1,0,0:0:0:0:
192,192,237074,1,0,0:0:0:0:
64,192,237074,1,0,0:0:0:0:
320,192,237513,1,0,0:0:0:0:
64,192,237513,1,0,0:0:0:0:
192,192,237733,1,0,0:0:0:0:
320,192,237733,1,0,0:0:0:0:
192,192,237953,1,0,0:0:0:0:
448,192,237953,1,0,0:0:0:0:
192,192,238667,1,0,0:0:0:0:
320,192,238667,1,0,0:0:0:0:
448,192,238887,1,0,0:0:0:0:
192,192,238887,1,0,0:0:0:0:
320,192,239052,1,0,0:0:0:0:
64,192,239052,1,0,0:0:0:0:
192,192,239216,1,0,0:0:0:0:
448,192,239216,1,0,0:0:0:0:
64,192,239354,1,0,0:0:0:0:
320,192,239354,1,0,0:0:0:0:
320,192,239821,1,0,0:0:0:0:
192,192,239821,1,0,0:0:0:0:
64,192,240041,1,0,0:0:0:0:
448,192,240041,1,0,0:0:0:0:
320,192,240260,1,0,0:0:0:0:
192,192,240260,1,0,0:0:0:0:
64,192,240755,1,0,0:0:0:0:
320,192,240755,1,0,0:0:0:0:
320,192,241194,1,0,0:0:0:0:
64,192,241194,1,0,0:0:0:0:
64,192,241634,1,0,0:0:0:0:
192,192,241634,1,0,0:0:0:0:
448,192,242128,1,0,0:0:0:0:
192,192,242128,1,0,0:0:0:0:
320,192,242568,1,0,0:0:0:0:
64,192,242568,1,0,0:0:0:0:
64,192,243015,1,0,0:0:0:0:
192,192,243015,1,0,0:0:0:0:
192,192,243244,1,0,0:0:0:0:
448,192,243473,1,0,0:0:0:0:
320,192,243473,1,0,0:0:0:0:
448,192,244161,1,0,0:0:0:0:
320,192,244161,1,0,0:0:0:0:
64,192,244389,1,0,0:0:0:0:
192,192,244389,1,0,0:0:0:0:
192,192,244618,1,0,0:0:0:0:
448,192,244847,1,0,0:0:0:0:
320,192,244847,1,0,0:0:0:0:
448,192,245535,1,0,0:0:0:0:
320,192,245535,1,0,0:0:0:0:
192,192,245755,1,0,0:0:0:0:
64,192,245755,1,0,0:0:0:0:
192,192,245992,1,0,0:0:0:0:
448,192,246221,1,0,0:0:0:0:
192,192,246221,1,0,0:0:0:0:
448,192,246908,1,0,0:0:0:0:
192,192,246908,1,0,0:0:0:0:
64,192,247137,1,0,0:0:0:0:
192,192,247137,1,0,0:0:0:0:
64,192,247366,1,0,0:0:0:0:
448,192,247595,1,0,0:0:0:0:
192,192,247595,1,0,0:0:0:0:
448,192,248282,1,0,0:0:0:0:
192,192,248282,1,0,0:0:0:0:
64,192,248511,1,0,0:0:0:0:
192,192,248511,1,0,0:0:0:0:
320,192,248740,1,0,0:0:0:0:
448,192,248969,1,0,0:0:0:0:
64,192,249198,1,0,0:0:0:0:
192,192,249427,1,0,0:0:0:0:
320,192,249656,1,0,0:0:0:0:
448,192,249885,1,0,0:0:0:0:
192,192,249885,1,0,0:0:0:0:
192,192,250114,1,0,0:0:0:0:
448,192,250114,1,0,0:0:0:0:
64,192,250343,1,0,0:0:0:0:
320,192,250343,1,0,0:0:0:0:
320,192,250572,1,0,0:0:0:0:
64,192,250572,1,0,0:0:0:0:
192,192,250801,1,0,0:0:0:0:
448,192,250801,1,0,0:0:0:0:
448,192,251030,1,0,0:0:0:0:
192,192,251030,1,0,0:0:0:0:
64,192,251259,1,0,0:0:0:0:
320,192,251259,1,0,0:0:0:0:
192,192,251488,1,0,0:0:0:0:
448,192,251717,1,0,0:0:0:0:
320,192,251946,1,0,0:0:0:0:
192,192,252175,1,0,0:0:0:0:
64,192,252404,1,0,0:0:0:0:
448,192,252633,1,0,0:0:0:0:
192,192,252633,1,0,0:0:0:0:
320,192,252862,1,0,0:0:0:0:
192,192,253091,1,0,0:0:0:0:
64,192,253320,1,0,0:0:0:0:
192,192,253434,1,0,0:0:0:0:
448,192,253549,1,0,0:0:0:0:
320,192,253549,1,0,0:0:0:0:
192,192,253663,1,0,0:0:0:0:
64,192,253663,1,0,0:0:0:0:
448,192,253778,1,0,0:0:0:0:
320,192,253778,1,0,0:0:0:0:
64,192,253892,1,0,0:0:0:0:
192,192,253892,1,0,0:0:0:0:
448,192,254007,1,0,0:0:0:0:
320,192,254007,1,0,0:0:0:0:
64,192,254007,1,0,0:0:0:0:
192,192,254232,1,0,0:0:0:0:
64,192,254232,1,0,0:0:0:0:
64,192,254453,1,0,0:0:0:0:
320,192,254453,1,0,0:0:0:0:
448,192,254673,1,0,0:0:0:0:
448,192,254894,1,0,0:0:0:0:
320,192,255114,1,0,0:0:0:0:
448,192,255335,1,0,0:0:0:0:
192,192,255335,1,0,0:0:0:0:
64,192,255482,1,0,0:0:0:0:
320,192,255482,1,0,0:0:0:0:
448,192,255629,1,0,0:0:0:0:
192,192,255629,1,0,0:0:0:0:
64,192,255776,1,0,0:0:0:0:
320,192,255776,1,0,0:0:0:0:
448,192,255997,1,0,0:0:0:0:
64,192,256217,1,0,0:0:0:0:
192,192,256217,1,0,0:0:0:0:
320,192,256438,1,0,0:0:0:0:
192,192,256438,1,0,0:0:0:0:
192,192,256659,1,0,0:0:0:0:
64,192,256659,1,0,0:0:0:0:
448,192,256879,1,0,0:0:0:0:
192,192,257100,1,0,0:0:0:0:
448,192,257320,1,0,0:0:0:0:
320,192,257541,1,0,0:0:0:0:
192,192,257541,1,0,0:0:0:0:
448,192,257762,1,0,0:0:0:0:
320,192,257982,1,0,0:0:0:0:
64,192,257982,1,0,0:0:0:0:
448,192,258203,1,0,0:0:0:0:
320,192,258423,1,0,0:0:0:0:
448,192,258644,1,0,0:0:0:0:
64,192,258864,1,0,0:0:0:0:
448,192,259085,1,0,0:0:0:0:
64,192,259306,1,0,0:0:0:0:
320,192,259306,1,0,0:0:0:0:
192,192,259526,1,0,0:0:0:0:
64,192,259526,1,0,0:0:0:0:
64,192,259747,1,0,0:0:0:0:
320,192,259747,1,0,0:0:0:0:
448,192,259967,1,0,0:0:0:0:
448,192,260188,1,0,0:0:0:0:
320,192,260409,1,0,0:0:0:0:
448,192,260629,1,0,0:0:0:0:
192,192,260629,1,0,0:0:0:0:
320,192,260776,1,0,0:0:0:0:
64,192,260776,1,0,0:0:0:0:
448,192,260923,1,0,0:0:0:0:
192,192,260923,1,0,0:0:0:0:
64,192,261070,1,0,0:0:0:0:
320,192,261070,1,0,0:0:0:0:
448,192,261291,1,0,0:0:0:0:
64,192,261512,1,0,0:0:0:0:
192,192,261512,1,0,0:0:0:0:
320,192,261732,1,0,0:0:0:0:
192,192,261732,1,0,0:0:0:0:
192,192,261953,1,0,0:0:0:0:
64,192,261953,1,0,0:0:0:0:
448,192,262173,1,0,0:0:0:0:
192,192,262394,1,0,0:0:0:0:
448,192,262614,1,0,0:0:0:0:
320,192,262835,1,0,0:0:0:0:
64,192,262835,1,0,0:0:0:0:
448,192,263056,1,0,0:0:0:0:
64,192,263276,1,0,0:0:0:0:
192,192,263276,1,0,0:0:0:0:
448,192,263497,1,0,0:0:0:0:
192,192,263717,1,0,0:0:0:0:
448,192,263938,1,0,0:0:0:0:
320,192,264159,1,0,0:0:0:0:
448,192,264379,1,0,0:0:0:0:
64,192,264379,1,0,0:0:0:0:
192,192,264600,1,0,0:0:0:0:
320,192,264600,1,0,0:0:0:0:
320,192,264809,1,0,0:0:0:0:
448,192,265019,1,0,0:0:0:0:
448,192,265229,1,0,0:0:0:0:
192,192,265439,1,0,0:0:0:0:
192,192,265648,1,0,0:0:0:0:
64,192,265858,1,0,0:0:0:0:
192,192,265963,1,0,0:0:0:0:
320,192,266068,1,0,0:0:0:0:
192,192,266173,1,0,0:0:0:0:
64,192,266278,1,0,0:0:0:0:
448,192,266278,1,0,0:0:0:0:
320,192,266383,1,0,0:0:0:0:
192,192,266488,1,0,0:0:0:0:
320,192,266593,1,0,0:0:0:0:
448,192,266697,1,0,0:0:0:0:
64,192,266697,1,0,0:0:0:0:
320,192,266802,1,0,0:0:0:0:
192,192,266907,1,0,0:0:0:0:
64,192,267012,1,0,0:0:0:0:
192,192,267117,1,0,0:0:0:0:
192,192,267327,1,0,0:0:0:0:
320,192,267537,1,0,0:0:0:0:
320,192,267746,1,0,0:0:0:0:
64,192,267956,1,0,0:0:0:0:
64,192,268166,1,0,0:0:0:0:
192,192,268376,1,0,0:0:0:0:
64,192,268376,1,0,0:0:0:0:
320,192,268481,1,0,0:0:0:0:
192,192,268586,1,0,0:0:0:0:
320,192,268690,1,0,0:0:0:0:
192,192,268795,1,0,0:0:0:0:
64,192,268795,1,0,0:0:0:0:
320,192,268900,1,0,0:0:0:0:
448,192,269005,1,0,0:0:0:0:
320,192,269110,1,0,0:0:0:0:
192,192,269215,1,0,0:0:0:0:
64,192,269215,1,0,0:0:0:0:
320,192,269320,1,0,0:0:0:0:
192,192,269425,1,0,0:0:0:0:
320,192,269530,1,0,0:0:0:0:
192,192,269634,1,0,0:0:0:0:
192,192,269844,1,0,0:0:0:0:
320,192,270054,1,0,0:0:0:0:
192,192,270264,1,0,0:0:0:0:
64,192,270474,1,0,0:0:0:0:
64,192,270683,1,0,0:0:0:0:
64,192,270893,1,0,0:0:0:0:
192,192,270998,1,0,0:0:0:0:
64,192,271103,1,0,0:0:0:0:
192,192,271208,1,0,0:0:0:0:
320,192,271313,1,0,0:0:0:0:
192,192,271418,1,0,0:0:0:0:
320,192,271523,1,0,0:0:0:0:
192,192,271627,1,0,0:0:0:0:
320,192,271732,1,0,0:0:0:0:
448,192,271837,1,0,0:0:0:0:
320,192,271942,1,0,0:0:0:0:
448,192,272047,1,0,0:0:0:0:
320,192,272152,1,0,0:0:0:0:
192,192,272572,1,0,0:0:0:0:
320,192,272572,1,0,0:0:0:0:
192,192,273411,1,0,0:0:0:0:
448,192,273411,1,0,0:0:0:0:
64,192,273620,1,0,0:0:0:0:
192,192,273725,1,0,0:0:0:0:
320,192,273830,1,0,0:0:0:0:
192,192,274040,1,0,0:0:0:0:
320,192,274250,1,0,0:0:0:0:
448,192,274460,1,0,0:0:0:0:
192,192,274669,1,0,0:0:0:0:
64,192,274880,1,0,0:0:0:0:
448,192,275091,1,0,0:0:0:0:
320,192,275302,1,0,0:0:0:0:
448,192,275514,1,0,0:0:0:0:
320,192,275725,1,0,0:0:0:0:
192,192,275936,1,0,0:0:0:0:
448,192,275936,1,0,0:0:0:0:
64,192,276147,1,0,0:0:0:0:
448,192,276359,1,0,0:0:0:0:
320,192,276570,1,0,0:0:0:0:
448,192,276570,1,0,0:0:0:0:
192,192,276781,1,0,0:0:0:0:
320,192,276781,1,0,0:0:0:0:
64,192,276992,1,0,0:0:0:0:
192,192,276992,1,0,0:0:0:0:
192,192,277204,1,0,0:0:0:0:
320,192,277204,1,0,0:0:0:0:
192,192,277415,1,0,0:0:0:0:
448,192,277415,1,0,0:0:0:0:
64,192,277626,1,0,0:0:0:0:
448,192,277626,1,0,0:0:0:0:
320,192,277838,1,0,0:0:0:0:
448,192,278049,1,0,0:0:0:0:
320,192,278260,1,0,0:0:0:0:
448,192,278471,1,0,0:0:0:0:
320,192,278612,1,0,0:0:0:0:
192,192,278753,1,0,0:0:0:0:
64,192,278894,1,0,0:0:0:0:
320,192,279105,1,0,0:0:0:0:
64,192,279316,1,0,0:0:0:0:
192,192,279528,1,0,0:0:0:0:
192,192,279739,1,0,0:0:0:0:
64,192,279739,1,0,0:0:0:0:
320,192,279950,1,0,0:0:0:0:
192,192,279950,1,0,0:0:0:0:
448,192,280161,1,0,0:0:0:0:
320,192,280161,1,0,0:0:0:0:
192,192,280373,1,0,0:0:0:0:
64,192,280584,1,0,0:0:0:0:
192,192,280795,1,0,0:0:0:0:
448,192,280795,1,0,0:0:0:0:
320,192,281007,1,0,0:0:0:0:
64,192,281007,1,0,0:0:0:0:
448,192,281218,1,0,0:0:0:0:
448,192,281429,1,0,0:0:0:0:
320,192,281429,1,0,0:0:0:0:
320,192,281640,1,0,0:0:0:0:
192,192,281852,1,0,0:0:0:0:
64,192,282063,1,0,0:0:0:0:
64,192,282274,1,0,0:0:0:0:
192,192,282274,1,0,0:0:0:0:
320,192,282485,1,0,0:0:0:0:
192,192,282485,1,0,0:0:0:0:
320,192,282697,1,0,0:0:0:0:
448,192,282697,1,0,0:0:0:0:
320,192,282908,1,0,0:0:0:0:
192,192,283119,1,0,0:0:0:0:
64,192,283330,1,0,0:0:0:0:
320,192,283330,1,0,0:0:0:0:
192,192,283542,1,0,0:0:0:0:
320,192,283542,1,0,0:0:0:0:
448,192,283753,1,0,0:0:0:0:
192,192,283753,1,0,0:0:0:0:
448,192,283964,1,0,0:0:0:0:
320,192,283964,1,0,0:0:0:0:
192,192,284176,1,0,0:0:0:0:
64,192,284387,1,0,0:0:0:0:
448,192,284387,1,0,0:0:0:0:
320,192,284598,1,0,0:0:0:0:
192,192,284598,1,0,0:0:0:0:
448,192,284809,1,0,0:0:0:0:
64,192,284809,1,0,0:0:0:0:
320,192,284915,1,0,0:0:0:0:
192,192,285021,1,0,0:0:0:0:
64,192,285126,1,0,0:0:0:0:
192,192,285232,1,0,0:0:0:0:
64,192,285443,1,0,0:0:0:0:
320,192,285654,1,0,0:0:0:0:
192,192,285866,1,0,0:0:0:0:
448,192,286077,1,0,0:0:0:0:
320,192,286288,1,0,0:0:0:0:
448,192,286499,1,0,0:0:0:0:
192,192,286711,1,0,0:0:0:0:
448,192,286909,1,0,0:0:0:0:
320,192,287014,1,0,0:0:0:0:
192,192,287120,1,0,0:0:0:0:
64,192,287225,1,0,0:0:0:0:
320,192,287331,1,0,0:0:0:0:
448,192,287331,1,0,0:0:0:0:
320,192,287542,1,0,0:0:0:0:
192,192,287542,1,0,0:0:0:0:
448,192,287754,1,0,0:0:0:0:
320,192,287754,1,0,0:0:0:0:
64,192,288176,1,0,0:0:0:0:
448,192,288599,1,0,0:0:0:0:
192,192,288810,1,0,0:0:0:0:
448,192,289021,1,0,0:0:0:0:
64,192,289444,1,0,0:0:0:0:
448,192,289866,1,0,0:0:0:0:
192,192,290183,1,0,0:0:0:0:
64,192,292345,1,0,0:0:0:0:
192,192,292345,1,0,0:0:0:0:
320,192,292345,1,0,0:0:0:0:
448,192,292595,1,0,0:0:0:0:
320,192,292595,1,0,0:0:0:0:
192,192,292595,1,0,0:0:0:0:
64,192,292845,1,0,0:0:0:0:
192,192,292845,1,0,0:0:0:0:
320,192,292845,1,0,0:0:0:0:
448,192,293095,1,0,0:0:0:0:
320,192,293095,1,0,0:0:0:0:
192,192,293095,1,0,0:0:0:0:
64,192,293345,1,0,0:0:0:0:
192,192,293345,1,0,0:0:0:0:
320,192,293345,1,0,0:0:0:0:
448,192,293595,1,0,0:0:0:0:
320,192,293595,1,0,0:0:0:0:
192,192,293595,1,0,0:0:0:0:
448,192,293845,1,0,0:0:0:0:
64,192,293845,1,0,0:0:0:0:
192,192,293845,1,0,0:0:0:0:
448,192,294095,1,0,0:0:0:0:
64,192,294095,1,0,0:0:0:0:
320,192,294095,1,0,0:0:0:0:
320,192,294345,1,0,0:0:0:0:
192,192,294345,1,0,0:0:0:0:
64,192,294345,1,0,0:0:0:0:
192,192,294595,1,0,0:0:0:0:
64,192,294845,1,0,0:0:0:0:
320,192,295595,1,0,0:0:0:0:
192,192,295845,1,0,0:0:0:0:
64,192,296011,1,0,0:0:0:0:
192,192,296178,1,0,0:0:0:0:
64,192,296345,1,0,0:0:0:0:
64,192,296845,1,0,0:0:0:0:
192,192,297095,1,0,0:0:0:0:
320,192,297345,1,0,0:0:0:0:
64,192,297845,1,0,0:0:0:0:
320,192,298345,1,0,0:0:0:0:
192,192,298845,1,0,0:0:0:0:
448,192,299345,1,0,0:0:0:0:
64,192,300095,1,0,0:0:0:0:
