osu file format v14

[General]
AudioFilename: audio.mp3
AudioLeadIn: 0
PreviewTime: 3290
Countdown: 0
SampleSet: Normal
StackLeniency: 0.7
Mode: 1
LetterboxInBreaks: 0
WidescreenStoryboard: 1

[Editor]
Bookmarks: 13019,29235,34911
DistanceSpacing: 1
BeatDivisor: 2
GridSize: 32
TimelineZoom: 0.6999999

[Metadata]
Title:Sis puella magica!
TitleUnicode:Sis puella magica!
Artist:Yuki Kajiura
ArtistUnicode:梶浦 由記
Creator:tatatat
Version:Muzukashii
Source:魔法少女まどか★マギカ
Tags:Asherz007 short version tv size anime Puella Magi Madoka Magica Mahou Shoujo Madoka★Magica
BeatmapID:1425655
BeatmapSetID:614549

[Difficulty]
HPDrainRate:6.5
CircleSize:2
OverallDifficulty:4.5
ApproachRate:10
SliderMultiplier:1.40000000596047
SliderTickRate:1

[Events]
//Background and Video events
0,0,"bg-img.png",0,0
//Break Periods
//Storyboard Layer 0 (Background)
//Storyboard Layer 1 (Fail)
//Storyboard Layer 2 (Pass)
//Storyboard Layer 3 (Foreground)
//Storyboard Sound Samples

[TimingPoints]
3290,405.405405405405,6,1,0,50,1,0
22749,-100,6,1,0,50,0,1
39776,-100,6,1,0,50,0,0

[HitObjects]
256,192,3290,5,4,0:0:0:0:
256,192,3695,1,8,0:0:0:0:
256,192,3898,1,8,0:0:0:0:
256,192,4100,1,0,0:0:0:0:
256,192,4506,1,0,0:0:0:0:
256,192,4911,1,8,0:0:0:0:
256,192,5114,1,0,0:0:0:0:
256,192,5317,1,0,0:0:0:0:
256,192,5722,1,12,0:0:0:0:
256,192,5925,1,0,0:0:0:0:
256,192,6127,1,8,0:0:0:0:
256,192,6330,1,8,0:0:0:0:
256,192,6533,1,0,0:0:0:0:
256,192,6938,1,0,0:0:0:0:
256,192,7344,1,8,0:0:0:0:
256,192,7546,1,0,0:0:0:0:
256,192,7749,1,0,0:0:0:0:
256,192,8154,1,4,0:0:0:0:
256,192,8357,1,0,0:0:0:0:
256,192,8560,1,8,0:0:0:0:
256,192,8762,1,8,0:0:0:0:
256,192,8965,1,0,0:0:0:0:
256,192,9371,1,0,0:0:0:0:
256,192,9776,1,8,0:0:0:0:
256,192,10181,1,0,0:0:0:0:
256,192,10587,1,4,0:0:0:0:
256,192,10789,1,4,0:0:0:0:
256,192,10992,1,12,0:0:0:0:
256,192,11398,1,8,0:0:0:0:
256,192,11600,1,0,0:0:0:0:
256,192,11803,1,8,0:0:0:0:
256,192,12208,1,8,0:0:0:0:
256,192,12614,1,0,0:0:0:0:
256,192,13019,1,12,0:0:0:0:
256,192,13222,1,0,0:0:0:0:
256,192,13425,1,8,0:0:0:0:
256,192,13627,1,0,0:0:0:0:
256,192,13830,1,0,0:0:0:0:
256,192,14235,1,0,0:0:0:0:
256,192,14641,1,8,0:0:0:0:
256,192,15046,1,0,0:0:0:0:
256,192,15452,1,12,0:0:0:0:
256,192,15654,1,0,0:0:0:0:
256,192,15857,1,8,0:0:0:0:
256,192,16060,1,0,0:0:0:0:
256,192,16262,1,8,0:0:0:0:
256,192,16668,1,0,0:0:0:0:
256,192,17073,1,8,0:0:0:0:
256,192,17479,1,0,0:0:0:0:
256,192,17884,1,4,0:0:0:0:
256,192,18087,1,0,0:0:0:0:
256,192,18289,1,8,0:0:0:0:
256,192,18492,1,8,0:0:0:0:
256,192,18695,1,0,0:0:0:0:
256,192,19100,1,0,0:0:0:0:
256,192,19506,1,8,0:0:0:0:
256,192,19911,1,0,0:0:0:0:
256,192,20317,1,12,0:0:0:0:
256,192,20519,1,0,0:0:0:0:
256,192,20722,1,8,0:0:0:0:
256,192,21127,1,0,0:0:0:0:
256,192,21330,1,0,0:0:0:0:
256,192,21533,1,8,0:0:0:0:
256,192,21938,1,8,0:0:0:0:
256,192,22749,1,4,0:0:0:0:
256,192,22952,1,0,0:0:0:0:
256,192,23154,1,8,0:0:0:0:
256,192,23560,1,0,0:0:0:0:
256,192,23965,1,0,0:0:0:0:
256,192,24168,1,0,0:0:0:0:
256,192,24371,1,8,0:0:0:0:
256,192,24776,1,0,0:0:0:0:
256,192,25181,1,12,0:0:0:0:
256,192,25384,1,0,0:0:0:0:
256,192,25587,1,8,0:0:0:0:
256,192,25789,1,8,0:0:0:0:
256,192,25992,1,0,0:0:0:0:
256,192,26195,1,0,0:0:0:0:
256,192,26398,1,8,0:0:0:0:
256,192,26803,1,8,0:0:0:0:
256,192,27208,1,0,0:0:0:0:
256,192,27614,1,4,0:0:0:0:
256,192,27817,1,0,0:0:0:0:
256,192,28019,1,8,0:0:0:0:
256,192,28425,1,0,0:0:0:0:
256,192,28830,1,0,0:0:0:0:
256,192,29235,1,8,0:0:0:0:
256,192,29641,1,0,0:0:0:0:
256,192,30046,1,12,0:0:0:0:
256,192,30249,1,0,0:0:0:0:
256,192,30452,1,8,0:0:0:0:
256,192,30857,1,8,0:0:0:0:
256,192,31262,1,0,0:0:0:0:
256,192,31465,1,0,0:0:0:0:
256,192,31668,1,8,0:0:0:0:
256,192,32073,1,0,0:0:0:0:
256,192,32479,1,4,0:0:0:0:
256,192,32884,1,8,0:0:0:0:
256,192,33289,1,0,0:0:0:0:
256,192,33695,1,0,0:0:0:0:
256,192,33898,1,0,0:0:0:0:
256,192,34100,1,8,0:0:0:0:
256,192,34911,1,4,0:0:0:0:
256,192,35317,1,8,0:0:0:0:
256,192,35722,1,0,0:0:0:0:
256,192,36127,1,0,0:0:0:0:
256,192,36330,1,0,0:0:0:0:
256,192,36533,1,8,0:0:0:0:
256,192,36938,1,0,0:0:0:0:
256,192,37344,1,4,0:0:0:0:
256,192,37546,1,0,0:0:0:0:
256,192,37749,1,8,0:0:0:0:
256,192,38154,1,0,0:0:0:0:
256,192,38560,1,0,0:0:0:0:
256,192,38762,1,0,0:0:0:0:
256,192,38965,1,8,0:0:0:0:
256,192,39371,1,0,0:0:0:0:
256,192,39776,1,4,0:0:0:0:
256,192,39979,1,0,0:0:0:0:
256,192,40181,1,8,0:0:0:0:
256,192,40587,1,0,0:0:0:0:
256,192,40789,1,0,0:0:0:0:
256,192,40992,1,8,0:0:0:0:
256,192,41398,1,8,0:0:0:0:
256,192,41803,1,0,0:0:0:0:
256,192,42208,1,4,0:0:0:0:
256,192,42411,1,0,0:0:0:0:
256,192,42614,1,8,0:0:0:0:
256,192,43019,1,0,0:0:0:0:
256,192,43222,1,0,0:0:0:0:
256,192,43425,1,8,0:0:0:0:
256,192,43830,1,0,0:0:0:0:
256,192,44235,1,8,0:0:0:0:
256,192,44641,12,8,48289,0:0:0:0:
