osu file format v14

[General]
AudioFilename: audio.mp3
AudioLeadIn: 0
PreviewTime: 27798
Countdown: 0
SampleSet: Normal
StackLeniency: 0.7
Mode: 1
LetterboxInBreaks: 0
WidescreenStoryboard: 0

[Editor]
DistanceSpacing: 0.1
BeatDivisor: 8
GridSize: 4
TimelineZoom: 2.850002

[Metadata]
Title:Noi!
TitleUnicode:Noi!
Artist:Yuki Kajiura
ArtistUnicode:梶浦由記
Creator:Rivals_7
Version:Muzukashii
Source:劇場版 魔法少女まどか☆マギカ[新編]叛逆の物語
Tags:gekijouban mahou shoujo madoka*magica [shinpen] hangyaku no monogatari puella magi movie 3 the rebellion story
BeatmapID:1243936
BeatmapSetID:587439

[Difficulty]
HPDrainRate:8
CircleSize:4
OverallDifficulty:4
ApproachRate:5
SliderMultiplier:1.4
SliderTickRate:1

[Events]
//Background and Video events
0,0,"Akuma.Homura.full.1636728.jpg",0,100
//Break Periods
//Storyboard Layer 0 (Background)
//Storyboard Layer 1 (Fail)
//Storyboard Layer 2 (Pass)
//Storyboard Layer 3 (Foreground)
//Storyboard Sound Samples

[TimingPoints]
1594,689.655172413793,4,1,0,45,1,0
7111,689.655172413793,6,1,0,45,1,0
11248,689.655172413793,5,1,0,45,1,0
18144,689.655172413793,6,1,0,45,1,0
22281,689.655172413793,4,1,0,45,1,0
27798,-100,4,1,0,45,0,1
33315,689.655172413793,6,1,0,45,1,1
37453,689.655172413793,4,1,0,45,1,1
48487,-100,4,1,0,45,0,0

[HitObjects]
256,192,1594,5,6,0:0:0:0:
256,192,2283,1,2,0:0:0:0:
256,192,2973,1,0,0:0:0:0:
256,192,3318,1,0,0:0:0:0:
256,192,3662,1,2,0:0:0:0:
256,192,4352,1,6,0:0:0:0:
256,192,5042,1,0,0:0:0:0:
256,192,5731,1,0,0:0:0:0:
256,192,6076,1,0,0:0:0:0:
256,192,6421,1,2,0:0:0:0:
256,192,7111,1,6,0:0:0:0:
256,192,7800,1,0,0:0:0:0:
256,192,8145,1,2,0:0:0:0:
256,192,8490,1,0,0:0:0:0:
256,192,9179,1,0,0:0:0:0:
256,192,9524,1,0,0:0:0:0:
256,192,9869,1,2,0:0:0:0:
256,192,10559,1,0,0:0:0:0:
256,192,11248,1,6,0:0:0:0:
256,192,11937,1,2,0:0:0:0:
256,192,12282,1,0,0:0:0:0:
256,192,12454,1,0,0:0:0:0:
256,192,12972,1,0,0:0:0:0:
256,192,13316,1,2,0:0:0:0:
256,192,14006,1,0,0:0:0:0:
256,192,14696,1,6,0:0:0:0:
256,192,15385,1,2,0:0:0:0:
256,192,15730,1,0,0:0:0:0:
256,192,15903,1,0,0:0:0:0:
256,192,16420,1,0,0:0:0:0:
256,192,16765,1,2,0:0:0:0:
256,192,17454,1,0,0:0:0:0:
256,192,18144,1,6,0:0:0:0:
256,192,18488,1,0,0:0:0:0:
256,192,19178,1,0,0:0:0:0:
256,192,19523,1,2,0:0:0:0:
256,192,19868,1,2,0:0:0:0:
256,192,20212,1,0,0:0:0:0:
256,192,20902,1,2,0:0:0:0:
256,192,21247,1,0,0:0:0:0:
256,192,21592,1,2,0:0:0:0:
256,192,22281,1,6,0:0:0:0:
256,192,22625,1,0,0:0:0:0:
256,192,23315,1,0,0:0:0:0:
256,192,23660,1,2,0:0:0:0:
256,192,24005,1,2,0:0:0:0:
256,192,24349,1,0,0:0:0:0:
256,192,25039,1,2,0:0:0:0:
256,192,26418,1,2,0:0:0:0:
244,192,26763,1,0,0:0:0:0:
256,192,27108,1,0,0:0:0:0:
256,192,27798,1,6,0:0:0:0:
272,208,28143,1,0,0:0:0:0:
252,184,28315,1,0,0:0:0:0:
264,204,28487,1,0,0:0:0:0:
248,184,28832,1,2,0:0:0:0:
272,216,29177,1,2,0:0:0:0:
276,220,29522,1,0,0:0:0:0:
276,220,30212,1,2,0:0:0:0:
276,220,30556,1,6,0:0:0:0:
284,220,30901,1,0,0:0:0:0:
276,220,31246,1,2,0:0:0:0:
240,212,31591,1,2,0:0:0:0:
204,220,31763,1,2,0:0:0:0:
276,220,31936,1,2,0:0:0:0:
276,220,32281,1,0,0:0:0:0:
276,220,32970,1,2,0:0:0:0:
276,220,33315,1,6,0:0:0:0:
276,220,34004,1,0,0:0:0:0:
276,220,34349,1,0,0:0:0:0:
276,220,34694,1,2,0:0:0:0:
276,220,35383,1,0,0:0:0:0:
276,220,36073,1,2,0:0:0:0:
268,220,36418,1,0,0:0:0:0:
276,220,36763,1,2,0:0:0:0:
276,220,37452,1,6,0:0:0:0:
268,216,37797,1,0,0:0:0:0:
200,224,37970,1,0,0:0:0:0:
276,220,38142,1,0,0:0:0:0:
212,220,38487,1,2,0:0:0:0:
276,220,38832,1,2,0:0:0:0:
276,220,39177,1,0,0:0:0:0:
276,220,39866,1,2,0:0:0:0:
276,220,40211,1,6,0:0:0:0:
268,216,40556,1,0,0:0:0:0:
276,220,40901,1,2,0:0:0:0:
192,200,41246,1,2,0:0:0:0:
192,156,41418,1,2,0:0:0:0:
276,220,41590,1,2,0:0:0:0:
276,220,41935,1,0,0:0:0:0:
276,220,42625,1,0,0:0:0:0:
276,220,42970,1,6,0:0:0:0:
268,216,43315,1,0,0:0:0:0:
276,220,43659,1,2,0:0:0:0:
276,220,44349,1,2,0:0:0:0:
276,220,44694,1,0,0:0:0:0:
276,220,45384,1,2,0:0:0:0:
276,220,45728,1,6,0:0:0:0:
268,216,46073,1,0,0:0:0:0:
276,220,46418,1,2,0:0:0:0:
276,220,47108,1,2,0:0:0:0:
276,220,47453,1,0,0:0:0:0:
276,220,48142,1,0,0:0:0:0:
256,192,48487,12,0,52625,0:0:0:0:
