osu file format v14

[General]
AudioFilename: audio.mp3
AudioLeadIn: 0
PreviewTime: 27798
Countdown: 0
SampleSet: Soft
StackLeniency: 0.7
Mode: 3
LetterboxInBreaks: 0
SpecialStyle: 0
WidescreenStoryboard: 1

[Editor]
DistanceSpacing: 1.8
BeatDivisor: 4
GridSize: 4
TimelineZoom: 2.450002

[Metadata]
Title:Noi!
TitleUnicode:Noi!
Artist:Yuki Kajiura
ArtistUnicode:梶浦由記
Creator:Rivals_7
Version:EZ
Source:劇場版 魔法少女まどか☆マギカ[新編]叛逆の物語
Tags:gekijouban mahou shoujo madoka*magica [shinpen] hangyaku no monogatari puella magi movie 3 the rebellion story
BeatmapID:1243935
BeatmapSetID:587439

[Difficulty]
HPDrainRate:8
CircleSize:4
OverallDifficulty:8
ApproachRate:5
SliderMultiplier:1.4
SliderTickRate:1

[Events]
//Background and Video events
0,0,"Akuma.Homura.full.1636728.jpg",0,0
//Break Periods
//Storyboard Layer 0 (Background)
//Storyboard Layer 1 (Fail)
//Storyboard Layer 2 (Pass)
//Storyboard Layer 3 (Foreground)
//Storyboard Sound Samples

[TimingPoints]
1594,689.655172413793,4,2,1,40,1,0
7111,689.655172413793,6,2,1,40,1,0
11248,689.655172413793,5,2,1,40,1,0
18144,689.655172413793,6,2,1,40,1,0
22281,689.655172413793,4,2,1,40,1,0
27798,-100,4,2,1,40,0,1
33315,689.655172413793,6,2,1,40,1,1
37453,689.655172413793,4,2,1,40,1,1
48487,-100,4,2,1,40,0,0

[HitObjects]
64,192,1594,5,2,0:0:0:0:
448,192,1594,1,2,0:0:0:0:
320,192,2283,1,0,0:0:0:0:
64,192,2628,1,0,0:0:0:0:
448,192,2973,1,8,0:0:0:0:
192,192,3318,1,0,0:0:0:0:
320,192,3662,128,0,4007:0:0:0:0:
192,192,4007,128,0,4352:0:0:0:0:
64,192,4352,1,2,0:0:0:0:
448,192,4352,1,2,0:0:0:0:
320,192,4697,1,0,0:0:0:0:
64,192,5042,1,0,0:0:0:0:
448,192,5387,1,0,0:0:0:0:
192,192,5731,1,8,0:0:0:0:
320,192,6076,1,0,0:0:0:0:
448,192,6421,128,0,6766:0:0:0:0:
64,192,6766,128,0,7111:0:0:0:0:
448,192,7111,1,2,0:0:0:0:
192,192,7111,1,2,0:0:0:0:
320,192,7455,1,0,0:0:0:0:
64,192,7800,1,0,0:0:0:0:
448,192,8145,1,0,0:0:0:0:
192,192,8490,128,0,9179:0:0:0:0:
320,192,9179,1,0,0:0:0:0:
64,192,9524,1,0,0:0:0:0:
448,192,9869,128,8,10214:0:0:0:0:
192,192,9869,1,0,0:0:0:0:
320,192,10214,1,0,0:0:0:0:
64,192,10559,1,0,0:0:0:0:
448,192,10904,1,0,0:0:0:0:
64,192,11248,1,2,0:0:0:0:
320,192,11248,1,2,0:0:0:0:
192,192,11592,1,0,0:0:0:0:
448,192,11937,1,0,0:0:0:0:
320,192,12282,1,0,0:0:0:0:
64,192,12454,1,0,0:0:0:0:
192,192,12972,1,0,0:0:0:0:
448,192,13316,1,0,0:0:0:0:
192,192,13661,1,0,0:0:0:0:
320,192,14006,1,0,0:0:0:0:
64,192,14351,1,0,0:0:0:0:
320,192,14696,1,2,0:0:0:0:
448,192,14696,1,2,0:0:0:0:
192,192,15041,1,0,0:0:0:0:
448,192,15385,1,0,0:0:0:0:
320,192,15730,1,0,0:0:0:0:
192,192,15903,1,0,0:0:0:0:
64,192,16420,1,0,0:0:0:0:
320,192,16765,1,0,0:0:0:0:
192,192,17110,1,0,0:0:0:0:
448,192,17454,1,0,0:0:0:0:
64,192,17799,1,0,0:0:0:0:
448,192,18144,1,2,0:0:0:0:
320,192,18144,1,2,0:0:0:0:
64,192,18488,1,0,0:0:0:0:
192,192,19178,128,0,19523:0:0:0:0:
448,192,19523,128,8,19868:0:0:0:0:
320,192,19868,128,0,20212:0:0:0:0:
192,192,20212,128,0,20902:0:0:0:0:
448,192,20902,1,0,0:0:0:0:
192,192,21247,1,0,0:0:0:0:
64,192,21592,128,0,22281:0:0:0:0:
192,192,22281,1,2,0:0:0:0:
448,192,22281,1,2,0:0:0:0:
320,192,22625,1,0,0:0:0:0:
192,192,23315,128,0,23660:0:0:0:0:
448,192,23660,128,8,24005:0:0:0:0:
64,192,24005,128,0,24349:0:0:0:0:
320,192,24349,128,0,25039:0:0:0:0:
192,192,25039,128,2,25729:0:0:0:0:
448,192,25729,128,0,26074:0:0:0:0:
320,192,26074,128,0,26418:0:0:0:0:
64,192,26418,128,2,27108:0:0:0:0:
192,192,26418,1,0,0:0:0:0:
448,192,26763,1,0,0:0:0:0:
320,192,27108,1,0,0:0:0:0:
64,192,27798,1,6,0:0:0:0:
448,192,27798,1,6,0:0:0:0:
192,192,28143,1,0,0:0:0:0:
320,192,28487,1,0,0:0:0:0:
192,192,28832,1,0,0:0:0:0:
64,192,29177,1,0,0:0:0:0:
448,192,29177,1,8,0:0:0:0:
192,192,29522,1,0,0:0:0:0:
320,192,30212,1,0,0:0:0:0:
64,192,30556,1,2,0:0:0:0:
192,192,30556,1,2,0:0:0:0:
448,192,30901,1,0,0:0:0:0:
320,192,31246,1,0,0:0:0:0:
192,192,31591,1,0,0:0:0:0:
64,192,31936,1,0,0:0:0:0:
448,192,31936,1,8,0:0:0:0:
320,192,32281,1,0,0:0:0:0:
192,192,32970,1,0,0:0:0:0:
64,192,33315,1,2,0:0:0:0:
448,192,33315,1,2,0:0:0:0:
192,192,33659,1,0,0:0:0:0:
448,192,34004,1,0,0:0:0:0:
192,192,34349,1,0,0:0:0:0:
320,192,34694,128,8,35383:0:0:0:0:
64,192,34694,1,0,0:0:0:0:
64,192,35383,128,0,36073:0:0:0:0:
320,192,36073,1,0,0:0:0:0:
448,192,36073,128,2,36763:0:0:0:0:
64,192,36763,1,2,0:0:0:0:
320,192,36763,1,0,0:0:0:0:
192,192,37452,1,6,0:0:0:0:
64,192,37453,1,6,0:0:0:0:
448,192,37797,1,0,0:0:0:0:
192,192,38142,1,0,0:0:0:0:
320,192,38487,1,0,0:0:0:0:
64,192,38832,1,8,0:0:0:0:
448,192,38832,1,0,0:0:0:0:
192,192,39177,1,0,0:0:0:0:
320,192,39866,1,0,0:0:0:0:
64,192,40211,1,2,0:0:0:0:
448,192,40211,1,2,0:0:0:0:
192,192,40556,1,0,0:0:0:0:
320,192,40901,1,0,0:0:0:0:
64,192,41246,1,0,0:0:0:0:
192,192,41590,1,8,0:0:0:0:
320,192,41590,1,0,0:0:0:0:
448,192,41935,1,0,0:0:0:0:
192,192,42625,1,0,0:0:0:0:
64,192,42970,1,2,0:0:0:0:
320,192,42970,1,2,0:0:0:0:
448,192,43315,1,0,0:0:0:0:
192,192,43659,1,0,0:0:0:0:
320,192,44004,1,0,0:0:0:0:
64,192,44349,1,0,0:0:0:0:
448,192,44349,128,8,44694:0:0:0:0:
192,192,44694,1,0,0:0:0:0:
320,192,45384,1,0,0:0:0:0:
64,192,45728,1,2,0:0:0:0:
192,192,45728,1,2,0:0:0:0:
448,192,46073,1,0,0:0:0:0:
320,192,46418,1,0,0:0:0:0:
64,192,46763,1,0,0:0:0:0:
448,192,47108,128,8,47453:0:0:0:0:
320,192,47108,1,0,0:0:0:0:
192,192,47453,1,0,0:0:0:0:
320,192,48142,128,0,48487:0:0:0:0:
192,192,48487,1,4,0:0:0:0:
64,192,48487,128,0,52625:0:0:0:0:
