osu file format v14

[General]
AudioFilename: audio.mp3
AudioLeadIn: 0
PreviewTime: 27798
Countdown: 0
SampleSet: Normal
StackLeniency: 0.7
Mode: 1
LetterboxInBreaks: 0
WidescreenStoryboard: 0

[Editor]
DistanceSpacing: 0.1
BeatDivisor: 4
GridSize: 4
TimelineZoom: 2.650002

[Metadata]
Title:Noi!
TitleUnicode:Noi!
Artist:Yuki Kajiura
ArtistUnicode:梶浦由記
Creator:Rivals_7
Version:Oni
Source:劇場版 魔法少女まどか☆マギカ[新編]叛逆の物語
Tags:gekijouban mahou shoujo madoka*magica [shinpen] hangyaku no monogatari puella magi movie 3 the rebellion story
BeatmapID:1350233
BeatmapSetID:587439

[Difficulty]
HPDrainRate:7
CircleSize:2
OverallDifficulty:5
ApproachRate:5
SliderMultiplier:1.4
SliderTickRate:1

[Events]
//Background and Video events
0,0,"Akuma.Homura.full.1636728.jpg",0,100
//Break Periods
//Storyboard Layer 0 (Background)
//Storyboard Layer 1 (Fail)
//Storyboard Layer 2 (Pass)
//Storyboard Layer 3 (Foreground)
//Storyboard Sound Samples

[TimingPoints]
1594,689.655172413793,4,1,0,45,1,0
7111,689.655172413793,6,1,0,45,1,0
11248,689.655172413793,5,1,0,45,1,0
18144,689.655172413793,6,1,0,45,1,0
22281,689.655172413793,4,1,0,45,1,0
27798,-100,4,1,0,45,0,1
33315,689.655172413793,6,1,0,45,1,1
37453,689.655172413793,4,1,0,45,1,1
48487,-100,4,1,0,45,0,0

[HitObjects]
252,180,1594,5,6,0:0:0:0:
260,188,2283,1,0,0:0:0:0:
260,188,2628,1,0,0:0:0:0:
260,188,2800,1,0,0:0:0:0:
260,188,2973,1,2,0:0:0:0:
260,188,3318,1,0,0:0:0:0:
260,188,3662,1,2,0:0:0:0:
260,188,4007,1,0,0:0:0:0:
260,188,4352,1,6,0:0:0:0:
244,180,4697,1,2,0:0:0:0:
252,184,5042,1,0,0:0:0:0:
236,176,5387,1,0,0:0:0:0:
232,176,5559,1,0,0:0:0:0:
228,176,5731,1,2,0:0:0:0:
220,176,6076,1,0,0:0:0:0:
212,172,6421,1,2,0:0:0:0:
204,168,6766,1,0,0:0:0:0:
196,164,7111,1,6,0:0:0:0:
212,172,7455,1,0,0:0:0:0:
204,168,7628,1,0,0:0:0:0:
204,168,7800,1,2,0:0:0:0:
212,172,8145,1,2,0:0:0:0:
212,172,8490,1,0,0:0:0:0:
212,172,9179,1,2,0:0:0:0:
208,176,9524,1,0,0:0:0:0:
208,176,9869,1,2,0:0:0:0:
208,176,10214,1,0,0:0:0:0:
208,176,10559,1,0,0:0:0:0:
208,176,10904,1,2,0:0:0:0:
208,176,11248,1,6,0:0:0:0:
208,176,11592,1,0,0:0:0:0:
208,176,11765,1,0,0:0:0:0:
208,176,11937,1,2,0:0:0:0:
208,176,12282,1,2,0:0:0:0:
208,176,12454,1,0,0:0:0:0:
208,176,12972,1,0,0:0:0:0:
208,176,13316,1,2,0:0:0:0:
208,176,13661,1,0,0:0:0:0:
208,176,14006,1,2,0:0:0:0:
208,176,14351,1,0,0:0:0:0:
204,172,14696,1,6,0:0:0:0:
196,172,15041,1,2,0:0:0:0:
188,172,15385,1,0,0:0:0:0:
180,172,15730,1,2,0:0:0:0:
176,172,15903,1,0,0:0:0:0:
168,168,16420,1,0,0:0:0:0:
180,164,16765,1,2,0:0:0:0:
180,156,17110,1,2,0:0:0:0:
180,148,17454,1,0,0:0:0:0:
188,152,17799,1,0,0:0:0:0:
196,156,18144,1,6,0:0:0:0:
196,156,18488,1,0,0:0:0:0:
188,156,19178,1,0,0:0:0:0:
184,156,19350,1,0,0:0:0:0:
180,156,19523,1,2,0:0:0:0:
172,152,19868,1,2,0:0:0:0:
172,152,20212,1,0,0:0:0:0:
164,156,20557,1,0,0:0:0:0:
188,152,20902,1,2,0:0:0:0:
192,152,21247,1,2,0:0:0:0:
192,152,21419,1,2,0:0:0:0:
192,152,21592,1,0,0:0:0:0:
192,152,21937,1,0,0:0:0:0:
192,152,22281,1,6,0:0:0:0:
192,152,22625,1,0,0:0:0:0:
192,152,23315,1,0,0:0:0:0:
192,152,23660,1,2,0:0:0:0:
192,152,24005,1,2,0:0:0:0:
192,152,24349,1,0,0:0:0:0:
208,152,25039,1,2,0:0:0:0:
224,152,25729,1,2,0:0:0:0:
224,152,26074,1,0,0:0:0:0:
224,152,26418,1,2,0:0:0:0:
224,152,26763,1,0,0:0:0:0:
212,148,26936,1,0,0:0:0:0:
224,152,27108,1,2,0:0:0:0:
216,148,27453,1,0,0:0:0:0:
208,148,27798,1,6,0:0:0:0:
200,148,28143,1,0,0:0:0:0:
216,148,28315,1,2,0:0:0:0:
216,148,28487,1,2,0:0:0:0:
208,148,28832,1,0,0:0:0:0:
200,148,29005,1,2,0:0:0:0:
216,148,29177,1,0,0:0:0:0:
212,144,29522,1,0,0:0:0:0:
208,148,29867,1,2,0:0:0:0:
200,148,30212,1,0,0:0:0:0:
216,148,30556,1,6,0:0:0:0:
208,148,30901,1,0,0:0:0:0:
200,148,31074,1,2,0:0:0:0:
200,148,31246,1,2,0:0:0:0:
216,148,31591,1,0,0:0:0:0:
216,148,31763,1,2,0:0:0:0:
216,148,31936,1,0,0:0:0:0:
212,148,32281,1,0,0:0:0:0:
216,148,32625,1,2,0:0:0:0:
216,148,32970,1,0,0:0:0:0:
216,148,33315,1,6,0:0:0:0:
208,148,34004,1,0,0:0:0:0:
216,148,34349,1,0,0:0:0:0:
220,148,34694,1,2,0:0:0:0:
216,148,35039,1,0,0:0:0:0:
232,140,35383,1,2,0:0:0:0:
248,148,36073,1,2,0:0:0:0:
244,148,36418,1,0,0:0:0:0:
248,148,36590,1,0,0:0:0:0:
248,148,36763,1,2,0:0:0:0:
244,148,36935,1,0,0:0:0:0:
240,152,37108,1,0,0:0:0:0:
248,148,37453,1,6,0:0:0:0:
244,140,37797,1,0,0:0:0:0:
244,140,37970,1,2,0:0:0:0:
244,140,38142,1,2,0:0:0:0:
244,140,38487,1,0,0:0:0:0:
244,140,38659,1,2,0:0:0:0:
244,140,38832,1,0,0:0:0:0:
244,140,39177,1,0,0:0:0:0:
240,140,39521,1,2,0:0:0:0:
236,136,39866,1,0,0:0:0:0:
228,132,40211,1,6,0:0:0:0:
220,128,40556,1,0,0:0:0:0:
220,128,40728,1,2,0:0:0:0:
220,128,40901,1,2,0:0:0:0:
220,128,41246,1,0,0:0:0:0:
220,128,41418,1,2,0:0:0:0:
220,128,41590,1,0,0:0:0:0:
220,128,41935,1,0,0:0:0:0:
216,128,42280,1,2,0:0:0:0:
220,128,42625,1,0,0:0:0:0:
220,128,42970,1,6,0:0:0:0:
220,128,43315,1,0,0:0:0:0:
220,128,43487,1,2,0:0:0:0:
220,128,43659,1,2,0:0:0:0:
220,128,44004,1,0,0:0:0:0:
220,128,44177,1,2,0:0:0:0:
220,128,44349,1,0,0:0:0:0:
220,128,44694,1,0,0:0:0:0:
220,132,45039,1,2,0:0:0:0:
220,128,45384,1,0,0:0:0:0:
220,128,45728,1,6,0:0:0:0:
220,128,46073,1,0,0:0:0:0:
220,128,46246,1,2,0:0:0:0:
220,128,46418,1,2,0:0:0:0:
220,128,46763,1,0,0:0:0:0:
220,128,46935,1,2,0:0:0:0:
220,128,47108,1,0,0:0:0:0:
220,128,47453,1,0,0:0:0:0:
220,128,47797,1,2,0:0:0:0:
220,128,48142,1,0,0:0:0:0:
256,192,48487,12,0,52625,0:0:0:0:
