osu file format v14

[General]
AudioFilename: audio.ogg
AudioLeadIn: 0
PreviewTime: 252
Countdown: 0
SampleSet: Soft
StackLeniency: 0.7
Mode: 2
LetterboxInBreaks: 0
WidescreenStoryboard: 1

[Editor]
Bookmarks: 16868,31637,53791
DistanceSpacing: 0.8
BeatDivisor: 2
GridSize: 32
TimelineZoom: 1.4

[Metadata]
Title:M40
TitleUnicode:M40
Artist:Yuki Kajiura
ArtistUnicode:梶浦由記
Creator:by-ad
Version:Salad
Source:劇場版「空の境界」 第七章 殺人考察(後)
Tags:-hex- rew0825 astreachan disc1 track37 ANZB-2894 knk kara no kyoukai the garden of sinners 劇場版・空の境界 Boundary of Emptiness Satsujin Kousatsu Go A Study in Murder Speculation part 2 not nothing heart type-moon type moon typemoon ufotable Rakkyo らっきょ anime original soundtrack ost theme movie chapter 7 instrumental classical kalafina ryougi shiki 両儀式
BeatmapID:3755888
BeatmapSetID:1829962

[Difficulty]
HPDrainRate:3
CircleSize:3
OverallDifficulty:6.6
ApproachRate:6.6
SliderMultiplier:1.8
SliderTickRate:1

[Events]
//Background and Video events
0,0,"BG Edit.jpg",0,0
//Break Periods
//Storyboard Layer 0 (Background)
//Storyboard Layer 1 (Fail)
//Storyboard Layer 2 (Pass)
//Storyboard Layer 3 (Foreground)
//Storyboard Layer 4 (Overlay)
//Storyboard Sound Samples

[TimingPoints]
2099,461.538461538462,4,2,1,50,1,0
16868,-100,4,2,1,50,0,1
31637,-100,4,2,1,50,0,0
53906,-100,4,2,1,30,0,0
56099,-100,4,2,1,20,0,0
61175,-100,4,2,1,10,0,0
63022,-100,4,2,1,5,0,0

[Colours]
Combo1 : 81,76,80
Combo2 : 169,7,12
Combo3 : 54,220,243

[HitObjects]
394,131,2099,6,0,P|459:194|387:262,1,180,4|0,0:0|0:0,0:0:0:0:
328,259,2791,1,8,0:0:0:0:
221,155,3483,1,0,0:0:0:0:
131,157,3714,1,0,0:0:0:0:
41,301,3945,6,0,L|41:93,1,180,4|0,0:3|0:0,0:0:0:0:
131,126,4637,1,8,0:0:0:0:
239,133,5329,1,4,0:3:0:0:
329,135,5560,1,0,0:0:0:0:
419,136,5791,6,0,L|419:322,1,180,4|0,0:3|0:0,0:0:0:0:
329,312,6483,1,8,0:0:0:0:
220,340,7175,1,0,0:0:0:0:
310,340,7406,1,0,0:0:0:0:
220,340,7637,6,0,L|220:145,1,180,4|0,0:3|0:0,0:0:0:0:
130,161,8329,1,8,0:0:0:0:
239,275,9022,1,4,0:3:0:0:
149,273,9252,1,0,0:0:0:0:
347,275,9483,6,0,P|392:216|341:130,1,180,4|0,0:0|0:0,0:0:0:0:
256,130,10175,1,8,0:0:0:0:
365,266,10868,1,4,0:3:0:0:
276,262,11099,1,0,0:0:0:0:
186,267,11329,6,0,L|186:87,1,180,4|0,0:3|0:0,0:0:0:0:
277,91,12022,1,8,0:0:0:0:
170,287,12714,1,8,0:3:0:0:
260,286,12945,1,8,0:3:0:0:
63,283,13175,6,0,P|37:186|101:121,1,180,4|0,0:0|0:0,0:0:0:0:
173,130,13868,2,8,P|255:162|174:257,1,180,2|0,0:0|0:0,0:0:0:0:
202,248,14560,1,0,0:0:0:0:
22,248,15022,5,8,0:0:0:0:
348,269,15714,1,8,0:0:0:0:
259,274,15945,2,0,P|220:194|268:107,1,180,2|4,0:0|0:3,0:0:0:0:
363,120,16637,1,0,0:0:0:0:
165,113,16868,5,6,0:0:0:0:
282,326,17099,1,0,0:0:0:0:
371,329,17329,1,0,0:0:0:0:
416,245,17560,1,8,0:0:0:0:
371,153,17791,1,4,0:3:0:0:
281,153,18022,1,0,0:0:0:0:
191,153,18252,2,0,L|299:153,1,90,4|0,0:3|0:0,0:0:0:0:
191,253,18714,6,0,P|92:261|92:360,1,180,4|0,0:3|0:0,0:0:0:0:
183,71,19406,2,0,L|296:71,1,90,8|4,0:0|0:3,0:0:0:0:
363,70,19868,1,0,0:0:0:0:
408,153,20099,1,4,0:3:0:0:
363,245,20329,1,0,0:0:0:0:
183,170,20560,5,6,0:0:0:0:
93,219,20791,1,0,0:0:0:0:
93,303,21022,1,0,0:0:0:0:
183,325,21252,1,8,0:0:0:0:
273,326,21483,1,4,0:3:0:0:
364,324,21714,1,0,0:0:0:0:
454,324,21945,2,0,L|364:324,1,90,4|0,0:3|0:0,0:0:0:0:
456,182,22406,6,0,P|437:112|306:85,1,180,4|0,0:3|0:0,0:0:0:0:
254,252,23098,2,0,L|344:252,1,90,8|4,0:0|0:3,0:0:0:0:
254,252,23560,1,0,0:0:0:0:
209,188,23791,1,4,0:3:0:0:
254,126,24021,1,0,0:0:0:0:
452,161,24252,6,0,P|497:235|441:303,1,180,6|4,0:0|0:3,0:0:0:0:
338,302,24945,1,8,0:0:0:0:
247,300,25175,1,8,0:0:0:0:
202,192,25406,1,0,0:0:0:0:
247,87,25637,1,4,0:3:0:0:
337,87,25868,1,0,0:0:0:0:
139,161,26099,6,0,P|93:236|148:303,1,180,8|4,0:0|0:3,0:0:0:0:
250,302,26791,1,8,0:0:0:0:
340,304,27021,1,8,0:0:0:0:
385,198,27252,1,0,0:0:0:0:
340,92,27483,1,4,0:3:0:0:
250,88,27714,1,0,0:0:0:0:
430,256,27945,6,0,L|321:256,1,90,6|0,0:0|0:0,0:0:0:0:
250,258,28406,1,4,0:3:0:0:
205,189,28637,1,8,0:0:0:0:
250,120,28868,2,0,L|361:120,1,90,8|0,0:0|0:0,0:0:0:0:
429,124,29329,1,4,0:3:0:0:
340,120,29560,1,0,0:0:0:0:
160,258,29791,6,0,L|272:258,1,90,8|0,0:0|0:0,0:0:0:0:
340,254,30252,1,4,0:3:0:0:
430,250,30483,1,8,0:0:0:0:
340,149,30714,2,0,B|215:149,1,90,8|0,0:0|0:0,0:0:0:0:
160,148,31175,1,4,0:3:0:0:
70,150,31406,1,0,0:0:0:0:
268,254,31637,1,10,0:0:0:0:
190,256,33483,6,0,L|374:256,1,180,2|0,0:0|0:0,0:0:0:0:
280,78,34406,2,0,L|280:262,1,180,2|0,0:0|0:0,0:0:0:0:
370,256,35329,6,0,L|219:105,1,180,2|0,0:0|0:0,0:0:0:0:
152,130,36252,2,0,L|361:133,1,180,2|0,0:0|0:0,0:0:0:0:
422,149,37175,2,0,L|295:277,1,180,2|0,0:0|0:0,0:0:0:0:
205,279,38099,2,0,L|205:97,1,180,2|0,0:0|0:0,0:0:0:0:
295,101,39022,6,0,L|115:101,1,180,2|0,0:0|0:0,0:0:0:0:
205,300,39945,2,0,L|385:300,1,180,2|0,0:0|0:0,0:0:0:0:
295,300,40868,2,0,L|161:162,1,180,2|0,0:0|0:0,0:0:0:0:
80,164,41791,2,0,L|260:164,1,180,2|0,0:0|0:0,0:0:0:0:
260,164,42714,6,0,P|456:267|384:96,1,540,2|0,0:0|0:0,0:0:0:0:
210,229,44560,2,0,P|255:92|306:244,1,360,2|2,0:0|0:0,0:0:0:0:
445,79,46406,6,0,P|258:251|474:251,1,540,2|0,0:0|0:0,0:0:0:0:
416,299,48252,2,0,L|231:299,1,180,2|0,0:0|0:0,0:0:0:0:
236,299,49175,2,0,L|236:116,1,180,2|0,0:0|0:0,0:0:0:0:
236,118,50099,6,0,P|380:270|172:253,1,540,2|0,0:0|0:0,0:0:0:0:
352,193,51945,2,0,P|258:98|212:260,1,360,2|2,0:0|0:0,0:0:0:0:
256,192,53791,12,0,64868,0:0:0:0:
