osu file format v14

[General]
AudioFilename: audio.ogg
AudioLeadIn: 0
PreviewTime: 252
Countdown: 0
SampleSet: Soft
StackLeniency: 0.7
Mode: 2
LetterboxInBreaks: 0
WidescreenStoryboard: 1

[Editor]
Bookmarks: 16868,31637,53791
DistanceSpacing: 1.8
BeatDivisor: 4
GridSize: 32
TimelineZoom: 2.1

[Metadata]
Title:M40
TitleUnicode:M40
Artist:Yuki Kajiura
ArtistUnicode:梶浦由記
Creator:by-ad
Version:Rew's Platter
Source:劇場版「空の境界」 第七章 殺人考察(後)
Tags:-hex- rew0825 astreachan disc1 track37 ANZB-2894 knk kara no kyoukai the garden of sinners 劇場版・空の境界 Boundary of Emptiness Satsujin Kousatsu Go A Study in Murder Speculation part 2 not nothing heart type-moon type moon typemoon ufotable Rakkyo らっきょ anime original soundtrack ost theme movie chapter 7 instrumental classical kalafina ryougi shiki 両儀式
BeatmapID:3788846
BeatmapSetID:1829962

[Difficulty]
HPDrainRate:4
CircleSize:3.5
OverallDifficulty:7.6
ApproachRate:7.6
SliderMultiplier:2.08
SliderTickRate:1

[Events]
//Background and Video events
0,0,"BG Edit.jpg",0,0
//Break Periods
//Storyboard Layer 0 (Background)
//Storyboard Layer 1 (Fail)
//Storyboard Layer 2 (Pass)
//Storyboard Layer 3 (Foreground)
//Storyboard Layer 4 (Overlay)
//Storyboard Sound Samples

[TimingPoints]
2099,461.538461538462,4,2,1,50,1,0
16868,-100,4,2,1,50,0,1
31637,-100,4,2,1,50,0,0
53906,-100,4,2,1,30,0,0
56099,-100,4,2,1,20,0,0
61175,-100,4,2,1,10,0,0
63022,-100,4,2,1,5,0,0

[Colours]
Combo1 : 81,76,80
Combo2 : 169,7,12
Combo3 : 54,220,243

[HitObjects]
121,301,2099,6,0,P|114:254|235:183,1,208,4|0,0:0|0:0,0:0:0:0:
337,186,2791,1,8,0:0:0:0:
232,188,3022,2,0,P|164:177|131:44,1,208,4|0,0:3|0:0,0:0:0:0:
228,57,3714,1,0,0:0:0:0:
425,57,3945,6,0,P|495:103|422:169,1,208,4|0,0:3|0:0,0:0:0:0:
320,169,4637,2,0,L|479:169,2,156,8|0|4,0:0|0:0|0:3,0:0:0:0:
424,169,5560,1,0,0:0:0:0:
226,169,5791,6,0,P|155:217|228:275,1,208,4|0,0:3|0:0,0:0:0:0:
331,275,6483,1,8,0:0:0:0:
226,275,6714,2,0,P|153:273|123:155,1,208,4|0,0:3|0:0,0:0:0:0:
224,159,7406,1,0,0:0:0:0:
423,275,7637,6,0,P|441:213|336:144,1,208,4|0,0:3|0:0,0:0:0:0:
233,143,8329,2,0,L|406:144,2,156,8|0|4,0:0|0:0|0:3,0:0:0:0:
337,143,9252,1,0,0:0:0:0:
35,143,9483,6,0,P|39:195|170:251,1,208,4|0,0:0|0:0,0:0:0:0:
268,252,10175,1,8,0:0:0:0:
165,252,10406,2,0,P|68:236|35:143,1,208,4|4,0:3|0:3,0:0:0:0:
139,143,11099,1,0,0:0:0:0:
335,143,11329,6,0,P|235:150|190:254,1,208,4|0,0:3|0:0,0:0:0:0:
293,237,12022,2,0,L|454:237,2,156,8|0|8,0:0|0:0|0:3,0:0:0:0:
397,237,12945,1,8,0:3:0:0:
96,237,13175,6,0,P|88:175|202:122,1,208,4|0,0:0|0:0,0:0:0:0:
307,122,13868,2,8,P|315:184|201:237,1,208,2|0,0:0|0:0,0:0:0:0:
96,236,14560,2,0,L|92:342,1,104,0|6,0:0|0:0,0:0:0:0:
290,339,15022,6,0,P|370:333|420:217,1,208,8|0,0:0|0:0,0:0:0:0:
318,227,15714,2,0,L|155:228,2,156,8|0|4,0:0|0:0|0:3,0:0:0:0:
422,227,16637,1,0,0:0:0:0:
120,227,16868,5,6,0:0:0:0:
67,137,17099,1,0,0:0:0:0:
120,227,17329,1,0,0:0:0:0:
224,227,17560,1,8,0:0:0:0:
421,227,17791,1,4,0:3:0:0:
453,128,18022,1,0,0:0:0:0:
391,44,18252,1,4,0:3:0:0:
286,44,18483,1,0,0:0:0:0:
88,44,18714,5,4,0:3:0:0:
192,44,18945,1,0,0:0:0:0:
254,116,19175,1,0,0:0:0:0:
244,217,19406,1,8,0:0:0:0:
46,217,19637,2,0,L|44:320,1,104,4|0,0:3|0:0,0:0:0:0:
148,320,20099,1,4,0:3:0:0:
44,320,20329,1,0,0:0:0:0:
345,320,20560,5,6,0:0:0:0:
448,311,20791,1,0,0:0:0:0:
491,211,21022,1,0,0:0:0:0:
451,121,21252,1,8,0:0:0:0:
253,121,21483,2,0,L|252:225,1,104,4|0,0:3|0:0,0:0:0:0:
356,224,21945,2,0,L|356:327,1,104,4|0,0:3|0:0,0:0:0:0:
160,327,22406,5,4,0:3:0:0:
101,240,22637,1,0,0:0:0:0:
167,160,22868,1,0,0:0:0:0:
271,160,23099,1,8,0:0:0:0:
84,160,23329,2,0,L|85:56,1,104,4|0,0:3|0:0,0:0:0:0:
271,56,23791,1,4,0:3:0:0:
375,56,24022,1,0,0:0:0:0:
73,245,24252,6,0,P|33:169|125:124,1,208,6|4,0:0|0:3,0:0:0:0:
321,123,24945,2,0,L|433:123,2,104,8|8|0,0:0|0:0|0:0,0:0:0:0:
123,123,25637,2,0,L|121:229,1,104,4|0,0:3|0:0,0:0:0:0:
428,226,26099,6,0,P|478:173|390:111,1,208,8|4,0:0|0:3,0:0:0:0:
193,110,26791,2,0,L|194:217,1,104,8|8,0:0|0:0,0:0:0:0:
391,213,27252,2,0,L|277:213,2,104,0|4|0,0:0|0:3|0:0,0:0:0:0:
87,213,27945,6,0,P|75:151|188:99,1,208,6|4,0:0|0:3,0:0:0:0:
385,98,28637,2,0,L|275:98,1,104,8|8,0:0|0:0,0:0:0:0:
82,98,29099,2,0,L|210:99,2,104,0|4|0,0:0|0:3|0:0,0:0:0:0:
382,97,29791,6,0,P|447:153|367:210,1,208,8|4,0:0|0:3,0:0:0:0:
174,212,30483,1,8,0:0:0:0:
69,212,30714,2,0,L|66:318,1,104,8|0,0:0|0:0,0:0:0:0:
263,315,31175,2,0,L|386:313,1,104,4|0,0:3|0:0,0:0:0:0:
63,313,31637,6,0,P|32:237|419:209,1,728,10|0,0:0|0:0,0:0:0:0:
419,201,33483,6,0,P|416:266|212:333,1,312,2|0,0:0|0:0,0:0:0:0:
215,335,34406,2,0,P|346:289|261:191,1,312,2|0,0:0|0:0,0:0:0:0:
265,190,35329,6,0,P|187:186|250:36,1,312,2|0,0:0|0:0,0:0:0:0:
247,35,36252,2,0,P|267:104|86:176,1,312,2|0,0:0|0:0,0:0:0:0:
88,178,37175,6,0,P|47:243|215:326,1,312,2|0,0:0|0:0,0:0:0:0:
202,337,38099,2,0,P|118:284|261:195,1,312,2|0,0:0|0:0,0:0:0:0:
234,175,39022,6,0,P|208:64|181:175,1,312,2|0,0:0|0:0,0:0:0:0:
179,174,39945,2,0,P|266:173|370:351,1,312,2|0,0:0|0:0,0:0:0:0:
370,348,40868,6,0,P|231:341|168:173,1,312,2|0,0:0|0:0,0:0:0:0:
162,199,41791,2,0,P|267:156|139:58,1,312,2|0,0:0|0:0,0:0:0:0:
171,30,42714,6,0,P|66:100|387:266,1,728,2|0,0:0|0:0,0:0:0:0:
374,294,44560,6,0,P|290:287|248:86,1,312,2|0,0:0|0:0,0:0:0:0:
239,96,45483,2,0,P|356:104|419:272,1,312,2|0,0:0|0:0,0:0:0:0:
420,268,46406,6,0,P|288:342|300:0,1,728,2|0,0:0|0:0,0:0:0:0:
300,0,48252,6,0,P|269:113|228:0,1,312,2|0,0:0|0:0,0:0:0:0:
226,1,49175,2,0,P|295:34|177:157,1,312,2|0,0:0|0:0,0:0:0:0:
188,164,50099,6,0,P|67:229|368:355,1,728,2|0,0:0|0:0,0:0:0:0:
360,283,51945,6,0,P|259:335|130:189,1,312,2|0,0:0|0:0,0:0:0:0:
129,215,52868,2,0,P|294:217|373:2,1,416,2|0,0:0|0:0,0:0:0:0:
256,192,54022,12,0,64868,0:0:0:0:
