osu file format v14

[General]
AudioFilename: audio.ogg
AudioLeadIn: 0
PreviewTime: 252
Countdown: 0
SampleSet: Soft
StackLeniency: 0.7
Mode: 2
LetterboxInBreaks: 0
WidescreenStoryboard: 0

[Editor]
Bookmarks: 16868,31637,53791
DistanceSpacing: 0.8
BeatDivisor: 2
GridSize: 32
TimelineZoom: 1.15

[Metadata]
Title:M40
TitleUnicode:M40
Artist:Yuki Kajiura
ArtistUnicode:梶浦由記
Creator:by-ad
Version:Cup
Source:劇場版「空の境界」 第七章 殺人考察(後)
Tags:-hex- rew0825 astreachan disc1 track37 ANZB-2894 knk kara no kyoukai the garden of sinners 劇場版・空の境界 Boundary of Emptiness Satsujin Kousatsu Go A Study in Murder Speculation part 2 not nothing heart type-moon type moon typemoon ufotable Rakkyo らっきょ anime original soundtrack ost theme movie chapter 7 instrumental classical kalafina ryougi shiki 両儀式
BeatmapID:3755889
BeatmapSetID:1829962

[Difficulty]
HPDrainRate:2
CircleSize:2.5
OverallDifficulty:5.6
ApproachRate:5.6
SliderMultiplier:1.4
SliderTickRate:0.5

[Events]
//Background and Video events
0,0,"BG Edit.jpg",0,0
//Break Periods
//Storyboard Layer 0 (Background)
//Storyboard Layer 1 (Fail)
//Storyboard Layer 2 (Pass)
//Storyboard Layer 3 (Foreground)
//Storyboard Layer 4 (Overlay)
//Storyboard Sound Samples

[TimingPoints]
2099,461.538461538462,4,2,1,50,1,0
16868,-100,4,2,1,50,0,1
31637,-100,4,2,1,50,0,0
53906,-100,4,2,1,30,0,0
56099,-100,4,2,1,20,0,0
61175,-100,4,2,1,10,0,0
63022,-100,4,2,1,5,0,0

[Colours]
Combo1 : 81,76,80
Combo2 : 169,7,12
Combo3 : 54,220,243

[HitObjects]
193,285,2099,6,0,P|56:181|206:46,1,420,4|0,0:0|0:0,0:0:0:0:
337,150,3945,1,4,0:3:0:0:
128,154,4637,1,8,0:0:0:0:
233,153,5329,1,4,0:3:0:0:
336,95,5791,6,0,P|377:244|161:324,1,420,4|0,0:3|0:0,0:0:0:0:
29,148,7637,1,4,0:3:0:0:
289,152,8329,1,8,0:0:0:0:
169,151,9022,1,4,0:3:0:0:
351,245,9483,6,0,P|517:157|369:56,1,420,4|4,0:0|0:3,0:0:0:0:
249,151,11329,1,4,0:3:0:0:
144,154,12022,1,8,0:0:0:0:
385,149,12714,1,8,0:3:0:0:
202,63,13175,6,0,P|95:187|259:318,1,420,4|0,0:0|0:0,0:0:0:0:
455,244,15022,1,8,0:0:0:0:
220,247,15714,1,8,0:0:0:0:
377,253,16406,1,4,0:3:0:0:
292,250,16637,1,0,0:0:0:0:
180,257,16868,5,6,0:0:0:0:
294,260,17329,1,0,0:0:0:0:
426,261,17791,1,4,0:3:0:0:
286,146,18252,1,4,0:3:0:0:
428,96,18714,6,0,L|235:96,1,140,4|0,0:3|0:0,0:0:0:0:
119,250,19637,2,0,L|283:249,1,140,4|4,0:3|0:3,0:0:0:0:
398,147,20560,5,6,0:0:0:0:
235,113,21022,1,0,0:0:0:0:
73,114,21483,1,4,0:3:0:0:
213,269,21945,1,4,0:3:0:0:
73,330,22406,6,0,L|247:330,1,140,4|0,0:3|0:0,0:0:0:0:
411,120,23329,2,0,L|257:120,1,140,4|4,0:3|0:3,0:0:0:0:
89,190,24252,6,0,L|233:190,1,140,6|4,0:0|0:3,0:0:0:0:
314,287,24945,1,8,0:0:0:0:
216,286,25175,1,8,0:0:0:0:
355,289,25637,1,4,0:3:0:0:
494,194,26099,6,0,L|341:194,1,140,8|4,0:0|0:3,0:0:0:0:
270,123,26791,1,8,0:0:0:0:
368,125,27022,1,8,0:0:0:0:
206,122,27483,1,4,0:3:0:0:
24,135,27945,6,0,L|201:135,1,140,6|4,0:0|0:3,0:0:0:0:
276,139,28637,1,8,0:0:0:0:
374,142,28868,2,0,L|374:309,1,140,8|4,0:0|0:3,0:0:0:0:
204,106,29791,6,0,L|71:249,1,140,8|4,0:0|0:3,0:0:0:0:
200,191,30483,1,8,0:0:0:0:
291,257,30714,2,0,L|394:156,1,140,8|4,0:0|0:3,0:0:0:0:
195,58,31637,6,0,P|9:192|205:369,1,560,10|2,0:0|0:0,0:0:0:0:
477,365,34406,1,2,0:0:0:0:
187,49,35329,6,0,L|187:330,1,280,2|2,0:0|0:0,0:0:0:0:
466,313,37175,2,0,L|465:29,1,280,2|2,0:0|0:0,0:0:0:0:
169,336,39022,6,0,P|468:336|467:89,1,560,2|2,0:0|0:0,0:0:0:0:
214,137,41791,1,2,0:0:0:0:
493,106,42714,6,0,P|448:304|256:256,1,420,2|0,0:0|0:0,0:0:0:0:
111,332,44560,2,0,L|110:48,1,280,2|2,0:0|0:0,0:0:0:0:
319,352,46406,6,0,P|405:104|137:48,1,560,2|2,0:0|0:0,0:0:0:0:
456,55,49175,1,2,0:0:0:0:
175,262,50099,6,0,L|461:262,1,280,2|0,0:0|0:0,0:0:0:0:
245,273,51945,2,0,P|163:191|259:95,1,280,2|2,0:0|0:0,0:0:0:0:
256,192,53791,12,0,64868,0:0:0:0:
