osu file format v14

[General]
AudioFilename: audio.ogg
AudioLeadIn: 0
PreviewTime: 79187
Countdown: 0
SampleSet: Drum
StackLeniency: 0.7
Mode: 0
LetterboxInBreaks: 0
WidescreenStoryboard: 1

[Editor]
DistanceSpacing: 1
BeatDivisor: 1
GridSize: 16
TimelineZoom: 1.5

[Metadata]
Title:M24
TitleUnicode:M24
Artist:Yuki Kajiura
ArtistUnicode:梶浦由記
Creator:-Eresh
Version:Sayu's Easy
Source:劇場版「空の境界」 第五章 矛盾螺旋
Tags:knk kara no kyoukai mujun rasen the garden of sinners gekijouban 劇場版・空の境界 paradox paradigm spiral is nothing id cosmos type-moon type_moon typemoon original soundtrack sound track ost theme movie chapter 5 5th electronic instrumental kalafina ryougi shiki 両儀式 wanpachi gorou flame haze mocaotic twil_furano koyorin koyorin-sama sayucat_ ducky- duckymomo alwayschoke frozz -keqing gst:live2022 great singapore tournament live 2022 gstlive custom map tourney AEF asia esports festival online kallang wave mall EXP esports experience center gstlive2022b2
BeatmapID:3942057
BeatmapSetID:1901740

[Difficulty]
HPDrainRate:3
CircleSize:2.5
OverallDifficulty:3
ApproachRate:3.5
SliderMultiplier:0.95
SliderTickRate:1

[Events]
//Background and Video events
0,0,"b4f705590fc3b2559b06a1cbd757606d.jpg",0,0
//Break Periods
2,74980,77780
//Storyboard Layer 0 (Background)
//Storyboard Layer 1 (Fail)
//Storyboard Layer 2 (Pass)
//Storyboard Layer 3 (Foreground)
//Storyboard Layer 4 (Overlay)
//Storyboard Sound Samples

[TimingPoints]
1280,375,4,3,1,45,1,0
2780,-100,4,3,1,75,0,0
14780,-100,4,3,1,70,0,0
26780,-100,4,3,2,75,0,0
26873,-100,4,3,1,75,0,0
38780,-100,4,3,1,70,0,0
50780,-100,4,3,1,60,0,0
59780,-100,4,3,1,65,0,0
72155,-100,4,3,1,65,0,0
72530,-100,4,3,1,65,0,0
72905,-100,4,3,1,65,0,0
73280,-100,4,3,1,65,0,0
74780,-100,4,3,1,60,0,0
77780,-100,4,3,2,60,0,0
77873,-100,4,3,1,60,0,0
79280,-100,4,3,2,80,0,1
80030,-100,4,3,1,80,0,1
82280,-100,4,3,2,80,0,1
83030,-100,4,3,1,80,0,1
85280,-100,4,3,2,80,0,1
86030,-100,4,3,1,80,0,1
88280,-100,4,3,2,80,0,1
89030,-100,4,3,1,80,0,1
91280,-100,4,3,2,80,0,1
92030,-100,4,3,1,80,0,1
94280,-100,4,3,2,80,0,1
95030,-100,4,3,1,80,0,1
97280,-100,4,3,2,80,0,1
98030,-100,4,3,1,80,0,1
100280,-100,4,3,2,80,0,1
101030,-100,4,3,1,80,0,1
103280,-100,4,3,2,80,0,1
104030,-100,4,3,1,80,0,1
106280,-100,4,3,2,80,0,1
107030,-100,4,3,1,80,0,1
109280,-100,4,3,2,80,0,1
110030,-100,4,3,1,80,0,1
112280,-100,4,3,2,80,0,1
113030,-100,4,3,1,80,0,1
115280,-100,4,3,2,80,0,1
116030,-100,4,3,1,80,0,1
118280,-100,4,3,2,80,0,1
119030,-100,4,3,1,80,0,1
121280,-100,4,3,2,80,0,1
122030,-100,4,3,1,80,0,1
124280,-100,4,3,2,80,0,1
125030,-100,4,3,1,80,0,1
127280,-100,4,3,2,80,0,1
127373,-100,4,3,1,45,0,0
136280,-100,4,3,1,5,0,0

[Colours]
Combo1 : 213,198,185
Combo2 : 251,60,4
Combo3 : 174,77,34

[HitObjects]
159,103,2780,6,0,P|107:61|30:65,2,142.5,6|2|10,0:0|0:0|0:0,0:0:0:0:
193,191,4280,1,0,0:0:0:0:
123,255,4655,2,0,L|0:244,2,95,10|2|10,0:0|0:0|0:0,0:0:0:0:
180,330,5780,2,0,B|269:350|239:275|340:301,1,142.5,2|0,0:0|0:0,0:0:0:0:
429,377,6905,2,0,B|442:332|489:308|489:308|480:254|445:189,1,190,10|10,0:0|0:0,0:0:0:0:
367,192,8030,1,0,0:0:0:0:
280,230,8405,1,10,0:0:0:0:
187,207,8780,6,0,B|160:167|160:167|183:61,1,142.5,6|6,0:0|0:0,0:0:0:0:
316,33,9905,2,0,P|364:37|405:81,1,95,8|0,0:0|0:0,0:0:0:0:
488,104,10655,2,0,L|496:7,2,95,8|0|8,0:0|0:0|0:0,0:0:0:0:
402,145,11780,2,0,B|372:203|372:203|415:328,1,190,2|0,2:1|0:0,0:0:0:0:
323,353,12905,2,0,P|249:374|152:309,1,190,10|10,0:0|0:0,0:0:0:0:
131,228,14030,1,0,0:0:0:0:
12,79,14780,6,0,P|65:29|156:44,2,142.5,2|2|10,0:0|0:0|0:0,0:0:0:0:
57,162,16280,2,0,B|21:210|61:262|61:262|71:301|36:362,1,190,2|0,0:0|0:0,0:0:0:0:
136,374,17405,1,10,0:0:0:0:
228,351,17780,2,0,B|286:356|286:356|323:343|323:343|384:348,2,142.5,2|2|10,0:0|0:0|0:0,0:0:0:0:
162,281,19280,2,0,P|117:212|155:113,1,190,2|2,0:0|0:0,0:0:0:0:
316,208,20780,6,0,P|320:257|324:354,1,142.5,6|4,0:0|0:0,0:0:0:0:
465,366,21905,1,8,0:0:0:0:
492,275,22280,2,0,P|501:204|416:125,1,190
328,142,23405,1,10,0:0:0:0:
241,103,23780,2,0,B|209:163|255:217|255:217|181:174|118:227|118:227|81:300|137:350,1,380
259,34,26780,6,0,B|293:22|329:47|329:47|357:11|406:4,2,142.5,4|2|8,0:2|0:0|0:0,0:0:0:0:
267,128,28280,2,0,L|257:240,1,95,2|8,0:0|0:0,0:0:0:0:
163,216,29030,2,0,L|171:121,1,95,0|10,0:0|0:0,0:0:0:0:
136,32,29780,2,0,P|78:20|4:80,2,142.5,2|2|10,0:0|0:0|0:0,0:0:0:0:
170,121,31280,2,0,B|257:111|218:168|331:155,2,142.5,2|0|10,0:0|0:0|0:0,0:0:0:0:
92,175,32780,6,0,B|63:219|63:219|85:331,1,142.5,2|2,0:0|0:0,0:0:0:0:
222,306,33905,1,8,0:0:0:0:
294,367,34280,2,0,P|362:367|419:312,2,142.5,0|2|10,0:0|0:0|0:0,0:0:0:0:
222,306,35780,2,0,B|206:255|206:255|232:158,1,142.5,2|0,0:1|0:0,0:0:0:0:
345,250,36905,2,0,P|419:264|499:179,1,190,10|10,0:0|0:0,0:0:0:0:
485,96,38030,1,0,0:0:0:0:
305,156,38780,6,0,L|318:6,2,142.5,2|2|10,0:0|0:0|0:0,0:0:0:0:
214,186,40280,2,0,P|144:171|103:110,1,142.5,2|0,0:0|0:0,0:0:0:0:
12,224,41405,1,8,0:0:0:0:
48,311,41780,2,0,P|135:326|227:341,2,142.5,2|2|10,0:0|0:0|0:0,0:0:0:0:
12,224,43280,2,0,P|34:175|84:146,1,95,2|8,0:0|0:0,0:0:0:0:
161,156,44030,2,0,P|197:184|215:228,1,95,2|8,0:0|0:0,0:0:0:0:
256,192,44780,12,2,49280,0:0:0:0:
253,140,50780,6,0,P|294:89|382:81,2,142.5,6|6|10,0:0|0:0|0:0,0:0:0:0:
344,167,52280,2,0,P|408:177|459:249,1,142.5,6|0,0:0|0:0,0:0:0:0:
408,368,53405,1,10,0:0:0:0:
319,332,53780,2,0,P|271:323|220:349,1,95,2|8,0:0|0:0,0:0:0:0:
137,365,54530,2,0,P|89:374|38:348,1,95,2|8,0:0|0:0,0:0:0:0:
13,267,55280,2,0,P|44:212|164:196,1,190,2|2,0:0|0:0,0:0:0:0:
224,265,56405,1,8,0:0:0:0:
299,207,56780,6,0,B|315:160|315:160|283:50,2,142.5,6|2|8,0:0|0:0|0:0,0:0:0:0:
224,265,58280,2,0,B|177:281|177:281|67:249,1,142.5,2|0,0:0|0:0,0:0:0:0:
10,134,59405,1,10,0:0:0:0:
79,69,59780,2,0,B|141:56|185:103|185:103|238:71|228:18,1,190,2|2,0:0|0:0,0:0:0:0:
311,1,60905,1,10,0:0:0:0:
373,72,61280,2,0,L|364:181,1,95,2|8,0:0|0:0,0:0:0:0:
359,261,62030,1,2,0:0:0:0:
216,382,62780,6,0,B|163:358|163:358|137:279|194:209,2,190,2|0|2,0:0|0:0|0:0,0:0:0:0:
388,370,65030,2,0,P|406:314|432:257,1,95,0|8,0:0|0:0,0:0:0:0:
480,207,65780,2,0,B|520:159|494:80|494:80|441:56,2,190,2|2|2,0:0|0:0|0:0,0:0:0:0:
420,281,67655,1,8,0:0:0:0:
388,370,68030,2,0,P|334:348|277:330,1,95,0|8,0:0|0:0,0:0:0:0:
256,192,68780,12,2,74780,0:0:0:0:
149,372,79280,6,0,P|167:315|149:259,1,95,6|8,0:0|0:0,0:0:0:0:
141,237,79842,2,4,B|195:257|195:257|303:234,1,142.5,6|10,0:0|0:0,0:0:0:0:
366,274,80780,2,0,L|357:372,1,95,2|10,0:0|0:0,0:0:0:0:
452,374,81530,2,0,L|460:279,1,95,0|10,0:0|0:0,0:0:0:0:
417,194,82280,6,0,B|411:141|411:141|434:97,1,95,6|8,0:0|0:0,0:0:0:0:
462,69,82842,2,0,P|410:16|338:18,1,142.5,6|8,0:0|0:0,0:0:0:0:
260,59,83780,1,2,0:0:0:0:
340,111,84155,1,8,0:0:0:0:
286,189,84530,2,0,L|182:178,1,95,0|10,0:0|0:0,0:0:0:0:
114,124,85280,6,0,P|60:147|34:193,1,95,6|8,0:0|0:0,0:0:0:0:
32,222,85842,2,0,L|45:376,1,142.5,6|10,0:0|0:0,0:0:0:0:
138,375,86780,1,2,0:0:0:0:
209,311,87155,2,0,L|198:187,2,95,8|0|10,0:0|0:0|0:0,0:0:0:0:
288,363,88280,6,0,B|342:371|342:371|393:340,1,95,6|8,0:0|0:0,0:0:0:0:
412,318,88842,2,0,P|408:237|337:193,1,142.5,6|10,0:0|0:0,0:0:0:0:
278,159,89780,2,0,B|165:135|211:222|91:205,1,190,2|0,0:0|0:0,0:0:0:0:
1,46,91280,6,0,P|52:29|99:19,1,95,6|8,0:0|0:0,0:0:0:0:
136,4,91842,2,0,P|207:25|283:33,1,142.5,6|10,0:0|0:0,0:0:0:0:
352,88,92780,2,0,P|357:137|333:184,1,95,2|8,0:0|0:0,0:0:0:0:
266,239,93530,2,0,P|247:195|252:149,1,95,0|10,0:0|0:0,0:0:0:0:
164,112,94280,6,0,L|60:121,1,95,6|8,0:0|0:0,0:0:0:0:
27,141,94842,2,0,B|5:194|30:248|30:248|77:275,1,142.5,6|10,0:0|0:0,0:0:0:0:
150,286,95780,1,2,0:0:0:0:
87,357,96155,1,8,0:0:0:0:
179,378,96530,2,0,L|284:369,1,95,0|10,0:0|0:0,0:0:0:0:
352,317,97280,6,0,B|361:275|361:275|339:220,1,95,6|8,0:0|0:0,0:0:0:0:
307,193,97842,2,0,P|375:203|449:147,1,142.5,6|8,0:0|0:0,0:0:0:0:
357,113,98780,1,2,0:0:0:0:
420,42,99155,2,0,P|471:24|514:22,2,95,8|0|10,0:0|0:0|0:0,0:0:0:0:
357,113,100280,6,0,P|309:109|265:92,1,95,6|8,0:0|0:0,0:0:0:0:
233,57,100842,2,0,L|218:218,1,142.5,6|10,0:0|0:0,0:0:0:0:
312,225,101780,2,0,P|391:212|466:314,1,190,2|0,0:0|0:0,0:0:0:0:
294,371,103280,6,0,L|194:362,1,95,6|8,0:0|0:0,0:0:0:0:
152,357,103842,2,0,B|130:264|130:264|160:201,1,142.5,6|14,0:0|0:0,0:0:0:0:
244,233,104780,2,0,L|253:124,1,95,2|8,0:0|0:0,0:0:0:0:
257,43,105530,1,0,0:0:0:0:
168,7,105905,1,10,0:0:0:0:
77,35,106280,6,0,P|60:82|70:135,1,95,6|8,0:0|0:0,0:0:0:0:
93,164,106842,2,0,L|257:149,1,142.5,6|10,0:0|0:0,0:0:0:0:
223,246,107780,2,0,L|128:254,1,95,2|8,0:0|0:0,0:0:0:0:
62,323,108530,1,0,0:0:0:0:
138,379,108905,1,10,0:0:0:0:
225,341,109280,6,0,L|319:349,1,95,6|8,0:0|0:0,0:0:0:0:
359,374,109842,2,0,P|378:316|459:272,1,142.5,6|10,0:0|0:0,0:0:0:0:
420,181,110780,2,0,P|373:164|321:162,1,95,2|8,0:0|0:0,0:0:0:0:
240,126,111530,2,0,P|223:79|221:27,1,95,0|10,0:0|0:0,0:0:0:0:
311,7,112280,6,0,B|361:8|361:8|405:28,1,95,6|8,0:0|0:0,0:0:0:0:
433,62,112842,2,0,P|405:120|328:165,1,142.5,6|10,0:0|0:0,0:0:0:0:
248,140,113780,2,0,B|228:188|267:233|267:233|294:270|253:333,1,190,2|0,0:0|0:0,0:0:0:0:
82,378,115280,6,0,B|63:344|63:344|74:276,1,95,6|8,0:0|0:0,0:0:0:0:
92,245,115842,2,0,P|157:237|217:297,1,142.5,6|10,0:0|0:0,0:0:0:0:
255,369,116780,2,0,L|357:360,1,95,2|8,0:0|0:0,0:0:0:0:
431,311,117530,2,0,P|438:252|418:213,1,95,0|10,0:0|0:0,0:0:0:0:
344,168,118280,6,0,P|328:212|337:258,1,95,6|8,0:0|0:0,0:0:0:0:
307,295,118842,2,0,P|239:270|153:250,1,142.5,6|10,0:0|0:0,0:0:0:0:
98,191,119780,1,2,0:0:0:0:
184,152,120155,1,8,0:0:0:0:
163,59,120530,2,0,P|105:22|55:14,1,95,0|10,0:0|0:0,0:0:0:0:
4,73,121280,6,0,P|0:141|19:189,1,95,6|8,0:0|0:0,0:0:0:0:
32,207,121842,2,0,B|114:226|96:157|196:184,1,142.5,6|10,0:0|0:0,0:0:0:0:
261,191,122780,2,0,P|281:240|279:288,1,95,2|8,0:0|0:0,0:0:0:0:
214,349,123530,1,0,0:0:0:0:
305,375,123905,1,10,0:0:0:0:
382,320,124280,6,0,B|399:269|399:269|376:209,1,95,6|8,0:0|0:0,0:0:0:0:
352,195,124842,2,0,P|327:138|403:62,1,142.5,6|10,0:0|0:0,0:0:0:0:
458,63,125780,2,0,B|495:98|492:155|492:155|456:200|446:266|475:324|475:324|420:290|370:327,1,380,10|4,0:0|0:2,0:0:0:0:
