osu file format v14

[General]
AudioFilename: audio.mp3
AudioLeadIn: 0
PreviewTime: 6364
Countdown: 0
SampleSet: Soft
StackLeniency: 0.7
Mode: 0
LetterboxInBreaks: 0
WidescreenStoryboard: 0

[Editor]
Bookmarks: 6717,29305,51893,74481,97069,119658,142246
DistanceSpacing: 1.5
BeatDivisor: 6
GridSize: 4
TimelineZoom: 1

[Metadata]
Title:Himeboshi
TitleUnicode:媛星
Artist:Yuki Kajiura
ArtistUnicode:梶浦由記
Creator:Streliteela
Version:Normal
Source:舞-HiME
Tags:mai-hime ensei Lantis Original Soundtrack OST volume 1 vol. Sunrise yuri
BeatmapID:946399
BeatmapSetID:439348

[Difficulty]
HPDrainRate:4
CircleSize:3
OverallDifficulty:3
ApproachRate:4
SliderMultiplier:1.2
SliderTickRate:1

[Events]
//Background and Video events
0,0,"BG1.jpg",0,0
//Break Periods
//Storyboard Layer 0 (Background)
//Storyboard Layer 1 (Fail)
//Storyboard Layer 2 (Pass)
//Storyboard Layer 3 (Foreground)
//Storyboard Sound Samples

[TimingPoints]
1070,705.882352941176,4,2,1,50,1,0
74481,-100,4,2,1,40,0,0
97069,-100,4,2,99,70,0,0
99187,-100,4,2,98,70,0,0
99893,-100,4,2,99,70,0,0
102011,-100,4,2,98,70,0,0
102717,-100,4,2,99,70,0,0
104128,-100,4,2,98,70,0,0
104481,-100,4,2,99,70,0,0
111187,-100,4,2,98,70,0,0
119658,-100,4,2,99,70,0,0
121775,-100,4,2,98,70,0,0
122481,-100,4,2,99,70,0,0
124599,-100,4,2,98,70,0,0
125305,-100,4,2,99,70,0,0
133775,-100,4,2,98,70,0,0
142599,-100,4,2,1,70,0,0
146525,810.810810810811,4,2,1,50,1,0
147366,1200,4,2,1,40,1,0
147966,-100,4,2,1,30,0,0
150966,-100,4,2,1,20,0,0
153366,-100,4,2,1,10,0,0
154866,-100,4,2,1,5,0,0

[Colours]
Combo1 : 68,115,238
Combo2 : 69,193,207
SliderBorder : 83,198,236

[HitObjects]
70,336,1070,6,0,L|155:349,1,60,8|0,0:0|0:0,0:0:0:0:
173,266,1775,2,0,L|236:257,1,60,2|0,0:0|0:0,0:0:0:0:
296,321,2481,2,0,P|337:357|403:357,1,120,2|2,0:0|0:0,0:0:0:0:
462,292,3540,1,0,0:0:0:0:
377,259,3893,6,0,L|360:123,1,120,2|2,0:0|0:0,0:0:0:0:
349,50,4952,1,0,0:0:0:0:
432,82,5305,2,0,L|496:67,2,60,2|0|2,0:0|0:0|0:0,0:0:0:0:
251,88,6717,6,0,P|199:60|133:79,2,120,12|2|2,0:1|0:0|0:0,0:0:0:0:
203,262,8834,2,0,L|141:252,1,60,2|0,0:0|0:0,0:0:0:0:
87,181,9540,6,0,P|55:225|62:295,1,120,10|2,0:0|0:0,0:0:0:0:
119,355,10599,1,0,0:0:0:0:
208,343,10952,2,0,L|281:332,2,60,2|0|2,0:0|0:0|0:0,0:0:0:0:
334,214,12364,6,0,L|398:225,1,60,10|0,0:0|0:0,0:0:0:0:
459,163,13069,2,0,P|457:128|447:94,1,60,2|0,0:0|0:0,0:0:0:0:
385,41,13775,2,0,L|250:64,1,120,2|2,0:0|0:0,0:0:0:0:
206,128,14834,1,0,0:0:0:0:
140,189,15187,6,0,P|115:131|142:65,1,120,10|2,0:0|0:0,0:0:0:0:
277,184,16599,2,0,P|301:241|274:307,1,120,2|2,0:0|0:0,0:0:0:0:
210,343,17658,1,0,0:0:0:0:
160,268,18011,6,0,P|99:265|36:259,2,120,12|0|2,0:1|0:0|0:0,0:0:0:0:
323,343,20128,2,0,L|387:332,1,60,2|0,0:0|0:0,0:0:0:0:
462,372,20834,6,0,P|467:322|457:233,1,120,8|2,0:2|0:0,0:0:0:0:
445,163,21893,1,0,0:0:0:0:
381,226,22246,2,0,P|343:234|312:235,2,60,2|0|2,0:0|0:0|0:0,0:0:0:0:
388,46,23658,6,0,P|325:34|275:69,1,120,4|2,0:1|0:0,0:0:0:0:
260,150,24717,1,0,0:0:0:0:
186,98,25069,2,0,L|65:94,1,120,2|2,0:0|0:0,0:0:0:0:
18,170,26128,1,0,0:0:0:0:
96,214,26481,6,0,P|112:268|102:342,2,120,8|2|2,0:0|0:0|0:0,0:0:0:0:
29,381,28599,1,10,0:2:0:0:
200,326,29305,6,0,P|259:322|330:337,1,120,8|2,0:1|0:0,0:0:0:0:
405,356,30364,1,0,0:0:0:0:
426,268,30717,2,0,P|433:215|427:134,1,120,8|2,0:2|0:0,0:0:0:0:
292,31,32128,6,0,P|285:84|291:165,1,120,2|2,0:0|0:0,0:0:0:0:
304,239,33187,1,0,0:0:0:0:
219,206,33540,2,0,P|157:212|96:223,1,120,8|2,0:2|0:0,0:0:0:0:
32,54,34952,6,0,P|94:48|155:37,1,120,2|2,0:2|0:0,0:0:0:0:
239,18,36011,1,0,0:0:0:0:
271,101,36364,2,0,P|333:94|396:127,2,120,10|2|2,0:0|0:0|0:0,0:0:0:0:
212,169,38128,5,0,0:0:0:0:
259,242,38481,2,0,P|291:241|325:232,1,60,2|0,0:0|0:0,0:0:0:0:
408,236,39187,2,0,P|433:277|429:353,1,120,10|2,0:0|0:0,0:0:0:0:
320,204,40599,6,0,L|331:66,1,120,8|2,0:1|0:0,0:0:0:0:
256,31,41658,1,0,0:0:0:0:
182,82,42011,2,0,L|191:160,1,60,2|0,0:0|0:0,0:0:0:0:
163,228,42717,2,0,P|105:221|38:214,1,120,2|8,0:0|0:2,0:0:0:0:
23,127,43775,5,0,0:0:0:0:
112,132,44128,2,0,P|151:137|193:142,1,60,2|0,0:0|0:0,0:0:0:0:
241,196,44834,2,0,P|260:246|255:322,1,120,2|2,0:0|0:0,0:0:0:0:
184,364,45893,1,0,0:0:0:0:
124,296,46246,6,0,L|-6:313,2,120,10|2|2,0:2|0:0|0:0,0:0:0:0:
184,364,48011,1,0,0:0:0:0:
257,311,48364,2,0,P|291:317|335:332,1,60,2|0,0:0|0:0,0:0:0:0:
401,350,49069,6,0,P|419:301|403:222,1,120,10|2,0:2|0:0,0:0:0:0:
313,82,50481,2,0,P|295:131|311:210,1,120,2|2,0:0|0:0,0:0:0:0:
473,135,51893,6,0,P|462:68|452:11,1,120,8|2,0:1|0:0,0:0:0:0:
363,2,52952,1,0,0:0:0:0:
335,87,53305,2,0,P|282:99|215:97,1,120,10|2,0:0|0:0,0:0:0:0:
52,22,54717,6,0,P|62:91|67:157,1,120,2|2,0:0|0:0,0:0:0:0:
60,230,55775,1,0,0:0:0:0:
141,191,56128,2,0,P|194:179|261:181,1,120,10|2,0:0|0:0,0:0:0:0:
437,206,57540,6,0,P|427:272|423:350,1,120,2|2,0:2|0:0,0:0:0:0:
346,371,58599,1,0,0:0:0:0:
328,282,58952,2,0,P|322:228|326:146,2,120,10|2|2,0:0|0:0|0:0,0:0:0:0:
404,330,60717,6,0,L|473:322,2,60,0|2|0,0:0|0:0|0:0,0:0:0:0:
328,282,61775,2,0,P|278:255|207:270,1,120,10|2,0:0|0:0,0:0:0:0:
64,358,63187,6,0,L|185:347,2,120,8|2|2,0:1|0:0|0:0,0:0:0:0:
30,274,64952,1,0,0:0:0:0:
109,231,65305,2,0,P|111:169|87:103,1,120,2|8,0:0|0:0,0:0:0:0:
60,30,66364,6,0,L|-4:44,2,60,0|2|0,0:0|0:0|0:0,0:0:0:0:
148,45,67422,2,0,P|198:49|279:21,1,120,2|0,0:0|0:0,0:0:0:0:
349,58,68481,1,0,0:0:0:0:
281,117,68834,6,0,P|224:135|164:132,2,120,10|2|2,0:2|0:0|0:0,0:0:0:0:
351,173,70599,2,0,P|363:223|367:252,1,60,0|2,0:0|0:0,0:0:0:0:
384,319,71305,1,0,0:0:0:0:
456,266,71658,6,0,B|499:205|459:153|459:153|472:98|472:98|429:50,2,240,8|2|0,0:0|0:0|3:0,0:0:0:0:
384,320,74834,5,0,0:0:0:0:
323,253,75187,2,0,L|250:270,2,60,2|2|2,0:3|0:0|0:0,0:0:0:0:
219,105,76599,2,0,L|148:121,1,60,2|0,0:0|0:0,0:0:0:0:
79,79,77305,6,0,P|68:136|98:187,2,120,0|2|2,3:0|0:3|0:0,0:0:0:0:
211,201,79422,2,0,L|203:274,1,60,2|0,0:0|0:0,0:0:0:0:
266,325,80128,6,0,L|402:310,1,120,0|2,3:0|0:3,0:0:0:0:
453,145,81540,2,0,L|317:160,1,120,2|2,0:0|0:0,0:0:0:0:
203,33,82952,6,0,L|272:23,2,60,0|0|2,3:0|0:0|0:3,0:0:0:0:
76,161,84364,1,2,0:0:0:0:
172,312,85069,2,0,L|237:305,1,60,2|2,0:3|0:3,0:0:0:0:
309,352,85775,6,0,L|322:217,2,120,0|2|2,3:0|0:3|0:0,0:0:0:0:
237,186,87893,2,0,P|231:147|228:118,1,60,2|0,0:3|0:0,0:0:0:0:
289,59,88599,6,0,P|348:69|424:86,2,120,0|2|2,3:0|0:3|0:0,0:0:0:0:
192,211,90717,2,0,P|143:225|125:229,1,60,2|0,0:3|0:0,0:0:0:0:
45,212,91422,6,0,P|61:280|63:349,1,120,0|2,3:0|0:3,0:0:0:0:
238,372,92834,2,0,P|241:311|255:253,1,120,2|2,0:0|0:3,0:0:0:0:
413,168,94246,6,0,P|429:223|433:300,2,120,0|2|2,3:0|0:3|0:0,0:0:0:0:
299,27,96364,1,8,0:2:0:0:
153,131,97069,6,0,P|210:142|273:106,1,120,8|2,0:2|0:2,0:0:0:0:
201,51,98128,1,0,0:0:0:0:
111,47,98481,2,0,P|72:85|68:162,1,120,8|2,0:2|0:3,0:0:0:0:
230,214,99893,6,0,P|257:259|251:329,1,120,2|2,0:1|0:0,0:0:0:0:
174,370,100952,1,0,0:0:0:0:
139,286,101305,2,0,L|6:308,1,120,2|2,0:1|0:3,0:0:0:0:
153,184,102717,6,0,L|275:165,1,120,8|2,0:1|0:0,0:0:0:0:
345,216,103775,1,0,0:0:0:0:
264,256,104128,2,0,P|257:314|288:370,1,120,2|8,0:3|0:3,0:0:0:0:
434,266,105540,6,0,P|447:207|421:146,1,120,8|2,0:3|0:0,0:0:0:0:
369,82,106599,1,0,0:0:0:0:
280,96,106952,2,0,L|216:107,1,60,8|0,0:3|0:0,0:0:0:0:
167,33,107658,2,0,L|99:44,1,60,8|0,0:3|0:0,0:0:0:0:
47,109,108364,6,0,P|25:151|38:247,1,120,2|2,0:3|0:0,0:0:0:0:
156,346,109775,1,2,0:0:0:0:
224,287,110128,2,0,L|215:212,2,60,2|8|2,0:3|0:3|0:3,0:0:0:0:
300,335,111187,6,0,P|358:361|421:342,1,120,8|2,0:2|0:0,0:0:0:0:
429,169,112599,2,0,P|371:143|308:162,1,120,8|2,0:1|0:0,0:0:0:0:
267,230,113658,1,8,0:1:0:0:
190,181,114011,6,0,L|204:61,1,120,8|2,0:2|0:3,0:0:0:0:
267,230,115422,2,0,L|253:362,1,120,8|2,0:3|0:0,0:0:0:0:
170,317,116481,1,2,0:3:0:0:
170,317,116834,6,0,P|117:321|44:340,2,120,2|2|8,0:3|0:0|0:3,0:0:0:0:
346,354,118952,1,8,0:1:0:0:
415,188,119658,6,0,L|398:48,1,120,8|2,0:2|0:0,0:0:0:0:
318,33,120717,1,0,0:0:0:0:
320,122,121069,2,0,P|268:149|186:139,1,120,8|2,0:2|0:3,0:0:0:0:
67,33,122481,6,0,P|104:93|106:158,1,120,2|2,0:1|0:0,0:0:0:0:
85,228,123540,1,0,0:0:0:0:
57,313,123893,2,0,P|121:306|198:298,1,120,2|2,0:1|0:3,0:0:0:0:
339,223,125305,6,0,P|288:189|227:204,1,120,8|2,0:1|0:0,0:0:0:0:
349,337,126717,2,0,L|478:320,2,120,8|2|8,0:3|0:3|0:3,0:0:0:0:
260,350,128481,6,0,L|249:285,2,60,0|2|0,0:0|0:0|0:0,0:0:0:0:
349,337,129540,1,8,0:3:0:0:
405,166,130246,1,8,0:3:0:0:
267,50,130952,6,0,P|228:98|229:157,1,120,2|2,0:3|0:0,0:0:0:0:
290,323,132364,1,2,0:0:0:0:
358,265,132717,2,0,L|428:257,2,60,2|8|2,0:3|0:3|0:3,0:0:0:0:
290,323,133775,6,0,P|237:300|168:308,1,120,2|2,0:1|0:0,0:0:0:0:
87,147,135187,2,0,P|153:136|223:130,1,120,8|2,0:1|0:0,0:0:0:0:
295,121,136246,1,8,0:1:0:0:
374,78,136599,6,0,P|324:35|266:35,1,120,2|2,0:1|0:3,0:0:0:0:
111,115,138011,2,0,L|124:250,1,120,8|0,0:3|0:0,0:0:0:0:
154,319,139069,1,2,0:3:0:0:
240,348,139422,6,0,P|296:328|381:329,1,120,2|2,0:3|0:0,0:0:0:0:
423,265,140481,1,0,0:0:0:0:
337,237,140834,2,0,P|277:239|220:260,2,120,2|2|8,0:1|0:0|0:1,0:0:0:0:
423,265,142599,5,2,0:0:0:0:
407,176,142952,2,0,L|394:102,1,60,0|0,3:0|0:0,0:0:0:0:
329,56,143658,2,0,P|281:85|214:75,1,120,2|2,0:2|0:0,0:0:0:0:
145,25,144717,1,0,0:0:0:0:
114,109,145069,6,0,L|48:123,2,60,2|0|2,0:0|0:0|0:0,0:0:0:0:
187,160,146128,1,0,0:0:0:0:
114,209,146525,6,0,L|125:280,1,60,2|0,0:0|0:0,0:0:0:0:
192,321,147366,6,0,P|237:314|272:305,1,60,2|2,0:0|0:0,0:0:0:0:
256,192,148866,12,4,154866,0:1:0:0:
