osu file format v14

[General]
AudioFilename: audio.mp3
AudioLeadIn: 0
PreviewTime: 6364
Countdown: 0
SampleSet: Soft
StackLeniency: 0.7
Mode: 0
LetterboxInBreaks: 0
WidescreenStoryboard: 0

[Editor]
Bookmarks: 6717,29305,51893,74481,97069,119658,142246
DistanceSpacing: 1.2
BeatDivisor: 4
GridSize: 4
TimelineZoom: 1

[Metadata]
Title:Himeboshi
TitleUnicode:媛星
Artist:Yuki Kajiura
ArtistUnicode:梶浦由記
Creator:Streliteela
Version:Hard
Source:舞-HiME
Tags:mai-hime ensei Lantis Original Soundtrack OST volume 1 vol. Sunrise yuri
BeatmapID:945564
BeatmapSetID:439348

[Difficulty]
HPDrainRate:6
CircleSize:4
OverallDifficulty:5
ApproachRate:6
SliderMultiplier:1.6
SliderTickRate:1

[Events]
//Background and Video events
0,0,"BG1.jpg",0,0
//Break Periods
//Storyboard Layer 0 (Background)
//Storyboard Layer 1 (Fail)
//Storyboard Layer 2 (Pass)
//Storyboard Layer 3 (Foreground)
//Storyboard Sound Samples

[TimingPoints]
1070,705.882352941176,4,2,1,50,1,0
74481,-100,4,2,1,40,0,0
97069,-100,4,2,99,70,0,0
99187,-100,4,2,98,70,0,0
99893,-100,4,2,99,70,0,0
102011,-100,4,2,98,70,0,0
102717,-100,4,2,99,70,0,0
104128,-100,4,2,98,70,0,0
104481,-100,4,2,99,70,0,0
111187,-100,4,2,98,70,0,0
119658,-100,4,2,99,70,0,0
121775,-100,4,2,98,70,0,0
122481,-100,4,2,99,70,0,0
124599,-100,4,2,98,70,0,0
125305,-100,4,2,99,70,0,0
133775,-100,4,2,98,70,0,0
142599,-100,4,2,1,70,0,0
146525,810.810810810811,4,2,1,50,1,0
147366,1200,4,2,1,40,1,0
147966,-100,4,2,1,30,0,0
150966,-100,4,2,1,20,0,0
153366,-100,4,2,1,10,0,0
154866,-100,4,2,1,5,0,0

[Colours]
Combo1 : 68,115,238
Combo2 : 69,193,207
SliderBorder : 83,198,236

[HitObjects]
100,348,1070,5,0,0:0:0:0:
183,316,1422,1,0,0:0:0:0:
57,271,1775,1,2,0:0:0:0:
100,348,2128,1,0,0:0:0:0:
183,316,2481,2,0,P|238:321|262:324,1,80,2|0,0:0|0:0,0:0:0:0:
332,180,3187,2,0,P|284:185|249:190,1,80,2|0,0:0|0:0,0:0:0:0:
407,236,3893,5,0,0:0:0:0:
457,155,4246,1,0,0:0:0:0:
332,180,4599,1,2,0:0:0:0:
407,236,4952,1,0,0:0:0:0:
457,155,5305,2,0,P|448:106|443:73,1,80,2|0,0:0|0:0,0:0:0:0:
333,54,6011,2,0,P|272:101|198:81,1,160,2|12,0:0|0:1,0:0:0:0:
256,12,7069,5,0,0:0:0:0:
198,81,7422,2,0,P|208:133|218:176,1,80,2|0,0:0|0:0,0:0:0:0:
299,212,8128,2,0,P|330:280|280:356,1,160,2|2,0:0|0:0,0:0:0:0:
240,278,9187,1,0,0:0:0:0:
299,212,9540,6,0,P|378:221|466:231,1,160,10|2,0:0|0:0,0:0:0:0:
500,152,10599,1,0,0:0:0:0:
435,92,10952,1,2,0:0:0:0:
355,130,11305,2,0,P|365:176|373:220,1,80,0|2,0:0|0:0,0:0:0:0:
147,212,12364,6,0,P|154:172|163:133,1,80,10|0,0:0|0:0,0:0:0:0:
256,72,13069,1,2,0:0:0:0:
257,184,13422,1,0,0:0:0:0:
204,282,13775,2,0,P|135:242|60:262,1,160,2|2,0:0|0:0,0:0:0:0:
121,349,14834,1,0,0:0:0:0:
310,296,15187,6,0,P|379:262|456:299,2,160,10|2|2,0:0|0:0|0:0,0:0:0:0:
247,365,16952,1,0,0:0:0:0:
310,296,17305,1,2,0:0:0:0:
387,353,17658,1,0,0:0:0:0:
449,276,18011,6,0,P|448:229|434:190,1,80,12|0,0:1|0:0,0:0:0:0:
363,136,18717,2,0,P|360:92|379:44,1,80
442,106,19422,2,0,L|274:90,1,160,2|2,0:0|0:0,0:0:0:0:
187,79,20481,1,0,0:0:0:0:
50,123,20834,6,0,P|113:129|151:170,1,120,8|0,0:2|0:0,0:0:0:0:
165,199,21540,2,0,L|158:282,1,80,2|0,0:0|0:0,0:0:0:0:
80,352,22246,2,0,P|71:314|63:275,2,80,2|0|2,0:0|0:0|0:0,0:0:0:0:
250,90,23658,5,4,0:1:0:0:
330,141,24011,2,0,P|323:185|316:230,2,80,0|2|0,0:0|0:0|0:0,0:0:0:0:
256,300,25069,1,2,0:0:0:0:
326,365,25422,2,0,P|384:350|417:341,2,80,0|2|0,0:0|0:0|0:0,0:0:0:0:
231,192,26481,5,8,0:0:0:0:
169,264,26834,2,0,P|125:253|86:245,2,80,0|2|0,0:0|0:0|0:0,0:0:0:0:
231,192,27893,2,0,P|243:104|186:46,1,160,2|10,0:0|0:2,0:0:0:0:
49,149,29305,5,8,0:1:0:0:
21,232,29658,1,0,0:0:0:0:
39,318,30011,1,2,0:0:0:0:
111,367,30364,1,0,0:0:0:0:
198,363,30717,2,0,P|252:338|350:341,1,160,8|2,0:2|0:0,0:0:0:0:
488,206,32128,5,2,0:0:0:0:
505,119,32481,1,0,0:0:0:0:
474,36,32834,1,2,0:0:0:0:
391,6,33187,1,0,0:0:0:0:
303,11,33540,2,0,P|232:40|147:42,1,160,8|2,0:2|0:0,0:0:0:0:
279,265,34952,5,2,0:2:0:0:
330,194,35305,1,0,0:0:0:0:
279,122,35658,1,2,0:0:0:0:
195,150,36011,1,0,0:0:0:0:
195,238,36364,2,0,P|158:251|108:254,1,80,10|0,0:0|0:0,0:0:0:0:
330,194,37069,2,0,P|369:197|407:210,1,80,2|0,0:0|0:0,0:0:0:0:
279,265,37775,5,2,0:0:0:0:
250,181,38128,1,0,0:0:0:0:
257,93,38481,2,0,P|268:45|281:9,1,80,2|0,0:0|0:0,0:0:0:0:
374,129,39187,1,10,0:0:0:0:
407,210,39540,1,0,0:0:0:0:
402,297,39893,2,0,P|391:345|378:381,1,80,2|0,0:0|0:0,0:0:0:0:
195,284,40599,6,0,P|254:234|330:252,1,160,8|2,0:1|0:0,0:0:0:0:
275,323,41658,1,0,0:0:0:0:
195,284,42011,2,0,P|200:240|206:197,1,80,2|0,0:0|0:0,0:0:0:0:
229,27,42717,2,0,P|286:74|280:157,1,160,2|8,0:0|0:2,0:0:0:0:
204,204,43775,5,0,0:0:0:0:
159,128,44128,2,0,P|113:137|76:146,1,80,2|0,0:0|0:0,0:0:0:0:
229,27,44834,2,0,P|307:37|402:49,1,160,2|2,0:0|0:0,0:0:0:0:
444,113,45893,1,0,0:0:0:0:
371,208,46246,6,0,P|361:172|355:128,1,80,10|0,0:2|0:0,0:0:0:0:
489,189,46952,2,0,P|484:229|474:268,1,80,2|0,0:0|0:0,0:0:0:0:
416,342,47658,2,0,B|338:312|336:377|257:346,1,160,2|2,0:0|0:0,0:0:0:0:
193,287,48717,1,0,0:0:0:0:
248,211,49069,6,0,P|251:125|206:59,1,160,10|2,0:2|0:0,0:0:0:0:
123,29,50128,1,0,0:0:0:0:
71,106,50481,2,0,P|68:192|113:258,1,160,2|2,0:0|0:0,0:0:0:0:
256,356,51893,5,8,0:1:0:0:
260,268,52246,1,0,0:0:0:0:
302,190,52599,1,2,0:0:0:0:
373,138,52952,1,0,0:0:0:0:
458,118,53305,2,0,P|490:178|488:280,1,160,10|2,0:0|0:0,0:0:0:0:
256,356,54717,5,2,0:0:0:0:
252,268,55070,1,0,0:0:0:0:
210,190,55423,1,2,0:0:0:0:
139,138,55776,1,0,0:0:0:0:
54,118,56129,2,0,P|22:178|24:280,1,160,10|2,0:0|0:0,0:0:0:0:
256,356,57540,5,2,0:2:0:0:
256,268,57893,1,0,0:0:0:0:
256,179,58246,2,0,L|256:82,1,80,2|0,0:0|0:0,0:0:0:0:
185,44,58952,2,0,P|147:56|118:83,1,80,10|0,0:0|0:0,0:0:0:0:
325,43,59658,2,0,P|363:56|393:83,1,80,2|0,0:0|0:0,0:0:0:0:
256,99,60364,5,2,0:0:0:0:
277,184,60717,1,0,0:0:0:0:
341,249,61069,2,0,P|376:262|429:268,1,80,2|0,0:0|0:0,0:0:0:0:
365,157,61775,1,10,0:0:0:0:
277,184,62128,1,0,0:0:0:0:
223,253,62481,2,0,P|207:284|197:327,1,80,2|0,0:0|0:0,0:0:0:0:
277,184,63187,6,0,P|275:101|234:34,1,160,8|2,0:1|0:0,0:0:0:0:
141,17,64246,1,0,0:0:0:0:
87,99,64599,2,0,P|141:111|181:113,1,80,2|0,0:0|0:0,0:0:0:0:
236,36,65305,2,0,P|304:8|399:21,1,160,2|8,0:0|0:0,0:0:0:0:
436,101,66364,5,0,0:0:0:0:
379,178,66717,2,0,P|330:171|286:166,1,80,2|0,0:0|0:0,0:0:0:0:
275,343,67422,2,0,P|361:331|448:319,1,160,2|0,0:0|0:0,0:0:0:0:
471,237,68481,1,0,0:0:0:0:
379,178,68834,6,0,P|370:213|363:263,1,80,10|0,0:2|0:0,0:0:0:0:
475,128,69540,2,0,P|468:88|451:46,1,80,2|0,0:0|0:0,0:0:0:0:
361,82,70246,2,0,B|311:113|259:42|203:77,1,160,2|2,0:0|0:0,0:0:0:0:
139,142,71305,1,0,0:0:0:0:
52,100,71658,6,0,P|114:47|192:60,1,160,8|2,0:0|0:0,0:0:0:0:
225,146,72717,1,0,0:0:0:0:
209,240,73069,2,0,P|205:318|279:362,2,160,2|2|0,0:0|0:0|3:0,0:0:0:0:
250,162,74834,5,0,0:0:0:0:
322,211,75187,2,0,P|366:205|407:201,1,80,2|2,0:3|0:0,0:0:0:0:
437,120,75893,1,2,0:0:0:0:
377,57,76246,1,0,0:0:0:0:
289,69,76599,2,0,P|244:75|202:81,1,80,2|0,0:0|0:0,0:0:0:0:
116,187,77305,5,0,3:0:0:0:
73,111,77658,1,0,0:0:0:0:
128,42,78011,1,2,0:3:0:0:
209,79,78364,1,2,0:0:0:0:
202,166,78717,2,0,P|197:210|194:259,1,80,2|0,0:0|0:0,0:0:0:0:
313,268,79422,2,0,P|318:312|321:361,1,80,2|0,0:0|0:0,0:0:0:0:
401,384,80128,5,0,3:0:0:0:
456,315,80481,1,0,0:0:0:0:
406,242,80834,2,0,P|366:250|326:261,1,80,2|0,0:3|0:0,0:0:0:0:
263,168,81540,1,2,0:0:0:0:
336,83,81893,2,0,P|390:93|422:99,2,80,0|2|0,0:0|0:0|0:0,0:0:0:0:
263,168,82952,5,0,3:0:0:0:
318,89,83305,1,0,0:0:0:0:
276,2,83658,1,2,0:3:0:0:
155,213,84364,1,2,0:0:0:0:
241,188,84717,1,0,0:0:0:0:
92,150,85069,1,2,0:3:0:0:
69,238,85422,1,2,0:3:0:0:
181,125,85775,5,0,3:0:0:0:
118,63,86128,1,0,0:0:0:0:
32,84,86481,1,2,0:3:0:0:
92,150,86834,1,0,0:0:0:0:
181,125,87187,2,0,P|232:113|273:106,1,80,2|0,0:0|0:0,0:0:0:0:
118,63,87893,1,2,0:3:0:0:
92,150,88246,1,0,0:0:0:0:
284,217,88599,5,0,3:0:0:0:
264,125,88952,1,0,0:0:0:0:
341,64,89305,1,2,0:3:0:0:
356,157,89658,1,0,0:0:0:0:
284,217,90011,2,0,P|242:211|200:206,1,80,2|0,0:0|0:0,0:0:0:0:
356,157,90717,1,2,0:3:0:0:
372,246,91069,1,0,0:0:0:0:
391,331,91422,6,0,P|435:324|479:317,1,80,0|0,3:0|0:0,0:0:0:0:
303,298,92128,2,0,P|297:337|290:395,1,80,2|0,0:3|0:0,0:0:0:0:
229,249,92834,1,2,0:0:0:0:
194,327,93187,2,0,P|146:334|105:342,2,80,0|2|0,0:0|0:3|0:0,0:0:0:0:
229,249,94246,6,0,P|233:205|229:157,1,80,0|0,3:0|0:0,0:0:0:0:
199,86,94952,1,2,0:3:0:0:
115,59,95305,1,0,0:0:0:0:
46,118,95658,2,0,P|42:204|70:277,1,160,2|8,0:0|0:2,0:0:0:0:
307,356,97069,5,8,0:2:0:0:
355,292,97422,1,0,0:0:0:0:
375,214,97775,1,2,0:2:0:0:
356,136,98128,1,0,0:0:0:0:
311,69,98481,2,0,P|251:78|197:162,1,160,8|2,0:2|0:3,0:0:0:0:
224,380,99893,5,2,0:1:0:0:
146,356,100246,1,0,0:0:0:0:
85,303,100599,1,2,0:0:0:0:
56,228,100952,1,0,0:0:0:0:
55,148,101305,2,0,P|109:121|201:160,1,160,2|2,0:1|0:3,0:0:0:0:
146,356,102717,5,8,0:1:0:0:
189,279,103069,1,0,0:0:0:0:
274,256,103422,1,2,0:0:0:0:
355,292,103775,1,0,0:0:0:0:
305,364,104128,2,8,P|267:380|220:382,1,80,2|0,0:3|0:0,0:1:0:0:
192,269,104834,2,0,P|231:265|268:250,1,80,8|0,0:3|0:0,0:0:0:0:
349,131,105540,5,8,0:3:0:0:
260,128,105893,1,0,0:0:0:0:
181,88,106246,1,2,0:0:0:0:
142,166,106599,1,0,0:0:0:0:
78,227,106952,2,0,P|57:187|56:148,1,80,8|0,0:3|0:0,0:0:0:0:
160,10,107658,2,0,L|182:94,1,80,8|0,0:3|0:0,0:0:0:0:
349,131,108364,6,0,P|336:85|312:54,1,80,2|0,0:3|0:0,0:0:0:0:
262,127,109069,1,2,0:0:0:0:
248,213,109422,1,0,0:0:0:0:
282,294,109775,1,2,0:0:0:0:
352,346,110128,2,0,P|400:330|437:320,2,80,2|8|2,0:3|0:3|0:3,0:0:0:0:
379,217,111187,6,0,P|453:200|510:256,2,160,8|2|8,0:2|0:0|0:1,0:0:0:0:
328,289,112952,1,0,0:0:0:0:
256,343,113305,1,2,0:0:0:0:
184,289,113658,1,8,0:1:0:0:
134,217,114011,6,0,P|60:200|3:256,1,160,8|2,0:2|0:3,0:0:0:0:
82,285,115069,1,0,0:0:0:0:
147,215,115422,2,0,B|173:170|164:135|158:102|187:56,1,160,8|2,0:3|0:0,0:0:0:0:
256,127,116481,1,2,0:3:0:0:
327,61,116834,6,0,B|353:102|347:135|338:170|365:215,1,160,2|2,0:3|0:0,0:0:0:0:
430,285,117893,1,0,0:0:0:0:
508,253,118246,2,0,P|452:200|378:217,1,160,8|8,0:3|0:1,0:0:0:0:
171,355,119658,5,8,0:2:0:0:
219,281,120011,1,0,0:0:0:0:
234,194,120364,1,2,0:0:0:0:
213,108,120717,1,0,0:0:0:0:
153,44,121069,2,0,P|93:82|87:167,1,160,8|2,0:2|0:3,0:0:0:0:
341,355,122481,5,2,0:1:0:0:
293,281,122834,1,0,0:0:0:0:
278,194,123187,1,2,0:0:0:0:
299,108,123540,1,0,0:0:0:0:
359,44,123893,2,0,P|419:82|425:167,1,160,2|2,0:1|0:3,0:0:0:0:
257,348,125305,5,8,0:1:0:0:
205,276,125658,1,0,0:0:0:0:
257,205,126011,1,2,0:0:0:0:
309,277,126364,1,0,0:0:0:0:
204,275,126717,2,0,P|165:268|127:255,1,80,8|0,0:3|0:0,0:0:0:0:
309,277,127422,2,0,P|348:269|386:256,1,80,2|0,0:3|0:0,0:0:0:0:
256,192,128128,5,8,0:3:0:0:
205,117,128481,1,0,0:0:0:0:
256,43,128834,1,2,0:0:0:0:
307,117,129187,1,0,0:0:0:0:
204,116,129540,2,0,P|165:105|126:103,1,80,8|0,0:3|0:0,0:0:0:0:
307,117,130246,2,0,P|346:112|384:98,1,80,8|0,0:3|0:0,0:0:0:0:
256,192,130952,6,0,B|291:285|223:268|262:370,2,160,2|2|2,0:3|0:0|0:0,0:0:0:0:
278,106,132717,1,2,0:3:0:0:
173,211,133069,1,8,0:3:0:0:
308,259,133422,1,2,0:3:0:0:
411,163,133775,5,2,0:1:0:0:
278,106,134128,2,0,P|266:148|259:189,2,80,0|2|0,0:0|0:0|0:0,0:0:0:0:
355,64,135187,2,0,P|440:70|480:158,1,160,8|2,0:1|0:0,0:0:0:0:
469,214,136246,1,8,0:1:0:0:
400,269,136599,6,0,P|359:262|311:243,1,80,2|0,0:1|0:0,0:0:0:0:
123,233,137305,2,0,P|164:226|212:207,1,80,2|0,0:3|0:0,0:0:0:0:
237,33,138011,2,0,P|282:96|278:175,1,160,8|0,0:3|0:0,0:0:0:0:
236,276,139069,1,2,0:3:0:0:
135,259,139422,6,0,P|89:195|93:116,1,160,2|2,0:3|0:0,0:0:0:0:
144,35,140481,1,0,0:0:0:0:
195,162,140834,2,0,P|227:90|297:54,1,160,2|2,0:1|0:0,0:0:0:0:
384,59,141893,1,0,0:0:0:0:
427,213,142246,5,8,0:1:0:0:
440,126,142599,1,2,0:0:0:0:
345,246,142952,1,0,3:0:0:0:
358,333,143305,1,0,0:0:0:0:
491,274,143658,1,2,0:2:0:0:
444,348,144011,1,0,0:0:0:0:
358,333,144364,2,0,P|301:339|259:345,1,80,2|0,0:0|0:0,0:0:0:0:
214,173,145069,6,0,P|259:182|296:188,1,80,2|0,0:0|0:0,0:0:0:0:
337,111,145775,1,2,0:0:0:0:
271,52,146128,1,0,0:0:0:0:
195,95,146525,6,0,P|205:137|214:174,1,80,2|0,0:0|0:0,0:0:0:0:
296,332,147366,6,0,P|305:270|310:235,1,80,2|2,0:0|0:0,0:0:0:0:
256,192,148866,12,4,154866,0:1:0:0:
