osu file format v14

[General]
AudioFilename: audio.mp3
AudioLeadIn: 0
PreviewTime: 137118
Countdown: 1
SampleSet: Soft
StackLeniency: 0.7
Mode: 3
LetterboxInBreaks: 0
SpecialStyle: 0
WidescreenStoryboard: 0

[Editor]
DistanceSpacing: 0.8
BeatDivisor: 4
GridSize: 32
TimelineZoom: 2.899999

[Metadata]
Title:Credens Justitiam 1.15x
TitleUnicode:Credens Justitiam 1.15x
Artist:Yuki Kajiura
ArtistUnicode:Yuki Kajiura
Creator:KenZ
Version:Mami Rider
Source:
Tags:
BeatmapID:1364783
BeatmapSetID:643865

[Difficulty]
HPDrainRate:8
CircleSize:7
OverallDifficulty:2
ApproachRate:5
SliderMultiplier:1.4
SliderTickRate:1

[Events]
//Background and Video events
0,0,"3947241-konachan-com-103461-blonde_hair-dress-gun-mahou_shoujo_madoka_magica-nakbe-tomoe_mami-weapon-yellow_eyes.jpg",0,0
//Break Periods
//Storyboard Layer 0 (Background)
//Storyboard Layer 1 (Fail)
//Storyboard Layer 2 (Pass)
//Storyboard Layer 3 (Foreground)
//Storyboard Sound Samples

[TimingPoints]
720,383.141762452107,4,2,0,0,1,0

[HitObjects]
36,192,720,128,0,815:0:0:0:0:
109,192,720,128,0,815:0:0:0:0:
256,192,815,128,0,911:0:0:0:0:
475,192,911,128,0,1007:0:0:0:0:
256,192,1007,128,0,1103:0:0:0:0:
36,192,1103,128,0,1198:0:0:0:0:
256,192,1198,128,0,1294:0:0:0:0:
475,192,1294,128,0,1390:0:0:0:0:
256,192,1390,128,0,1486:0:0:0:0:
109,192,1486,128,0,1582:0:0:0:0:
182,192,1582,128,0,1677:0:0:0:0:
329,192,1677,128,0,1773:0:0:0:0:
402,192,1773,128,0,1869:0:0:0:0:
329,192,1869,128,0,1965:0:0:0:0:
182,192,1965,128,0,2060:0:0:0:0:
109,192,2060,128,0,2156:0:0:0:0:
182,192,2156,128,0,2252:0:0:0:0:
329,192,2252,128,0,2348:0:0:0:0:
256,192,2252,128,0,2348:0:0:0:0:
475,192,2348,128,0,2444:0:0:0:0:
182,192,2444,128,0,2539:0:0:0:0:
36,192,2539,128,0,2635:0:0:0:0:
402,192,2635,128,0,2731:0:0:0:0:
329,192,2731,128,0,2827:0:0:0:0:
109,192,2827,128,0,2923:0:0:0:0:
182,192,2923,128,0,3018:0:0:0:0:
256,192,3018,128,0,3114:0:0:0:0:
402,192,3114,128,0,3210:0:0:0:0:
182,192,3210,128,0,3306:0:0:0:0:
329,192,3306,128,0,3401:0:0:0:0:
109,192,3401,128,0,3497:0:0:0:0:
256,192,3497,128,0,3593:0:0:0:0:
402,192,3593,128,0,3689:0:0:0:0:
182,192,3689,128,0,3785:0:0:0:0:
329,192,3785,128,0,3976:0:0:0:0:
36,192,3785,128,0,3880:0:0:0:0:
475,192,3880,128,0,4072:0:0:0:0:
256,192,3976,128,0,4168:0:0:0:0:
36,192,4072,128,0,4264:0:0:0:0:
109,192,4168,128,0,4359:0:0:0:0:
475,192,4264,128,0,4455:0:0:0:0:
329,192,4359,128,0,4551:0:0:0:0:
256,192,4455,128,0,4647:0:0:0:0:
36,192,4551,128,0,4742:0:0:0:0:
475,192,4647,128,0,4838:0:0:0:0:
182,192,4742,128,0,4934:0:0:0:0:
329,192,4838,128,0,5030:0:0:0:0:
36,192,4934,128,0,5126:0:0:0:0:
402,192,5030,128,0,5221:0:0:0:0:
256,192,5126,128,0,5317:0:0:0:0:
109,192,5221,128,0,5413:0:0:0:0:
329,192,5317,128,0,5413:0:0:0:0:
182,192,5317,128,0,5413:0:0:0:0:
475,192,5413,128,0,5509:0:0:0:0:
256,192,5509,128,0,5605:0:0:0:0:
402,192,5605,128,0,5700:0:0:0:0:
182,192,5700,128,0,5796:0:0:0:0:
109,192,5796,128,0,5892:0:0:0:0:
36,192,5892,128,0,5988:0:0:0:0:
256,192,5988,128,0,6083:0:0:0:0:
182,192,6083,128,0,6179:0:0:0:0:
36,192,6179,128,0,6275:0:0:0:0:
256,192,6275,128,0,6371:0:0:0:0:
109,192,6371,128,0,6467:0:0:0:0:
329,192,6467,128,0,6562:0:0:0:0:
402,192,6562,128,0,6658:0:0:0:0:
475,192,6658,128,0,6754:0:0:0:0:
256,192,6754,128,0,6850:0:0:0:0:
109,192,6850,128,0,7041:0:0:0:0:
402,192,6850,128,0,6946:0:0:0:0:
182,192,6946,128,0,7137:0:0:0:0:
329,192,7041,128,0,7233:0:0:0:0:
402,192,7137,128,0,7329:0:0:0:0:
182,192,7233,128,0,7424:0:0:0:0:
109,192,7329,128,0,7520:0:0:0:0:
329,192,7424,128,0,7616:0:0:0:0:
402,192,7520,128,0,7712:0:0:0:0:
36,192,7616,128,0,7808:0:0:0:0:
256,192,7712,128,0,7903:0:0:0:0:
475,192,7808,128,0,7999:0:0:0:0:
109,192,7903,128,0,8095:0:0:0:0:
402,192,7999,128,0,8191:0:0:0:0:
182,192,8095,128,0,8287:0:0:0:0:
329,192,8191,128,0,8382:0:0:0:0:
256,192,8287,128,0,8478:0:0:0:0:
109,192,8382,128,0,8478:0:0:0:0:
36,192,8382,128,0,8478:0:0:0:0:
402,192,8478,128,0,8574:0:0:0:0:
182,192,8574,128,0,8670:0:0:0:0:
329,192,8670,128,0,8765:0:0:0:0:
109,192,8765,128,0,8861:0:0:0:0:
402,192,8861,128,0,8957:0:0:0:0:
182,192,8957,128,0,9053:0:0:0:0:
329,192,9053,128,0,9149:0:0:0:0:
256,192,9149,128,0,9244:0:0:0:0:
182,192,9244,128,0,9340:0:0:0:0:
402,192,9340,128,0,9436:0:0:0:0:
109,192,9436,128,0,9532:0:0:0:0:
329,192,9532,128,0,9628:0:0:0:0:
182,192,9628,128,0,9723:0:0:0:0:
402,192,9723,128,0,9819:0:0:0:0:
109,192,9819,128,0,9915:0:0:0:0:
256,192,9915,128,0,10681:0:0:0:0:
36,192,9915,1,0,0:0:0:0:
475,192,9915,1,0,0:0:0:0:
402,192,10011,1,0,0:0:0:0:
109,192,10106,1,0,0:0:0:0:
329,192,10202,1,0,0:0:0:0:
475,192,10298,1,0,0:0:0:0:
182,192,10298,1,0,0:0:0:0:
109,192,10394,1,0,0:0:0:0:
402,192,10490,1,0,0:0:0:0:
182,192,10585,1,0,0:0:0:0:
109,192,10681,128,0,11447:0:0:0:0:
36,192,10681,1,0,0:0:0:0:
329,192,10681,1,0,0:0:0:0:
402,192,10777,1,0,0:0:0:0:
256,192,10873,1,0,0:0:0:0:
329,192,10969,1,0,0:0:0:0:
36,192,11064,1,0,0:0:0:0:
475,192,11064,1,0,0:0:0:0:
402,192,11160,1,0,0:0:0:0:
256,192,11256,1,0,0:0:0:0:
402,192,11352,1,0,0:0:0:0:
329,192,11447,128,0,11831:0:0:0:0:
36,192,11447,1,0,0:0:0:0:
182,192,11447,1,0,0:0:0:0:
256,192,11543,1,0,0:0:0:0:
109,192,11639,1,0,0:0:0:0:
256,192,11735,1,0,0:0:0:0:
182,192,11831,128,0,12214:0:0:0:0:
36,192,11831,1,0,0:0:0:0:
475,192,11831,1,0,0:0:0:0:
402,192,11926,1,0,0:0:0:0:
109,192,12022,1,0,0:0:0:0:
329,192,12118,1,0,0:0:0:0:
402,192,12214,128,0,12980:0:0:0:0:
36,192,12214,1,0,0:0:0:0:
256,192,12214,1,0,0:0:0:0:
109,192,12310,1,0,0:0:0:0:
256,192,12405,1,0,0:0:0:0:
182,192,12501,1,0,0:0:0:0:
475,192,12597,1,0,0:0:0:0:
329,192,12597,1,0,0:0:0:0:
109,192,12693,1,0,0:0:0:0:
256,192,12788,1,0,0:0:0:0:
182,192,12884,1,0,0:0:0:0:
109,192,12980,1,0,0:0:0:0:
329,192,12980,1,0,0:0:0:0:
36,192,12980,1,0,0:0:0:0:
256,192,13076,1,0,0:0:0:0:
402,192,13172,1,0,0:0:0:0:
109,192,13172,1,0,0:0:0:0:
329,192,13267,1,0,0:0:0:0:
475,192,13363,1,0,0:0:0:0:
182,192,13363,128,0,13555:0:0:0:0:
36,192,13363,1,0,0:0:0:0:
256,192,13459,1,0,0:0:0:0:
109,192,13555,128,0,13746:0:0:0:0:
402,192,13555,1,0,0:0:0:0:
329,192,13651,1,0,0:0:0:0:
36,192,13746,128,0,14129:0:0:0:0:
256,192,13746,1,0,0:0:0:0:
475,192,13746,1,0,0:0:0:0:
402,192,13842,1,0,0:0:0:0:
329,192,13938,1,0,0:0:0:0:
402,192,14034,1,0,0:0:0:0:
256,192,14129,1,0,0:0:0:0:
182,192,14129,128,0,14513:0:0:0:0:
475,192,14129,1,0,0:0:0:0:
109,192,14225,1,0,0:0:0:0:
329,192,14321,1,0,0:0:0:0:
256,192,14417,1,0,0:0:0:0:
329,192,14513,128,0,14896:0:0:0:0:
36,192,14513,1,0,0:0:0:0:
475,192,14513,1,0,0:0:0:0:
182,192,14608,1,0,0:0:0:0:
109,192,14704,1,0,0:0:0:0:
256,192,14800,1,0,0:0:0:0:
402,192,14896,128,0,15087:0:0:0:0:
182,192,14896,1,0,0:0:0:0:
36,192,14896,1,0,0:0:0:0:
109,192,14992,1,0,0:0:0:0:
475,192,15087,128,0,15279:0:0:0:0:
256,192,15087,1,0,0:0:0:0:
182,192,15183,1,0,0:0:0:0:
402,192,15279,128,0,15662:0:0:0:0:
36,192,15279,1,0,0:0:0:0:
256,192,15279,1,0,0:0:0:0:
109,192,15375,1,0,0:0:0:0:
329,192,15470,1,0,0:0:0:0:
182,192,15566,1,0,0:0:0:0:
329,192,15662,128,0,16045:0:0:0:0:
36,192,15662,1,0,0:0:0:0:
475,192,15662,1,0,0:0:0:0:
256,192,15758,1,0,0:0:0:0:
109,192,15854,1,0,0:0:0:0:
182,192,15949,1,0,0:0:0:0:
109,192,16045,128,0,16428:0:0:0:0:
256,192,16045,1,0,0:0:0:0:
475,192,16045,1,0,0:0:0:0:
402,192,16141,1,0,0:0:0:0:
182,192,16237,1,0,0:0:0:0:
329,192,16333,1,0,0:0:0:0:
402,192,16428,128,0,16811:0:0:0:0:
256,192,16428,1,0,0:0:0:0:
36,192,16428,1,0,0:0:0:0:
182,192,16524,1,0,0:0:0:0:
109,192,16620,1,0,0:0:0:0:
182,192,16716,1,0,0:0:0:0:
256,192,16811,128,0,18727:0:0:0:0:
475,192,16811,1,0,0:0:0:0:
36,192,16811,128,0,16859:0:0:0:0:
402,192,16907,1,0,0:0:0:0:
329,192,17003,1,0,0:0:0:0:
36,192,17003,128,0,17051:0:0:0:0:
402,192,17099,1,0,0:0:0:0:
109,192,17195,1,0,0:0:0:0:
36,192,17195,1,0,0:0:0:0:
475,192,17195,128,0,17242:0:0:0:0:
182,192,17290,1,0,0:0:0:0:
329,192,17386,1,0,0:0:0:0:
475,192,17386,128,0,17434:0:0:0:0:
182,192,17482,1,0,0:0:0:0:
475,192,17578,1,0,0:0:0:0:
36,192,17578,1,0,0:0:0:0:
109,192,17578,128,0,17626:0:0:0:0:
402,192,17674,1,0,0:0:0:0:
329,192,17769,1,0,0:0:0:0:
109,192,17769,128,0,17817:0:0:0:0:
475,192,17865,1,0,0:0:0:0:
109,192,17961,1,0,0:0:0:0:
182,192,17961,1,0,0:0:0:0:
402,192,17961,128,0,18009:0:0:0:0:
36,192,18057,1,0,0:0:0:0:
329,192,18152,1,0,0:0:0:0:
402,192,18152,128,0,18200:0:0:0:0:
109,192,18248,1,0,0:0:0:0:
402,192,18344,1,0,0:0:0:0:
329,192,18344,1,0,0:0:0:0:
182,192,18344,128,0,18392:0:0:0:0:
475,192,18440,1,0,0:0:0:0:
182,192,18536,1,0,0:0:0:0:
36,192,18536,1,0,0:0:0:0:
329,192,18536,128,0,18583:0:0:0:0:
109,192,18631,1,0,0:0:0:0:
329,192,18727,1,0,0:0:0:0:
402,192,18727,1,0,0:0:0:0:
182,192,18727,128,0,18775:0:0:0:0:
182,192,18919,1,0,0:0:0:0:
329,192,18919,1,0,0:0:0:0:
256,192,18919,1,0,0:0:0:0:
36,192,19110,128,0,19398:0:0:0:0:
256,192,19110,1,0,0:0:0:0:
475,192,19110,1,0,0:0:0:0:
402,192,19206,1,0,0:0:0:0:
109,192,19206,1,0,0:0:0:0:
256,192,19302,128,0,19589:0:0:0:0:
329,192,19398,1,0,0:0:0:0:
182,192,19398,1,0,0:0:0:0:
36,192,19493,128,0,19781:0:0:0:0:
109,192,19589,1,0,0:0:0:0:
402,192,19589,1,0,0:0:0:0:
256,192,19685,128,0,19877:0:0:0:0:
182,192,19781,1,0,0:0:0:0:
329,192,19781,1,0,0:0:0:0:
402,192,19877,128,0,20164:0:0:0:0:
36,192,19877,1,0,0:0:0:0:
182,192,19972,1,0,0:0:0:0:
329,192,19972,1,0,0:0:0:0:
109,192,20068,128,0,20356:0:0:0:0:
475,192,20164,1,0,0:0:0:0:
256,192,20164,1,0,0:0:0:0:
402,192,20260,128,0,20547:0:0:0:0:
329,192,20356,1,0,0:0:0:0:
182,192,20356,1,0,0:0:0:0:
109,192,20451,128,0,20643:0:0:0:0:
256,192,20547,1,0,0:0:0:0:
36,192,20547,1,0,0:0:0:0:
475,192,20643,128,0,20930:0:0:0:0:
402,192,20643,1,0,0:0:0:0:
182,192,20739,1,0,0:0:0:0:
329,192,20739,1,0,0:0:0:0:
256,192,20834,128,0,21122:0:0:0:0:
109,192,20930,1,0,0:0:0:0:
402,192,20930,1,0,0:0:0:0:
475,192,21026,128,0,21313:0:0:0:0:
329,192,21122,1,0,0:0:0:0:
182,192,21122,1,0,0:0:0:0:
256,192,21218,128,0,21409:0:0:0:0:
36,192,21313,1,0,0:0:0:0:
402,192,21313,1,0,0:0:0:0:
475,192,21409,1,0,0:0:0:0:
109,192,21409,128,0,21888:0:0:0:0:
182,192,21505,1,0,0:0:0:0:
329,192,21505,1,0,0:0:0:0:
402,192,21601,128,0,22175:0:0:0:0:
256,192,21601,1,0,0:0:0:0:
36,192,21697,1,0,0:0:0:0:
329,192,21697,1,0,0:0:0:0:
256,192,21792,128,0,22175:0:0:0:0:
182,192,21888,1,0,0:0:0:0:
475,192,21888,1,0,0:0:0:0:
109,192,21984,128,0,22175:0:0:0:0:
329,192,22080,1,0,0:0:0:0:
36,192,22080,1,0,0:0:0:0:
182,192,22175,128,0,22367:0:0:0:0:
475,192,22175,1,0,0:0:0:0:
329,192,22271,128,0,22463:0:0:0:0:
475,192,22367,128,0,22559:0:0:0:0:
109,192,22367,1,0,0:0:0:0:
182,192,22463,128,0,22654:0:0:0:0:
329,192,22559,128,0,22750:0:0:0:0:
36,192,22559,1,0,0:0:0:0:
256,192,22559,1,0,0:0:0:0:
475,192,22654,128,0,22846:0:0:0:0:
109,192,22750,128,0,22942:0:0:0:0:
182,192,22750,1,0,0:0:0:0:
256,192,22846,128,0,23038:0:0:0:0:
402,192,22942,128,0,23133:0:0:0:0:
329,192,22942,1,0,0:0:0:0:
36,192,22942,1,0,0:0:0:0:
109,192,23038,128,0,23229:0:0:0:0:
256,192,23133,128,0,23325:0:0:0:0:
182,192,23133,1,0,0:0:0:0:
402,192,23229,128,0,23421:0:0:0:0:
36,192,23325,128,0,23516:0:0:0:0:
329,192,23325,1,0,0:0:0:0:
109,192,23325,1,0,0:0:0:0:
182,192,23421,128,0,23612:0:0:0:0:
329,192,23516,128,0,23708:0:0:0:0:
402,192,23516,1,0,0:0:0:0:
475,192,23612,128,0,23804:0:0:0:0:
36,192,23708,128,0,23900:0:0:0:0:
256,192,23708,1,0,0:0:0:0:
109,192,23804,128,0,23995:0:0:0:0:
182,192,23900,128,0,24091:0:0:0:0:
402,192,23900,1,0,0:0:0:0:
36,192,23995,128,0,24187:0:0:0:0:
109,192,24091,128,0,24283:0:0:0:0:
329,192,24091,1,0,0:0:0:0:
475,192,24091,1,0,0:0:0:0:
182,192,24187,128,0,24379:0:0:0:0:
36,192,24283,128,0,24379:0:0:0:0:
402,192,24283,1,0,0:0:0:0:
109,192,24379,128,0,24474:0:0:0:0:
182,192,24474,128,0,24570:0:0:0:0:
256,192,24474,1,0,0:0:0:0:
475,192,24474,1,0,0:0:0:0:
329,192,24570,1,0,0:0:0:0:
109,192,24666,1,0,0:0:0:0:
402,192,24666,1,0,0:0:0:0:
182,192,24762,1,0,0:0:0:0:
256,192,24857,1,0,0:0:0:0:
475,192,24857,1,0,0:0:0:0:
36,192,24857,128,0,25049:0:0:0:0:
402,192,24953,1,0,0:0:0:0:
256,192,25049,128,0,25241:0:0:0:0:
109,192,25049,1,0,0:0:0:0:
329,192,25145,1,0,0:0:0:0:
36,192,25241,1,0,0:0:0:0:
475,192,25241,128,0,25336:0:0:0:0:
182,192,25241,128,0,25336:0:0:0:0:
329,192,25336,1,0,0:0:0:0:
109,192,25432,128,0,25528:0:0:0:0:
402,192,25432,128,0,25528:0:0:0:0:
256,192,25528,1,0,0:0:0:0:
36,192,25624,128,0,25719:0:0:0:0:
329,192,25624,128,0,25719:0:0:0:0:
182,192,25719,1,0,0:0:0:0:
109,192,25815,128,0,25911:0:0:0:0:
402,192,25815,128,0,25911:0:0:0:0:
256,192,25911,1,0,0:0:0:0:
182,192,26007,128,0,26198:0:0:0:0:
475,192,26007,128,0,26198:0:0:0:0:
329,192,26103,1,0,0:0:0:0:
402,192,26198,128,0,26390:0:0:0:0:
109,192,26198,128,0,26390:0:0:0:0:
256,192,26294,1,0,0:0:0:0:
36,192,26390,128,0,26582:0:0:0:0:
329,192,26390,128,0,26582:0:0:0:0:
182,192,26486,1,0,0:0:0:0:
109,192,26582,128,0,26773:0:0:0:0:
402,192,26582,128,0,26773:0:0:0:0:
256,192,26677,1,0,0:0:0:0:
182,192,26773,128,0,26869:0:0:0:0:
475,192,26773,128,0,26869:0:0:0:0:
329,192,26869,1,0,0:0:0:0:
109,192,26965,128,0,27060:0:0:0:0:
402,192,26965,128,0,27060:0:0:0:0:
256,192,27060,1,0,0:0:0:0:
36,192,27156,128,0,27252:0:0:0:0:
329,192,27156,128,0,27252:0:0:0:0:
182,192,27252,1,0,0:0:0:0:
109,192,27348,128,0,27444:0:0:0:0:
402,192,27348,128,0,27444:0:0:0:0:
256,192,27444,1,0,0:0:0:0:
182,192,27539,128,0,27635:0:0:0:0:
475,192,27539,128,0,27635:0:0:0:0:
329,192,27635,1,0,0:0:0:0:
109,192,27731,128,0,27827:0:0:0:0:
402,192,27731,128,0,27827:0:0:0:0:
256,192,27827,1,0,0:0:0:0:
36,192,27923,128,0,28018:0:0:0:0:
329,192,27923,128,0,28018:0:0:0:0:
182,192,28018,1,0,0:0:0:0:
402,192,28018,128,0,28114:0:0:0:0:
475,192,28114,128,0,28210:0:0:0:0:
109,192,28114,128,0,28210:0:0:0:0:
182,192,28210,128,0,28306:0:0:0:0:
256,192,28306,128,0,28785:0:0:0:0:
36,192,28306,128,0,28497:0:0:0:0:
402,192,28306,128,0,28401:0:0:0:0:
329,192,28401,128,0,28497:0:0:0:0:
475,192,28497,128,0,28593:0:0:0:0:
182,192,28497,128,0,28689:0:0:0:0:
402,192,28593,128,0,28689:0:0:0:0:
109,192,28689,128,0,29168:0:0:0:0:
329,192,28689,128,0,28785:0:0:0:0:
36,192,28689,128,0,28880:0:0:0:0:
182,192,28785,128,0,28880:0:0:0:0:
256,192,28880,128,0,28976:0:0:0:0:
475,192,28880,128,0,29072:0:0:0:0:
329,192,28976,128,0,29072:0:0:0:0:
402,192,29072,128,0,29551:0:0:0:0:
182,192,29072,128,0,29264:0:0:0:0:
256,192,29072,128,0,29168:0:0:0:0:
36,192,29168,128,0,29264:0:0:0:0:
109,192,29264,128,0,29359:0:0:0:0:
329,192,29264,128,0,29455:0:0:0:0:
256,192,29359,128,0,29455:0:0:0:0:
182,192,29455,128,0,30988:0:0:0:0:
36,192,29455,128,0,29551:0:0:0:0:
475,192,29455,128,0,29647:0:0:0:0:
109,192,29551,128,0,29647:0:0:0:0:
256,192,29647,128,0,29838:0:0:0:0:
402,192,29647,128,0,29742:0:0:0:0:
329,192,29742,128,0,29838:0:0:0:0:
109,192,29838,128,0,30030:0:0:0:0:
475,192,29838,128,0,29934:0:0:0:0:
329,192,29934,128,0,30030:0:0:0:0:
402,192,30030,128,0,30221:0:0:0:0:
256,192,30030,128,0,30126:0:0:0:0:
36,192,30126,128,0,30221:0:0:0:0:
475,192,30221,128,0,30413:0:0:0:0:
109,192,30221,128,0,30317:0:0:0:0:
329,192,30317,128,0,30413:0:0:0:0:
109,192,30413,128,0,30605:0:0:0:0:
256,192,30413,128,0,30509:0:0:0:0:
402,192,30509,128,0,30605:0:0:0:0:
329,192,30605,128,0,31371:0:0:0:0:
475,192,30605,128,0,30796:0:0:0:0:
36,192,30605,128,0,30700:0:0:0:0:
256,192,30700,128,0,30796:0:0:0:0:
109,192,30796,128,0,30988:0:0:0:0:
402,192,30796,128,0,30892:0:0:0:0:
475,192,30892,128,0,30988:0:0:0:0:
256,192,30988,128,0,31179:0:0:0:0:
36,192,30988,128,0,31083:0:0:0:0:
182,192,31083,128,0,31179:0:0:0:0:
402,192,31179,128,0,31371:0:0:0:0:
109,192,31179,128,0,31275:0:0:0:0:
256,192,31275,128,0,31371:0:0:0:0:
182,192,31371,128,0,32041:0:0:0:0:
475,192,31371,1,0,0:0:0:0:
109,192,31467,128,0,32137:0:0:0:0:
329,192,31467,1,0,0:0:0:0:
36,192,31562,128,0,32233:0:0:0:0:
256,192,31562,1,0,0:0:0:0:
402,192,31658,1,0,0:0:0:0:
329,192,31754,1,0,0:0:0:0:
475,192,31850,1,0,0:0:0:0:
256,192,31946,1,0,0:0:0:0:
402,192,32041,1,0,0:0:0:0:
329,192,32137,128,0,32808:0:0:0:0:
475,192,32137,1,0,0:0:0:0:
256,192,32233,128,0,32903:0:0:0:0:
402,192,32233,1,0,0:0:0:0:
36,192,32329,1,0,0:0:0:0:
182,192,32329,128,0,32999:0:0:0:0:
109,192,32424,1,0,0:0:0:0:
402,192,32520,1,0,0:0:0:0:
475,192,32616,1,0,0:0:0:0:
109,192,32712,1,0,0:0:0:0:
36,192,32808,1,0,0:0:0:0:
475,192,32903,128,0,33765:0:0:0:0:
109,192,32903,1,0,0:0:0:0:
402,192,32999,128,0,33670:0:0:0:0:
256,192,32999,1,0,0:0:0:0:
329,192,33095,128,0,33574:0:0:0:0:
36,192,33095,1,0,0:0:0:0:
182,192,33191,1,0,0:0:0:0:
109,192,33287,1,0,0:0:0:0:
256,192,33382,1,0,0:0:0:0:
182,192,33478,1,0,0:0:0:0:
109,192,33574,1,0,0:0:0:0:
182,192,33670,128,0,34244:0:0:0:0:
36,192,33670,1,0,0:0:0:0:
256,192,33765,128,0,34340:0:0:0:0:
402,192,33765,1,0,0:0:0:0:
329,192,33861,128,0,34436:0:0:0:0:
109,192,33861,1,0,0:0:0:0:
402,192,33957,1,0,0:0:0:0:
36,192,34053,1,0,0:0:0:0:
475,192,34149,1,0,0:0:0:0:
402,192,34244,1,0,0:0:0:0:
36,192,34244,1,0,0:0:0:0:
109,192,34340,1,0,0:0:0:0:
182,192,34436,128,0,34723:0:0:0:0:
475,192,34436,1,0,0:0:0:0:
402,192,34436,128,0,34532:0:0:0:0:
36,192,34436,1,0,0:0:0:0:
256,192,34532,128,0,34628:0:0:0:0:
402,192,34628,128,0,34915:0:0:0:0:
475,192,34628,128,0,34723:0:0:0:0:
329,192,34723,128,0,34819:0:0:0:0:
109,192,34819,128,0,35106:0:0:0:0:
36,192,34819,128,0,34915:0:0:0:0:
182,192,34915,128,0,35011:0:0:0:0:
256,192,35011,128,0,35298:0:0:0:0:
402,192,35011,128,0,35106:0:0:0:0:
329,192,35106,128,0,35202:0:0:0:0:
475,192,35202,128,0,35490:0:0:0:0:
109,192,35202,128,0,35298:0:0:0:0:
182,192,35298,128,0,35394:0:0:0:0:
256,192,35394,128,0,35490:0:0:0:0:
36,192,35394,128,0,35681:0:0:0:0:
329,192,35490,128,0,35585:0:0:0:0:
182,192,35585,128,0,35873:0:0:0:0:
402,192,35585,128,0,35681:0:0:0:0:
256,192,35681,128,0,35777:0:0:0:0:
329,192,35777,128,0,36064:0:0:0:0:
475,192,35777,128,0,35873:0:0:0:0:
36,192,35873,128,0,35969:0:0:0:0:
109,192,35969,128,0,36256:0:0:0:0:
256,192,35969,128,0,36064:0:0:0:0:
182,192,36064,128,0,36160:0:0:0:0:
402,192,36160,128,0,36447:0:0:0:0:
329,192,36160,128,0,36256:0:0:0:0:
256,192,36256,128,0,36352:0:0:0:0:
36,192,36352,128,0,36447:0:0:0:0:
182,192,36352,128,0,36639:0:0:0:0:
109,192,36447,128,0,36543:0:0:0:0:
329,192,36543,128,0,36831:0:0:0:0:
475,192,36543,128,0,36639:0:0:0:0:
256,192,36639,128,0,36735:0:0:0:0:
109,192,36735,128,0,37022:0:0:0:0:
402,192,36735,128,0,36831:0:0:0:0:
182,192,36831,128,0,36926:0:0:0:0:
402,192,36926,128,0,37214:0:0:0:0:
256,192,36926,128,0,37022:0:0:0:0:
329,192,37022,128,0,37118:0:0:0:0:
182,192,37118,128,0,37405:0:0:0:0:
36,192,37118,128,0,37214:0:0:0:0:
256,192,37214,128,0,37310:0:0:0:0:
329,192,37310,128,0,37597:0:0:0:0:
475,192,37310,128,0,37405:0:0:0:0:
109,192,37405,128,0,37501:0:0:0:0:
256,192,37501,128,0,37597:0:0:0:0:
36,192,37501,128,0,37693:0:0:0:0:
182,192,37597,128,0,37693:0:0:0:0:
109,192,37693,128,0,37884:0:0:0:0:
329,192,37693,128,0,37788:0:0:0:0:
256,192,37788,128,0,37884:0:0:0:0:
182,192,37884,128,0,38076:0:0:0:0:
402,192,37884,128,0,37980:0:0:0:0:
329,192,37980,128,0,38076:0:0:0:0:
475,192,38076,128,0,38267:0:0:0:0:
256,192,38076,128,0,38172:0:0:0:0:
329,192,38172,128,0,38267:0:0:0:0:
402,192,38267,128,0,38459:0:0:0:0:
182,192,38267,128,0,38363:0:0:0:0:
256,192,38363,128,0,38459:0:0:0:0:
329,192,38459,128,0,38651:0:0:0:0:
109,192,38459,128,0,38555:0:0:0:0:
182,192,38555,128,0,38651:0:0:0:0:
36,192,38651,128,0,38842:0:0:0:0:
256,192,38651,128,0,38746:0:0:0:0:
182,192,38746,128,0,38842:0:0:0:0:
109,192,38842,128,0,39034:0:0:0:0:
329,192,38842,128,0,38938:0:0:0:0:
256,192,38938,128,0,39034:0:0:0:0:
182,192,39034,128,0,39417:0:0:0:0:
475,192,39034,128,0,39129:0:0:0:0:
402,192,39129,128,0,39225:0:0:0:0:
329,192,39225,128,0,39321:0:0:0:0:
475,192,39321,128,0,39417:0:0:0:0:
256,192,39417,128,0,39608:0:0:0:0:
36,192,39417,128,0,39513:0:0:0:0:
109,192,39513,128,0,39608:0:0:0:0:
329,192,39608,128,0,39800:0:0:0:0:
475,192,39608,128,0,39704:0:0:0:0:
182,192,39704,128,0,39800:0:0:0:0:
256,192,39800,128,0,40183:0:0:0:0:
402,192,39800,128,0,39896:0:0:0:0:
36,192,39896,128,0,39992:0:0:0:0:
329,192,39992,128,0,40087:0:0:0:0:
109,192,40087,128,0,40183:0:0:0:0:
182,192,40183,128,0,40566:0:0:0:0:
402,192,40183,128,0,40279:0:0:0:0:
256,192,40279,128,0,40375:0:0:0:0:
329,192,40375,128,0,40470:0:0:0:0:
109,192,40470,128,0,40566:0:0:0:0:
256,192,40566,128,0,40949:0:0:0:0:
475,192,40566,128,0,40662:0:0:0:0:
402,192,40662,128,0,40758:0:0:0:0:
109,192,40758,128,0,40854:0:0:0:0:
182,192,40854,128,0,40949:0:0:0:0:
329,192,40949,128,0,41333:0:0:0:0:
109,192,40949,128,0,41045:0:0:0:0:
475,192,41045,128,0,41141:0:0:0:0:
182,192,41141,128,0,41237:0:0:0:0:
402,192,41237,128,0,41333:0:0:0:0:
256,192,41333,128,0,42865:0:0:0:0:
475,192,41333,1,0,0:0:0:0:
36,192,41333,128,0,41380:0:0:0:0:
475,192,41524,1,0,0:0:0:0:
36,192,41524,128,0,41572:0:0:0:0:
109,192,41716,1,0,0:0:0:0:
475,192,41716,128,0,41764:0:0:0:0:
109,192,41907,1,0,0:0:0:0:
475,192,41907,128,0,41955:0:0:0:0:
402,192,42099,1,0,0:0:0:0:
109,192,42099,128,0,42147:0:0:0:0:
402,192,42290,1,0,0:0:0:0:
109,192,42290,128,0,42338:0:0:0:0:
182,192,42482,1,0,0:0:0:0:
402,192,42482,128,0,42530:0:0:0:0:
182,192,42674,1,0,0:0:0:0:
402,192,42674,128,0,42721:0:0:0:0:
329,192,42865,1,0,0:0:0:0:
109,192,42865,1,0,0:0:0:0:
182,192,42865,128,0,42913:0:0:0:0:
182,192,43057,1,0,0:0:0:0:
402,192,43057,1,0,0:0:0:0:
329,192,43057,128,0,43105:0:0:0:0:
256,192,43152,1,0,0:0:0:0:
329,192,43248,1,0,0:0:0:0:
109,192,43248,1,0,0:0:0:0:
182,192,43248,128,0,43296:0:0:0:0:
256,192,43344,1,0,0:0:0:0:
182,192,43440,1,0,0:0:0:0:
402,192,43440,1,0,0:0:0:0:
329,192,43440,128,0,43488:0:0:0:0:
256,192,43536,1,0,0:0:0:0:
475,192,43631,1,0,0:0:0:0:
109,192,43631,1,0,0:0:0:0:
36,192,43631,128,0,44398:0:0:0:0:
182,192,43727,128,0,44302:0:0:0:0:
402,192,43727,1,0,0:0:0:0:
329,192,43823,128,0,44206:0:0:0:0:
109,192,43823,1,0,0:0:0:0:
475,192,43919,128,0,44110:0:0:0:0:
256,192,43919,1,0,0:0:0:0:
402,192,44015,1,0,0:0:0:0:
109,192,44110,1,0,0:0:0:0:
402,192,44206,1,0,0:0:0:0:
256,192,44302,1,0,0:0:0:0:
402,192,44398,128,0,45164:0:0:0:0:
109,192,44398,1,0,0:0:0:0:
256,192,44493,128,0,45068:0:0:0:0:
475,192,44493,1,0,0:0:0:0:
109,192,44589,128,0,44972:0:0:0:0:
329,192,44589,1,0,0:0:0:0:
182,192,44685,1,0,0:0:0:0:
329,192,44781,1,0,0:0:0:0:
182,192,44877,1,0,0:0:0:0:
36,192,44972,1,0,0:0:0:0:
182,192,45068,1,0,0:0:0:0:
475,192,45164,1,0,0:0:0:0:
36,192,45164,128,0,45547:0:0:0:0:
109,192,45196,1,0,0:0:0:0:
182,192,45228,128,0,45483:0:0:0:0:
256,192,45260,1,0,0:0:0:0:
329,192,45292,128,0,45419:0:0:0:0:
256,192,45451,1,0,0:0:0:0:
109,192,45515,1,0,0:0:0:0:
475,192,45547,128,0,45930:0:0:0:0:
402,192,45579,1,0,0:0:0:0:
329,192,45611,128,0,45866:0:0:0:0:
256,192,45643,1,0,0:0:0:0:
182,192,45675,128,0,45803:0:0:0:0:
256,192,45834,1,0,0:0:0:0:
402,192,45898,1,0,0:0:0:0:
182,192,45930,128,0,46218:0:0:0:0:
109,192,45930,1,0,0:0:0:0:
256,192,46026,128,0,46122:0:0:0:0:
329,192,46122,128,0,46409:0:0:0:0:
36,192,46122,1,0,0:0:0:0:
475,192,46122,1,0,0:0:0:0:
256,192,46218,128,0,46313:0:0:0:0:
182,192,46313,128,0,46601:0:0:0:0:
109,192,46313,1,0,0:0:0:0:
402,192,46313,1,0,0:0:0:0:
256,192,46409,128,0,46505:0:0:0:0:
36,192,46505,1,0,0:0:0:0:
475,192,46505,1,0,0:0:0:0:
329,192,46505,128,0,46697:0:0:0:0:
256,192,46601,128,0,46697:0:0:0:0:
182,192,46697,1,0,0:0:0:0:
109,192,46697,1,0,0:0:0:0:
402,192,46697,1,0,0:0:0:0:
329,192,46792,1,0,0:0:0:0:
256,192,46888,1,0,0:0:0:0:
109,192,46888,1,0,0:0:0:0:
329,192,46984,1,0,0:0:0:0:
402,192,47080,1,0,0:0:0:0:
36,192,47080,1,0,0:0:0:0:
182,192,47080,128,0,47367:0:0:0:0:
256,192,47175,1,0,0:0:0:0:
109,192,47271,128,0,47559:0:0:0:0:
475,192,47271,1,0,0:0:0:0:
402,192,47271,1,0,0:0:0:0:
329,192,47367,1,0,0:0:0:0:
36,192,47463,128,0,47942:0:0:0:0:
256,192,47463,1,0,0:0:0:0:
475,192,47463,1,0,0:0:0:0:
402,192,47559,1,0,0:0:0:0:
329,192,47654,1,0,0:0:0:0:
182,192,47654,1,0,0:0:0:0:
402,192,47750,1,0,0:0:0:0:
109,192,47846,128,0,48229:0:0:0:0:
475,192,47846,1,0,0:0:0:0:
256,192,47846,1,0,0:0:0:0:
329,192,47942,1,0,0:0:0:0:
402,192,48038,1,0,0:0:0:0:
182,192,48038,1,0,0:0:0:0:
256,192,48133,1,0,0:0:0:0:
475,192,48229,128,0,48708:0:0:0:0:
329,192,48229,1,0,0:0:0:0:
36,192,48229,1,0,0:0:0:0:
256,192,48325,1,0,0:0:0:0:
182,192,48421,1,0,0:0:0:0:
329,192,48421,1,0,0:0:0:0:
109,192,48516,1,0,0:0:0:0:
402,192,48612,128,0,48900:0:0:0:0:
36,192,48612,1,0,0:0:0:0:
256,192,48612,1,0,0:0:0:0:
182,192,48708,1,0,0:0:0:0:
329,192,48804,128,0,49091:0:0:0:0:
109,192,48804,1,0,0:0:0:0:
36,192,48804,1,0,0:0:0:0:
182,192,48900,1,0,0:0:0:0:
402,192,48995,128,0,49474:0:0:0:0:
256,192,48995,1,0,0:0:0:0:
36,192,48995,1,0,0:0:0:0:
109,192,49091,1,0,0:0:0:0:
182,192,49187,1,0,0:0:0:0:
475,192,49187,1,0,0:0:0:0:
329,192,49283,1,0,0:0:0:0:
256,192,49379,128,0,49857:0:0:0:0:
36,192,49379,1,0,0:0:0:0:
109,192,49379,1,0,0:0:0:0:
182,192,49474,1,0,0:0:0:0:
329,192,49570,1,0,0:0:0:0:
475,192,49570,1,0,0:0:0:0:
182,192,49666,1,0,0:0:0:0:
109,192,49762,128,0,50241:0:0:0:0:
36,192,49762,1,0,0:0:0:0:
402,192,49762,1,0,0:0:0:0:
329,192,49857,1,0,0:0:0:0:
182,192,49953,1,0,0:0:0:0:
402,192,49953,1,0,0:0:0:0:
256,192,50049,1,0,0:0:0:0:
329,192,50145,128,0,50624:0:0:0:0:
475,192,50145,1,0,0:0:0:0:
36,192,50145,1,0,0:0:0:0:
182,192,50241,1,0,0:0:0:0:
256,192,50336,1,0,0:0:0:0:
402,192,50336,1,0,0:0:0:0:
109,192,50432,1,0,0:0:0:0:
182,192,50528,128,0,52060:0:0:0:0:
475,192,50528,128,0,50624:0:0:0:0:
36,192,50528,128,0,50624:0:0:0:0:
256,192,50624,128,0,50719:0:0:0:0:
402,192,50719,128,0,50815:0:0:0:0:
109,192,50719,128,0,50815:0:0:0:0:
329,192,50815,128,0,50911:0:0:0:0:
256,192,50911,128,0,51007:0:0:0:0:
475,192,50911,128,0,51007:0:0:0:0:
329,192,51007,128,0,51103:0:0:0:0:
36,192,51103,128,0,51198:0:0:0:0:
402,192,51103,128,0,51198:0:0:0:0:
109,192,51198,128,0,51294:0:0:0:0:
256,192,51294,128,0,51390:0:0:0:0:
475,192,51294,128,0,51390:0:0:0:0:
402,192,51390,128,0,51486:0:0:0:0:
109,192,51390,128,0,51486:0:0:0:0:
329,192,51486,128,0,51582:0:0:0:0:
36,192,51486,128,0,51582:0:0:0:0:
256,192,51582,128,0,51677:0:0:0:0:
475,192,51582,128,0,51677:0:0:0:0:
402,192,51677,128,0,51773:0:0:0:0:
109,192,51677,128,0,51773:0:0:0:0:
329,192,51773,128,0,51869:0:0:0:0:
36,192,51773,128,0,51869:0:0:0:0:
402,192,51869,128,0,51965:0:0:0:0:
109,192,51869,128,0,51965:0:0:0:0:
475,192,51965,128,0,52060:0:0:0:0:
256,192,51965,128,0,52060:0:0:0:0:
329,192,52060,128,0,52156:0:0:0:0:
36,192,52060,128,0,52156:0:0:0:0:
109,192,52156,128,0,52252:0:0:0:0:
256,192,52156,128,0,52252:0:0:0:0:
182,192,52252,128,0,52348:0:0:0:0:
402,192,52252,128,0,52348:0:0:0:0:
329,192,52348,128,0,52444:0:0:0:0:
36,192,52348,128,0,52444:0:0:0:0:
109,192,52444,128,0,52539:0:0:0:0:
475,192,52444,128,0,52539:0:0:0:0:
256,192,52444,128,0,52539:0:0:0:0:
402,192,52539,128,0,52635:0:0:0:0:
182,192,52539,128,0,52635:0:0:0:0:
256,192,52635,128,0,52731:0:0:0:0:
36,192,52635,128,0,52731:0:0:0:0:
329,192,52731,128,0,52827:0:0:0:0:
109,192,52731,128,0,52827:0:0:0:0:
475,192,52827,128,0,53114:0:0:0:0:
182,192,52827,128,0,53114:0:0:0:0:
256,192,52827,1,0,0:0:0:0:
402,192,52923,128,0,53018:0:0:0:0:
329,192,53018,128,0,53306:0:0:0:0:
36,192,53018,128,0,53306:0:0:0:0:
402,192,53114,128,0,53210:0:0:0:0:
256,192,53210,1,0,0:0:0:0:
475,192,53210,128,0,53497:0:0:0:0:
182,192,53210,128,0,53497:0:0:0:0:
402,192,53306,128,0,53401:0:0:0:0:
329,192,53401,128,0,53689:0:0:0:0:
36,192,53401,128,0,53689:0:0:0:0:
402,192,53497,128,0,53593:0:0:0:0:
256,192,53593,1,0,0:0:0:0:
475,192,53593,128,0,53880:0:0:0:0:
182,192,53593,128,0,53880:0:0:0:0:
402,192,53689,128,0,53785:0:0:0:0:
329,192,53785,128,0,53976:0:0:0:0:
36,192,53785,128,0,53976:0:0:0:0:
402,192,53880,128,0,53976:0:0:0:0:
256,192,53976,1,0,0:0:0:0:
109,192,53976,128,0,54072:0:0:0:0:
475,192,53976,128,0,54072:0:0:0:0:
182,192,54072,128,0,54168:0:0:0:0:
402,192,54072,128,0,54168:0:0:0:0:
329,192,54168,128,0,54264:0:0:0:0:
109,192,54168,128,0,54264:0:0:0:0:
402,192,54264,128,0,54359:0:0:0:0:
182,192,54264,128,0,54359:0:0:0:0:
475,192,54359,128,0,54455:0:0:0:0:
36,192,54359,128,0,54647:0:0:0:0:
256,192,54359,1,0,0:0:0:0:
329,192,54359,128,0,54647:0:0:0:0:
109,192,54455,128,0,54551:0:0:0:0:
182,192,54551,128,0,54838:0:0:0:0:
475,192,54551,128,0,54838:0:0:0:0:
109,192,54647,128,0,54742:0:0:0:0:
36,192,54742,128,0,55030:0:0:0:0:
329,192,54742,128,0,55030:0:0:0:0:
256,192,54742,1,0,0:0:0:0:
109,192,54838,128,0,54934:0:0:0:0:
182,192,54934,128,0,55221:0:0:0:0:
475,192,54934,128,0,55221:0:0:0:0:
109,192,55030,128,0,55126:0:0:0:0:
36,192,55126,128,0,55413:0:0:0:0:
329,192,55126,128,0,55413:0:0:0:0:
256,192,55126,1,0,0:0:0:0:
109,192,55221,128,0,55317:0:0:0:0:
182,192,55317,128,0,55509:0:0:0:0:
475,192,55317,128,0,55509:0:0:0:0:
109,192,55413,128,0,55509:0:0:0:0:
36,192,55509,128,0,55605:0:0:0:0:
329,192,55509,128,0,55605:0:0:0:0:
256,192,55509,1,0,0:0:0:0:
109,192,55605,128,0,55700:0:0:0:0:
402,192,55605,128,0,55700:0:0:0:0:
182,192,55700,128,0,55796:0:0:0:0:
475,192,55700,128,0,55796:0:0:0:0:
109,192,55796,128,0,55892:0:0:0:0:
329,192,55796,128,0,55892:0:0:0:0:
36,192,55892,128,0,56179:0:0:0:0:
256,192,55892,1,0,0:0:0:0:
402,192,55892,1,0,0:0:0:0:
182,192,55988,128,0,56083:0:0:0:0:
329,192,56083,128,0,56275:0:0:0:0:
256,192,56083,1,0,0:0:0:0:
475,192,56083,1,0,0:0:0:0:
182,192,56179,128,0,56275:0:0:0:0:
36,192,56275,1,0,0:0:0:0:
402,192,56275,128,0,56562:0:0:0:0:
109,192,56275,1,0,0:0:0:0:
256,192,56371,128,0,56467:0:0:0:0:
109,192,56467,128,0,56658:0:0:0:0:
182,192,56467,1,0,0:0:0:0:
329,192,56467,1,0,0:0:0:0:
256,192,56562,128,0,56658:0:0:0:0:
402,192,56658,1,0,0:0:0:0:
182,192,56658,128,0,56946:0:0:0:0:
36,192,56658,1,0,0:0:0:0:
329,192,56754,128,0,56850:0:0:0:0:
475,192,56850,128,0,57041:0:0:0:0:
256,192,56850,1,0,0:0:0:0:
109,192,56850,1,0,0:0:0:0:
329,192,56946,128,0,57041:0:0:0:0:
182,192,57041,1,0,0:0:0:0:
36,192,57041,1,0,0:0:0:0:
402,192,57041,128,0,57329:0:0:0:0:
256,192,57137,128,0,57233:0:0:0:0:
109,192,57233,128,0,57424:0:0:0:0:
329,192,57233,1,0,0:0:0:0:
475,192,57233,1,0,0:0:0:0:
256,192,57329,128,0,57424:0:0:0:0:
402,192,57424,1,0,0:0:0:0:
182,192,57424,128,0,57616:0:0:0:0:
36,192,57424,128,0,57712:0:0:0:0:
329,192,57520,128,0,57808:0:0:0:0:
475,192,57616,128,0,57903:0:0:0:0:
256,192,57616,1,0,0:0:0:0:
182,192,57712,128,0,57999:0:0:0:0:
36,192,57808,128,0,58191:0:0:0:0:
109,192,57808,1,0,0:0:0:0:
402,192,57808,1,0,0:0:0:0:
329,192,57903,128,0,58095:0:0:0:0:
475,192,57999,128,0,58095:0:0:0:0:
256,192,57999,1,0,0:0:0:0:
182,192,58095,128,0,58191:0:0:0:0:
329,192,58191,128,0,58382:0:0:0:0:
109,192,58191,128,0,58478:0:0:0:0:
256,192,58191,1,0,0:0:0:0:
475,192,58191,1,0,0:0:0:0:
402,192,58287,128,0,58574:0:0:0:0:
182,192,58382,128,0,58670:0:0:0:0:
36,192,58382,1,0,0:0:0:0:
329,192,58478,128,0,58765:0:0:0:0:
109,192,58574,128,0,58861:0:0:0:0:
256,192,58574,1,0,0:0:0:0:
475,192,58574,1,0,0:0:0:0:
402,192,58670,128,0,58957:0:0:0:0:
182,192,58765,128,0,58957:0:0:0:0:
36,192,58765,1,0,0:0:0:0:
329,192,58861,128,0,58957:0:0:0:0:
256,192,58957,128,0,59723:0:0:0:0:
109,192,58957,1,0,0:0:0:0:
36,192,58957,1,0,0:0:0:0:
475,192,58957,128,0,59053:0:0:0:0:
402,192,59053,128,0,59149:0:0:0:0:
109,192,59149,128,0,59244:0:0:0:0:
36,192,59149,128,0,59244:0:0:0:0:
182,192,59244,128,0,59340:0:0:0:0:
329,192,59340,128,0,59436:0:0:0:0:
475,192,59340,128,0,59436:0:0:0:0:
402,192,59436,128,0,59532:0:0:0:0:
109,192,59532,128,0,59628:0:0:0:0:
329,192,59532,128,0,59628:0:0:0:0:
36,192,59628,128,0,59723:0:0:0:0:
475,192,59723,128,0,59819:0:0:0:0:
182,192,59723,128,0,60298:0:0:0:0:
402,192,59723,128,0,59819:0:0:0:0:
329,192,59819,128,0,59915:0:0:0:0:
256,192,59915,128,0,60011:0:0:0:0:
36,192,59915,128,0,60011:0:0:0:0:
329,192,60011,128,0,60106:0:0:0:0:
402,192,60106,128,0,60202:0:0:0:0:
109,192,60106,128,0,60202:0:0:0:0:
256,192,60202,128,0,60298:0:0:0:0:
329,192,60298,1,0,0:0:0:0:
109,192,60298,128,0,60394:0:0:0:0:
475,192,60298,128,0,60394:0:0:0:0:
182,192,60394,128,0,60490:0:0:0:0:
329,192,60490,128,0,61256:0:0:0:0:
256,192,60490,128,0,60585:0:0:0:0:
36,192,60490,128,0,60585:0:0:0:0:
402,192,60585,128,0,60681:0:0:0:0:
109,192,60681,128,0,60777:0:0:0:0:
475,192,60681,128,0,60777:0:0:0:0:
256,192,60777,128,0,60873:0:0:0:0:
182,192,60873,128,0,60969:0:0:0:0:
36,192,60873,128,0,60969:0:0:0:0:
402,192,60969,128,0,61064:0:0:0:0:
109,192,61064,128,0,61160:0:0:0:0:
475,192,61064,128,0,61160:0:0:0:0:
182,192,61160,128,0,61256:0:0:0:0:
256,192,61256,128,0,61639:0:0:0:0:
36,192,61256,128,0,61352:0:0:0:0:
475,192,61256,128,0,61352:0:0:0:0:
402,192,61352,128,0,61447:0:0:0:0:
109,192,61447,128,0,61543:0:0:0:0:
329,192,61447,128,0,61543:0:0:0:0:
402,192,61543,128,0,61639:0:0:0:0:
475,192,61639,128,0,61735:0:0:0:0:
182,192,61639,128,0,62022:0:0:0:0:
36,192,61639,128,0,61735:0:0:0:0:
256,192,61735,128,0,61831:0:0:0:0:
329,192,61831,128,0,62022:0:0:0:0:
402,192,61831,1,0,0:0:0:0:
109,192,61831,128,0,61926:0:0:0:0:
36,192,61926,128,0,62022:0:0:0:0:
475,192,62022,128,0,62310:0:0:0:0:
109,192,62022,1,0,0:0:0:0:
256,192,62022,1,0,0:0:0:0:
402,192,62118,128,0,62214:0:0:0:0:
256,192,62214,128,0,62501:0:0:0:0:
182,192,62214,1,0,0:0:0:0:
402,192,62310,128,0,62405:0:0:0:0:
475,192,62405,128,0,62693:0:0:0:0:
36,192,62405,1,0,0:0:0:0:
329,192,62405,1,0,0:0:0:0:
402,192,62501,128,0,62597:0:0:0:0:
256,192,62597,128,0,62693:0:0:0:0:
109,192,62597,1,0,0:0:0:0:
402,192,62693,128,0,62788:0:0:0:0:
475,192,62788,128,0,62884:0:0:0:0:
182,192,62788,128,0,62884:0:0:0:0:
36,192,62788,1,0,0:0:0:0:
329,192,62788,1,0,0:0:0:0:
256,192,62884,128,0,63172:0:0:0:0:
182,192,62980,128,0,63076:0:0:0:0:
402,192,62980,1,0,0:0:0:0:
36,192,63076,128,0,63363:0:0:0:0:
182,192,63172,128,0,63267:0:0:0:0:
109,192,63172,1,0,0:0:0:0:
475,192,63172,1,0,0:0:0:0:
256,192,63267,128,0,63363:0:0:0:0:
182,192,63363,128,0,63459:0:0:0:0:
402,192,63363,1,0,0:0:0:0:
36,192,63459,128,0,63555:0:0:0:0:
182,192,63555,128,0,63746:0:0:0:0:
329,192,63555,128,0,63651:0:0:0:0:
256,192,63555,1,0,0:0:0:0:
475,192,63555,1,0,0:0:0:0:
402,192,63651,128,0,63938:0:0:0:0:
329,192,63746,128,0,63842:0:0:0:0:
109,192,63746,1,0,0:0:0:0:
182,192,63842,128,0,64129:0:0:0:0:
329,192,63938,128,0,64034:0:0:0:0:
256,192,63938,1,0,0:0:0:0:
36,192,63938,1,0,0:0:0:0:
402,192,64034,128,0,64129:0:0:0:0:
329,192,64129,128,0,64225:0:0:0:0:
109,192,64129,1,0,0:0:0:0:
182,192,64225,128,0,64321:0:0:0:0:
475,192,64321,128,0,64608:0:0:0:0:
402,192,64321,1,0,0:0:0:0:
329,192,64321,1,0,0:0:0:0:
109,192,64321,128,0,64417:0:0:0:0:
256,192,64417,128,0,64513:0:0:0:0:
109,192,64513,128,0,64800:0:0:0:0:
182,192,64513,1,0,0:0:0:0:
256,192,64608,128,0,64704:0:0:0:0:
475,192,64704,128,0,64992:0:0:0:0:
329,192,64704,1,0,0:0:0:0:
36,192,64704,1,0,0:0:0:0:
256,192,64800,128,0,64896:0:0:0:0:
109,192,64896,128,0,64992:0:0:0:0:
182,192,64896,1,0,0:0:0:0:
256,192,64992,128,0,65087:0:0:0:0:
36,192,65087,1,0,0:0:0:0:
329,192,65087,1,0,0:0:0:0:
475,192,65087,128,0,65375:0:0:0:0:
402,192,65183,128,0,65279:0:0:0:0:
329,192,65279,128,0,65566:0:0:0:0:
182,192,65279,1,0,0:0:0:0:
402,192,65375,128,0,65470:0:0:0:0:
475,192,65470,128,0,65758:0:0:0:0:
109,192,65470,1,0,0:0:0:0:
256,192,65470,1,0,0:0:0:0:
402,192,65566,128,0,65662:0:0:0:0:
329,192,65662,128,0,65758:0:0:0:0:
182,192,65662,1,0,0:0:0:0:
402,192,65758,128,0,65854:0:0:0:0:
475,192,65854,128,0,65949:0:0:0:0:
36,192,65854,128,0,66141:0:0:0:0:
256,192,65854,1,0,0:0:0:0:
329,192,65854,1,0,0:0:0:0:
109,192,65949,128,0,66045:0:0:0:0:
182,192,66045,128,0,66333:0:0:0:0:
402,192,66045,1,0,0:0:0:0:
109,192,66141,128,0,66237:0:0:0:0:
36,192,66237,128,0,66524:0:0:0:0:
329,192,66237,1,0,0:0:0:0:
475,192,66237,1,0,0:0:0:0:
109,192,66333,128,0,66428:0:0:0:0:
182,192,66428,128,0,66524:0:0:0:0:
256,192,66428,1,0,0:0:0:0:
109,192,66524,128,0,66620:0:0:0:0:
36,192,66620,128,0,66716:0:0:0:0:
402,192,66620,128,0,66907:0:0:0:0:
329,192,66620,1,0,0:0:0:0:
475,192,66620,1,0,0:0:0:0:
256,192,66716,128,0,66811:0:0:0:0:
109,192,66811,128,0,67099:0:0:0:0:
182,192,66811,1,0,0:0:0:0:
256,192,66907,128,0,67003:0:0:0:0:
402,192,67003,128,0,67290:0:0:0:0:
329,192,67003,1,0,0:0:0:0:
36,192,67003,1,0,0:0:0:0:
256,192,67099,128,0,67195:0:0:0:0:
109,192,67195,128,0,67290:0:0:0:0:
182,192,67195,1,0,0:0:0:0:
256,192,67290,128,0,67386:0:0:0:0:
402,192,67386,128,0,67482:0:0:0:0:
36,192,67386,128,0,67865:0:0:0:0:
329,192,67386,1,0,0:0:0:0:
475,192,67386,1,0,0:0:0:0:
182,192,67482,128,0,67769:0:0:0:0:
329,192,67578,128,0,67674:0:0:0:0:
256,192,67578,1,0,0:0:0:0:
475,192,67674,128,0,68152:0:0:0:0:
329,192,67769,128,0,68057:0:0:0:0:
109,192,67769,1,0,0:0:0:0:
402,192,67769,1,0,0:0:0:0:
182,192,67865,128,0,67961:0:0:0:0:
36,192,67961,128,0,68057:0:0:0:0:
256,192,67961,1,0,0:0:0:0:
182,192,68057,128,0,68152:0:0:0:0:
329,192,68152,128,0,68248:0:0:0:0:
402,192,68152,1,0,0:0:0:0:
109,192,68152,128,0,68440:0:0:0:0:
182,192,68248,128,0,68344:0:0:0:0:
256,192,68344,128,0,68823:0:0:0:0:
402,192,68344,1,0,0:0:0:0:
182,192,68440,128,0,68727:0:0:0:0:
109,192,68536,128,0,68631:0:0:0:0:
329,192,68536,1,0,0:0:0:0:
475,192,68536,1,0,0:0:0:0:
36,192,68631,128,0,68727:0:0:0:0:
109,192,68727,128,0,68823:0:0:0:0:
402,192,68727,1,0,0:0:0:0:
182,192,68823,128,0,68919:0:0:0:0:
256,192,68919,128,0,69015:0:0:0:0:
475,192,68919,128,0,69398:0:0:0:0:
36,192,68919,1,0,0:0:0:0:
329,192,68919,1,0,0:0:0:0:
402,192,69015,128,0,69302:0:0:0:0:
329,192,69110,128,0,69206:0:0:0:0:
109,192,69110,1,0,0:0:0:0:
256,192,69206,128,0,69685:0:0:0:0:
329,192,69302,128,0,69589:0:0:0:0:
182,192,69302,1,0,0:0:0:0:
36,192,69302,1,0,0:0:0:0:
402,192,69398,128,0,69493:0:0:0:0:
475,192,69493,128,0,69589:0:0:0:0:
109,192,69493,1,0,0:0:0:0:
402,192,69589,128,0,69685:0:0:0:0:
329,192,69685,128,0,69781:0:0:0:0:
109,192,69685,128,0,70164:0:0:0:0:
36,192,69685,1,0,0:0:0:0:
475,192,69685,1,0,0:0:0:0:
182,192,69781,128,0,70068:0:0:0:0:
329,192,69877,128,0,69972:0:0:0:0:
256,192,69877,1,0,0:0:0:0:
402,192,69972,128,0,70451:0:0:0:0:
329,192,70068,128,0,70356:0:0:0:0:
36,192,70068,1,0,0:0:0:0:
475,192,70068,1,0,0:0:0:0:
182,192,70164,128,0,70260:0:0:0:0:
109,192,70260,128,0,70356:0:0:0:0:
256,192,70260,1,0,0:0:0:0:
182,192,70356,128,0,70451:0:0:0:0:
36,192,70451,1,0,0:0:0:0:
256,192,70451,128,0,70547:0:0:0:0:
475,192,70451,128,0,70834:0:0:0:0:
109,192,70451,1,0,0:0:0:0:
402,192,70547,128,0,70739:0:0:0:0:
109,192,70643,128,0,70739:0:0:0:0:
256,192,70643,1,0,0:0:0:0:
36,192,70739,128,0,71122:0:0:0:0:
109,192,70834,128,0,71026:0:0:0:0:
402,192,70834,128,0,70930:0:0:0:0:
182,192,70834,1,0,0:0:0:0:
329,192,70834,1,0,0:0:0:0:
475,192,70930,128,0,71313:0:0:0:0:
402,192,71026,128,0,71409:0:0:0:0:
256,192,71026,1,0,0:0:0:0:
109,192,71122,128,0,71218:0:0:0:0:
36,192,71218,128,0,71601:0:0:0:0:
182,192,71218,1,0,0:0:0:0:
329,192,71218,1,0,0:0:0:0:
109,192,71313,128,0,71697:0:0:0:0:
475,192,71409,128,0,71505:0:0:0:0:
256,192,71409,1,0,0:0:0:0:
402,192,71505,128,0,71888:0:0:0:0:
475,192,71601,128,0,71984:0:0:0:0:
329,192,71601,1,0,0:0:0:0:
256,192,71601,1,0,0:0:0:0:
36,192,71697,128,0,71792:0:0:0:0:
109,192,71792,128,0,72271:0:0:0:0:
182,192,71792,1,0,0:0:0:0:
36,192,71888,128,0,72175:0:0:0:0:
402,192,71984,128,0,72080:0:0:0:0:
182,192,71984,1,0,0:0:0:0:
256,192,71984,1,0,0:0:0:0:
475,192,72080,128,0,72463:0:0:0:0:
402,192,72175,128,0,72559:0:0:0:0:
329,192,72175,1,0,0:0:0:0:
36,192,72271,128,0,72367:0:0:0:0:
109,192,72367,128,0,72750:0:0:0:0:
329,192,72367,1,0,0:0:0:0:
256,192,72367,1,0,0:0:0:0:
36,192,72463,128,0,72942:0:0:0:0:
475,192,72559,128,0,72654:0:0:0:0:
182,192,72559,1,0,0:0:0:0:
402,192,72654,128,0,72846:0:0:0:0:
475,192,72750,128,0,73038:0:0:0:0:
182,192,72750,1,0,0:0:0:0:
329,192,72750,1,0,0:0:0:0:
109,192,72846,128,0,73133:0:0:0:0:
402,192,72942,128,0,73229:0:0:0:0:
256,192,72942,1,0,0:0:0:0:
36,192,73038,128,0,73325:0:0:0:0:
475,192,73133,128,0,73421:0:0:0:0:
329,192,73133,1,0,0:0:0:0:
182,192,73133,1,0,0:0:0:0:
109,192,73229,128,0,73516:0:0:0:0:
402,192,73325,128,0,73612:0:0:0:0:
256,192,73325,1,0,0:0:0:0:
36,192,73421,128,0,73900:0:0:0:0:
475,192,73516,128,0,73900:0:0:0:0:
182,192,73516,1,0,0:0:0:0:
329,192,73516,1,0,0:0:0:0:
109,192,73612,128,0,73708:0:0:0:0:
256,192,73612,1,0,0:0:0:0:
402,192,73708,128,0,73900:0:0:0:0:
182,192,73708,1,0,0:0:0:0:
329,192,73708,1,0,0:0:0:0:
109,192,73804,128,0,73900:0:0:0:0:
256,192,73804,1,0,0:0:0:0:
182,192,73900,128,0,73995:0:0:0:0:
329,192,73900,128,0,73995:0:0:0:0:
402,192,73995,128,0,74091:0:0:0:0:
109,192,73995,128,0,74091:0:0:0:0:
36,192,74091,128,0,74187:0:0:0:0:
475,192,74091,128,0,74187:0:0:0:0:
256,192,74091,128,0,74187:0:0:0:0:
182,192,74187,128,0,74283:0:0:0:0:
329,192,74187,128,0,74283:0:0:0:0:
475,192,74283,1,0,0:0:0:0:
36,192,74283,1,0,0:0:0:0:
109,192,74283,1,0,0:0:0:0:
402,192,74283,1,0,0:0:0:0:
256,192,74379,1,0,0:0:0:0:
36,192,74474,1,0,0:0:0:0:
109,192,74474,1,0,0:0:0:0:
182,192,74570,1,0,0:0:0:0:
475,192,74666,1,0,0:0:0:0:
402,192,74666,1,0,0:0:0:0:
256,192,74666,1,0,0:0:0:0:
329,192,74762,1,0,0:0:0:0:
109,192,74857,1,0,0:0:0:0:
256,192,74857,1,0,0:0:0:0:
182,192,74953,1,0,0:0:0:0:
402,192,75049,1,0,0:0:0:0:
36,192,75049,1,0,0:0:0:0:
109,192,75049,1,0,0:0:0:0:
329,192,75145,1,0,0:0:0:0:
256,192,75241,1,0,0:0:0:0:
475,192,75241,1,0,0:0:0:0:
182,192,75336,1,0,0:0:0:0:
109,192,75432,1,0,0:0:0:0:
329,192,75432,1,0,0:0:0:0:
402,192,75432,1,0,0:0:0:0:
256,192,75528,1,0,0:0:0:0:
182,192,75624,1,0,0:0:0:0:
36,192,75624,1,0,0:0:0:0:
329,192,75719,1,0,0:0:0:0:
109,192,75815,1,0,0:0:0:0:
475,192,75815,1,0,0:0:0:0:
256,192,75815,1,0,0:0:0:0:
329,192,75911,1,0,0:0:0:0:
36,192,76007,1,0,0:0:0:0:
182,192,76007,1,0,0:0:0:0:
256,192,76103,1,0,0:0:0:0:
329,192,76198,1,0,0:0:0:0:
475,192,76198,1,0,0:0:0:0:
109,192,76198,1,0,0:0:0:0:
402,192,76294,1,0,0:0:0:0:
182,192,76390,1,0,0:0:0:0:
36,192,76390,1,0,0:0:0:0:
256,192,76486,1,0,0:0:0:0:
402,192,76582,1,0,0:0:0:0:
109,192,76582,1,0,0:0:0:0:
475,192,76582,1,0,0:0:0:0:
329,192,76677,1,0,0:0:0:0:
256,192,76773,1,0,0:0:0:0:
36,192,76773,1,0,0:0:0:0:
182,192,76869,1,0,0:0:0:0:
329,192,76965,1,0,0:0:0:0:
475,192,76965,1,0,0:0:0:0:
109,192,76965,1,0,0:0:0:0:
256,192,77060,1,0,0:0:0:0:
182,192,77156,1,0,0:0:0:0:
36,192,77156,1,0,0:0:0:0:
402,192,77252,1,0,0:0:0:0:
256,192,77348,1,0,0:0:0:0:
475,192,77348,1,0,0:0:0:0:
109,192,77348,1,0,0:0:0:0:
329,192,77444,1,0,0:0:0:0:
402,192,77539,1,0,0:0:0:0:
182,192,77539,1,0,0:0:0:0:
256,192,77635,1,0,0:0:0:0:
329,192,77731,1,0,0:0:0:0:
109,192,77731,1,0,0:0:0:0:
475,192,77731,1,0,0:0:0:0:
182,192,77827,1,0,0:0:0:0:
256,192,77923,1,0,0:0:0:0:
36,192,77923,1,0,0:0:0:0:
182,192,78018,1,0,0:0:0:0:
109,192,78114,1,0,0:0:0:0:
329,192,78114,1,0,0:0:0:0:
475,192,78114,1,0,0:0:0:0:
256,192,78210,1,0,0:0:0:0:
402,192,78306,1,0,0:0:0:0:
182,192,78306,1,0,0:0:0:0:
329,192,78401,1,0,0:0:0:0:
256,192,78497,1,0,0:0:0:0:
475,192,78497,1,0,0:0:0:0:
36,192,78497,1,0,0:0:0:0:
329,192,78593,1,0,0:0:0:0:
182,192,78689,1,0,0:0:0:0:
402,192,78689,1,0,0:0:0:0:
256,192,78785,1,0,0:0:0:0:
475,192,78880,1,0,0:0:0:0:
329,192,78880,1,0,0:0:0:0:
36,192,78880,1,0,0:0:0:0:
109,192,78976,1,0,0:0:0:0:
182,192,79072,1,0,0:0:0:0:
402,192,79072,1,0,0:0:0:0:
36,192,79168,1,0,0:0:0:0:
256,192,79264,1,0,0:0:0:0:
475,192,79264,1,0,0:0:0:0:
109,192,79264,1,0,0:0:0:0:
402,192,79359,1,0,0:0:0:0:
182,192,79455,1,0,0:0:0:0:
36,192,79455,1,0,0:0:0:0:
329,192,79551,1,0,0:0:0:0:
109,192,79647,1,0,0:0:0:0:
256,192,79647,1,0,0:0:0:0:
402,192,79647,1,0,0:0:0:0:
475,192,79742,1,0,0:0:0:0:
182,192,79838,1,0,0:0:0:0:
36,192,79838,1,0,0:0:0:0:
402,192,79934,1,0,0:0:0:0:
329,192,80030,1,0,0:0:0:0:
109,192,80030,1,0,0:0:0:0:
36,192,80030,1,0,0:0:0:0:
256,192,80126,1,0,0:0:0:0:
182,192,80221,1,0,0:0:0:0:
475,192,80221,1,0,0:0:0:0:
402,192,80317,1,0,0:0:0:0:
256,192,80413,1,0,0:0:0:0:
36,192,80413,1,0,0:0:0:0:
109,192,80509,1,0,0:0:0:0:
402,192,80605,1,0,0:0:0:0:
256,192,80605,1,0,0:0:0:0:
329,192,80700,1,0,0:0:0:0:
36,192,80796,1,0,0:0:0:0:
109,192,80796,1,0,0:0:0:0:
402,192,80796,1,0,0:0:0:0:
182,192,80892,1,0,0:0:0:0:
256,192,80988,1,0,0:0:0:0:
475,192,80988,1,0,0:0:0:0:
109,192,81083,1,0,0:0:0:0:
36,192,81179,1,0,0:0:0:0:
256,192,81179,1,0,0:0:0:0:
475,192,81179,1,0,0:0:0:0:
36,192,81371,1,0,0:0:0:0:
475,192,81371,1,0,0:0:0:0:
256,192,81371,1,0,0:0:0:0:
402,192,81562,1,0,0:0:0:0:
36,192,81562,1,0,0:0:0:0:
256,192,81562,1,0,0:0:0:0:
402,192,81754,1,0,0:0:0:0:
36,192,81754,1,0,0:0:0:0:
256,192,81754,1,0,0:0:0:0:
109,192,81946,1,0,0:0:0:0:
402,192,81946,1,0,0:0:0:0:
256,192,81946,1,0,0:0:0:0:
109,192,82137,1,0,0:0:0:0:
402,192,82137,1,0,0:0:0:0:
256,192,82137,1,0,0:0:0:0:
329,192,82329,1,0,0:0:0:0:
109,192,82329,1,0,0:0:0:0:
256,192,82329,1,0,0:0:0:0:
329,192,82520,1,0,0:0:0:0:
109,192,82520,1,0,0:0:0:0:
256,192,82520,1,0,0:0:0:0:
402,192,82712,1,0,0:0:0:0:
182,192,82712,1,0,0:0:0:0:
256,192,82712,1,0,0:0:0:0:
475,192,82712,1,0,0:0:0:0:
36,192,82903,1,0,0:0:0:0:
329,192,82903,1,0,0:0:0:0:
109,192,82903,1,0,0:0:0:0:
256,192,82999,1,0,0:0:0:0:
475,192,83095,1,0,0:0:0:0:
182,192,83095,1,0,0:0:0:0:
402,192,83095,1,0,0:0:0:0:
256,192,83191,1,0,0:0:0:0:
109,192,83287,1,0,0:0:0:0:
329,192,83287,1,0,0:0:0:0:
36,192,83287,1,0,0:0:0:0:
256,192,83382,1,0,0:0:0:0:
475,192,83478,128,0,84244:0:0:0:0:
329,192,83478,1,0,0:0:0:0:
36,192,83478,1,0,0:0:0:0:
182,192,83478,1,0,0:0:0:0:
109,192,83574,1,0,0:0:0:0:
402,192,83574,128,0,84149:0:0:0:0:
36,192,83670,1,0,0:0:0:0:
329,192,83670,128,0,84053:0:0:0:0:
109,192,83765,1,0,0:0:0:0:
256,192,83765,128,0,83957:0:0:0:0:
182,192,83861,1,0,0:0:0:0:
36,192,83957,1,0,0:0:0:0:
109,192,84053,1,0,0:0:0:0:
182,192,84149,1,0,0:0:0:0:
256,192,84244,1,0,0:0:0:0:
36,192,84244,128,0,85011:0:0:0:0:
329,192,84340,1,0,0:0:0:0:
109,192,84340,128,0,84915:0:0:0:0:
402,192,84436,1,0,0:0:0:0:
182,192,84436,128,0,84819:0:0:0:0:
475,192,84532,1,0,0:0:0:0:
256,192,84532,128,0,84723:0:0:0:0:
329,192,84628,1,0,0:0:0:0:
475,192,84723,1,0,0:0:0:0:
402,192,84819,1,0,0:0:0:0:
256,192,84915,1,0,0:0:0:0:
109,192,85011,1,0,0:0:0:0:
475,192,85011,128,0,85266:0:0:0:0:
402,192,85043,128,0,85234:0:0:0:0:
329,192,85075,128,0,85202:0:0:0:0:
256,192,85106,128,0,85170:0:0:0:0:
182,192,85138,1,0,0:0:0:0:
329,192,85298,1,0,0:0:0:0:
475,192,85394,1,0,0:0:0:0:
36,192,85394,128,0,85649:0:0:0:0:
109,192,85426,128,0,85617:0:0:0:0:
182,192,85458,128,0,85585:0:0:0:0:
256,192,85490,128,0,85553:0:0:0:0:
329,192,85522,1,0,0:0:0:0:
182,192,85681,1,0,0:0:0:0:
109,192,85777,1,0,0:0:0:0:
402,192,85777,1,0,0:0:0:0:
329,192,85777,1,0,0:0:0:0:
256,192,85873,1,0,0:0:0:0:
36,192,85969,1,0,0:0:0:0:
475,192,85969,1,0,0:0:0:0:
182,192,85969,1,0,0:0:0:0:
256,192,86064,1,0,0:0:0:0:
109,192,86160,1,0,0:0:0:0:
402,192,86160,1,0,0:0:0:0:
329,192,86160,1,0,0:0:0:0:
256,192,86256,1,0,0:0:0:0:
36,192,86352,1,0,0:0:0:0:
475,192,86352,1,0,0:0:0:0:
182,192,86352,1,0,0:0:0:0:
256,192,86447,1,0,0:0:0:0:
109,192,86543,1,0,0:0:0:0:
402,192,86543,1,0,0:0:0:0:
329,192,86543,1,0,0:0:0:0:
182,192,86639,1,0,0:0:0:0:
402,192,86735,1,0,0:0:0:0:
256,192,86735,1,0,0:0:0:0:
182,192,86831,1,0,0:0:0:0:
329,192,86926,128,0,87214:0:0:0:0:
475,192,86926,1,0,0:0:0:0:
109,192,86926,1,0,0:0:0:0:
256,192,87022,1,0,0:0:0:0:
109,192,87118,1,0,0:0:0:0:
36,192,87118,1,0,0:0:0:0:
402,192,87118,128,0,87405:0:0:0:0:
182,192,87214,1,0,0:0:0:0:
36,192,87310,1,0,0:0:0:0:
256,192,87310,1,0,0:0:0:0:
475,192,87310,128,0,87788:0:0:0:0:
109,192,87405,1,0,0:0:0:0:
329,192,87501,1,0,0:0:0:0:
182,192,87501,1,0,0:0:0:0:
109,192,87597,1,0,0:0:0:0:
256,192,87693,1,0,0:0:0:0:
36,192,87693,1,0,0:0:0:0:
402,192,87693,128,0,88076:0:0:0:0:
182,192,87788,1,0,0:0:0:0:
329,192,87884,1,0,0:0:0:0:
109,192,87884,1,0,0:0:0:0:
256,192,87980,1,0,0:0:0:0:
475,192,88076,1,0,0:0:0:0:
182,192,88076,1,0,0:0:0:0:
36,192,88076,128,0,88555:0:0:0:0:
256,192,88172,1,0,0:0:0:0:
182,192,88267,1,0,0:0:0:0:
329,192,88267,1,0,0:0:0:0:
402,192,88363,1,0,0:0:0:0:
256,192,88459,1,0,0:0:0:0:
475,192,88459,1,0,0:0:0:0:
109,192,88459,128,0,88746:0:0:0:0:
329,192,88555,1,0,0:0:0:0:
475,192,88651,1,0,0:0:0:0:
402,192,88651,1,0,0:0:0:0:
182,192,88651,128,0,88938:0:0:0:0:
329,192,88746,1,0,0:0:0:0:
475,192,88842,1,0,0:0:0:0:
256,192,88842,1,0,0:0:0:0:
109,192,88842,128,0,89321:0:0:0:0:
402,192,88938,1,0,0:0:0:0:
36,192,89034,1,0,0:0:0:0:
329,192,89034,1,0,0:0:0:0:
182,192,89129,1,0,0:0:0:0:
402,192,89225,1,0,0:0:0:0:
475,192,89225,1,0,0:0:0:0:
256,192,89225,128,0,89704:0:0:0:0:
329,192,89321,1,0,0:0:0:0:
36,192,89417,1,0,0:0:0:0:
182,192,89417,1,0,0:0:0:0:
329,192,89513,1,0,0:0:0:0:
109,192,89608,1,0,0:0:0:0:
475,192,89608,1,0,0:0:0:0:
402,192,89608,128,0,90087:0:0:0:0:
182,192,89704,1,0,0:0:0:0:
109,192,89800,1,0,0:0:0:0:
329,192,89800,1,0,0:0:0:0:
256,192,89896,1,0,0:0:0:0:
475,192,89992,1,0,0:0:0:0:
36,192,89992,1,0,0:0:0:0:
182,192,89992,128,0,90470:0:0:0:0:
329,192,90087,1,0,0:0:0:0:
109,192,90183,1,0,0:0:0:0:
256,192,90183,1,0,0:0:0:0:
402,192,90279,1,0,0:0:0:0:
475,192,90375,128,0,90470:0:0:0:0:
36,192,90375,128,0,90470:0:0:0:0:
329,192,90375,128,0,91907:0:0:0:0:
256,192,90470,128,0,90566:0:0:0:0:
402,192,90566,128,0,90662:0:0:0:0:
109,192,90566,128,0,90662:0:0:0:0:
182,192,90662,128,0,90758:0:0:0:0:
36,192,90758,128,0,90854:0:0:0:0:
256,192,90758,128,0,90854:0:0:0:0:
182,192,90854,128,0,90949:0:0:0:0:
109,192,90949,128,0,91045:0:0:0:0:
475,192,90949,128,0,91045:0:0:0:0:
402,192,91045,128,0,91141:0:0:0:0:
36,192,91141,128,0,91237:0:0:0:0:
256,192,91141,128,0,91237:0:0:0:0:
402,192,91237,128,0,91333:0:0:0:0:
109,192,91237,128,0,91333:0:0:0:0:
475,192,91333,128,0,91428:0:0:0:0:
182,192,91333,128,0,91428:0:0:0:0:
36,192,91428,128,0,91524:0:0:0:0:
256,192,91428,128,0,91524:0:0:0:0:
402,192,91524,128,0,91620:0:0:0:0:
109,192,91524,128,0,91620:0:0:0:0:
475,192,91620,128,0,91716:0:0:0:0:
182,192,91620,128,0,91716:0:0:0:0:
402,192,91716,128,0,91811:0:0:0:0:
109,192,91716,128,0,91811:0:0:0:0:
256,192,91811,128,0,91907:0:0:0:0:
36,192,91811,128,0,91907:0:0:0:0:
475,192,91907,128,0,92003:0:0:0:0:
182,192,91907,128,0,92003:0:0:0:0:
256,192,92003,128,0,92099:0:0:0:0:
402,192,92003,128,0,92099:0:0:0:0:
109,192,92099,128,0,92195:0:0:0:0:
329,192,92099,128,0,92195:0:0:0:0:
475,192,92195,128,0,92290:0:0:0:0:
182,192,92195,128,0,92290:0:0:0:0:
256,192,92290,128,0,92386:0:0:0:0:
36,192,92290,128,0,92386:0:0:0:0:
402,192,92290,128,0,92386:0:0:0:0:
329,192,92386,128,0,92482:0:0:0:0:
109,192,92386,128,0,92482:0:0:0:0:
475,192,92482,128,0,92578:0:0:0:0:
256,192,92482,128,0,92578:0:0:0:0:
402,192,92578,128,0,92674:0:0:0:0:
182,192,92578,128,0,92674:0:0:0:0:
329,192,92674,128,0,92961:0:0:0:0:
36,192,92674,128,0,92961:0:0:0:0:
256,192,92674,1,0,0:0:0:0:
109,192,92769,1,0,0:0:0:0:
475,192,92865,128,0,93152:0:0:0:0:
182,192,92865,128,0,93152:0:0:0:0:
402,192,92865,1,0,0:0:0:0:
256,192,92961,1,0,0:0:0:0:
329,192,93057,128,0,93344:0:0:0:0:
36,192,93057,128,0,93344:0:0:0:0:
109,192,93057,1,0,0:0:0:0:
402,192,93152,1,0,0:0:0:0:
475,192,93248,128,0,93536:0:0:0:0:
182,192,93248,128,0,93536:0:0:0:0:
256,192,93248,1,0,0:0:0:0:
402,192,93344,1,0,0:0:0:0:
329,192,93440,128,0,93727:0:0:0:0:
36,192,93440,128,0,93727:0:0:0:0:
109,192,93440,1,0,0:0:0:0:
256,192,93536,1,0,0:0:0:0:
475,192,93631,128,0,93823:0:0:0:0:
182,192,93631,128,0,93823:0:0:0:0:
402,192,93631,1,0,0:0:0:0:
109,192,93727,1,0,0:0:0:0:
36,192,93823,128,0,93919:0:0:0:0:
329,192,93823,128,0,93919:0:0:0:0:
402,192,93823,1,0,0:0:0:0:
256,192,93919,128,0,94015:0:0:0:0:
109,192,93919,1,0,0:0:0:0:
402,192,94015,128,0,94110:0:0:0:0:
182,192,94015,128,0,94110:0:0:0:0:
329,192,94110,128,0,94206:0:0:0:0:
109,192,94110,128,0,94206:0:0:0:0:
256,192,94206,1,0,0:0:0:0:
182,192,94206,128,0,94493:0:0:0:0:
36,192,94206,128,0,94302:0:0:0:0:
475,192,94206,128,0,94493:0:0:0:0:
402,192,94302,1,0,0:0:0:0:
36,192,94398,128,0,94685:0:0:0:0:
329,192,94398,128,0,94685:0:0:0:0:
109,192,94398,1,0,0:0:0:0:
402,192,94493,1,0,0:0:0:0:
256,192,94589,1,0,0:0:0:0:
182,192,94589,128,0,94877:0:0:0:0:
475,192,94589,128,0,94877:0:0:0:0:
109,192,94685,1,0,0:0:0:0:
36,192,94781,128,0,95068:0:0:0:0:
329,192,94781,128,0,95068:0:0:0:0:
402,192,94781,1,0,0:0:0:0:
256,192,94877,1,0,0:0:0:0:
109,192,94972,1,0,0:0:0:0:
182,192,94972,128,0,95260:0:0:0:0:
475,192,94972,128,0,95260:0:0:0:0:
256,192,95068,1,0,0:0:0:0:
36,192,95164,128,0,95356:0:0:0:0:
329,192,95164,128,0,95356:0:0:0:0:
402,192,95164,1,0,0:0:0:0:
109,192,95260,1,0,0:0:0:0:
256,192,95356,1,0,0:0:0:0:
182,192,95356,128,0,95451:0:0:0:0:
475,192,95356,128,0,95451:0:0:0:0:
109,192,95451,128,0,95547:0:0:0:0:
402,192,95451,128,0,95547:0:0:0:0:
36,192,95547,128,0,95643:0:0:0:0:
329,192,95547,128,0,95643:0:0:0:0:
182,192,95643,128,0,95739:0:0:0:0:
402,192,95643,128,0,95739:0:0:0:0:
256,192,95739,1,0,0:0:0:0:
475,192,95739,128,0,96313:0:0:0:0:
109,192,95739,1,0,0:0:0:0:
329,192,95834,128,0,95930:0:0:0:0:
256,192,95930,1,0,0:0:0:0:
182,192,95930,128,0,96122:0:0:0:0:
36,192,95930,1,0,0:0:0:0:
329,192,96026,128,0,96122:0:0:0:0:
402,192,96122,1,0,0:0:0:0:
109,192,96122,128,0,96697:0:0:0:0:
36,192,96122,1,0,0:0:0:0:
256,192,96218,128,0,96313:0:0:0:0:
182,192,96313,1,0,0:0:0:0:
329,192,96313,1,0,0:0:0:0:
402,192,96313,128,0,96505:0:0:0:0:
256,192,96409,128,0,96505:0:0:0:0:
475,192,96505,1,0,0:0:0:0:
329,192,96505,128,0,97080:0:0:0:0:
36,192,96505,1,0,0:0:0:0:
182,192,96601,128,0,96697:0:0:0:0:
402,192,96697,1,0,0:0:0:0:
256,192,96697,1,0,0:0:0:0:
36,192,96697,128,0,96888:0:0:0:0:
182,192,96792,128,0,96888:0:0:0:0:
109,192,96888,128,0,97463:0:0:0:0:
475,192,96888,1,0,0:0:0:0:
402,192,96888,1,0,0:0:0:0:
256,192,96984,128,0,97080:0:0:0:0:
36,192,97080,1,0,0:0:0:0:
182,192,97080,1,0,0:0:0:0:
402,192,97080,128,0,97271:0:0:0:0:
256,192,97175,128,0,97271:0:0:0:0:
475,192,97271,128,0,97559:0:0:0:0:
329,192,97271,128,0,97463:0:0:0:0:
36,192,97271,1,0,0:0:0:0:
182,192,97367,128,0,97654:0:0:0:0:
256,192,97463,1,0,0:0:0:0:
36,192,97463,128,0,97750:0:0:0:0:
329,192,97559,128,0,97846:0:0:0:0:
109,192,97654,1,0,0:0:0:0:
402,192,97654,1,0,0:0:0:0:
475,192,97654,128,0,98038:0:0:0:0:
182,192,97750,128,0,97942:0:0:0:0:
256,192,97846,1,0,0:0:0:0:
36,192,97846,128,0,98229:0:0:0:0:
329,192,97942,128,0,98038:0:0:0:0:
256,192,98038,1,0,0:0:0:0:
182,192,98038,128,0,98229:0:0:0:0:
402,192,98038,128,0,98325:0:0:0:0:
109,192,98133,128,0,98421:0:0:0:0:
475,192,98229,1,0,0:0:0:0:
329,192,98229,128,0,98516:0:0:0:0:
182,192,98325,128,0,98612:0:0:0:0:
36,192,98421,1,0,0:0:0:0:
256,192,98421,1,0,0:0:0:0:
402,192,98421,128,0,98708:0:0:0:0:
109,192,98516,128,0,98804:0:0:0:0:
475,192,98612,1,0,0:0:0:0:
329,192,98612,128,0,98804:0:0:0:0:
182,192,98708,128,0,98804:0:0:0:0:
475,192,98804,1,0,0:0:0:0:
36,192,98804,128,0,98900:0:0:0:0:
256,192,98804,128,0,99570:0:0:0:0:
402,192,98804,1,0,0:0:0:0:
109,192,98900,128,0,98995:0:0:0:0:
475,192,98995,128,0,99091:0:0:0:0:
402,192,98995,128,0,99091:0:0:0:0:
182,192,98995,1,0,0:0:0:0:
329,192,99091,128,0,99187:0:0:0:0:
36,192,99187,128,0,99283:0:0:0:0:
182,192,99187,128,0,99283:0:0:0:0:
475,192,99187,1,0,0:0:0:0:
109,192,99283,128,0,99379:0:0:0:0:
182,192,99379,128,0,99474:0:0:0:0:
402,192,99379,128,0,99474:0:0:0:0:
36,192,99379,1,0,0:0:0:0:
475,192,99474,128,0,99570:0:0:0:0:
109,192,99570,128,0,99666:0:0:0:0:
329,192,99570,128,0,100145:0:0:0:0:
36,192,99570,128,0,99666:0:0:0:0:
402,192,99570,1,0,0:0:0:0:
182,192,99666,128,0,99762:0:0:0:0:
475,192,99762,128,0,99857:0:0:0:0:
256,192,99762,128,0,99857:0:0:0:0:
36,192,99762,1,0,0:0:0:0:
182,192,99857,128,0,99953:0:0:0:0:
402,192,99953,128,0,100049:0:0:0:0:
109,192,99953,128,0,100049:0:0:0:0:
475,192,99953,1,0,0:0:0:0:
256,192,100049,128,0,100145:0:0:0:0:
36,192,100145,128,0,100241:0:0:0:0:
402,192,100145,128,0,100241:0:0:0:0:
182,192,100145,1,0,0:0:0:0:
329,192,100241,128,0,100336:0:0:0:0:
475,192,100336,128,0,100432:0:0:0:0:
256,192,100336,128,0,100432:0:0:0:0:
182,192,100336,128,0,101103:0:0:0:0:
36,192,100336,1,0,0:0:0:0:
109,192,100432,128,0,100528:0:0:0:0:
36,192,100528,128,0,100624:0:0:0:0:
402,192,100528,128,0,100624:0:0:0:0:
329,192,100528,1,0,0:0:0:0:
256,192,100624,128,0,100719:0:0:0:0:
475,192,100719,128,0,100815:0:0:0:0:
329,192,100719,128,0,100815:0:0:0:0:
36,192,100719,1,0,0:0:0:0:
109,192,100815,128,0,100911:0:0:0:0:
36,192,100911,128,0,101007:0:0:0:0:
402,192,100911,128,0,101007:0:0:0:0:
256,192,100911,1,0,0:0:0:0:
329,192,101007,128,0,101103:0:0:0:0:
36,192,101103,128,0,101198:0:0:0:0:
475,192,101103,128,0,101198:0:0:0:0:
256,192,101103,128,0,101486:0:0:0:0:
402,192,101103,1,0,0:0:0:0:
109,192,101198,128,0,101294:0:0:0:0:
182,192,101294,128,0,101390:0:0:0:0:
402,192,101294,128,0,101390:0:0:0:0:
329,192,101294,1,0,0:0:0:0:
109,192,101390,128,0,101486:0:0:0:0:
475,192,101486,128,0,101582:0:0:0:0:
329,192,101486,128,0,101869:0:0:0:0:
36,192,101486,128,0,101582:0:0:0:0:
182,192,101486,1,0,0:0:0:0:
256,192,101582,128,0,101677:0:0:0:0:
402,192,101677,128,0,101773:0:0:0:0:
109,192,101677,1,0,0:0:0:0:
182,192,101677,128,0,101869:0:0:0:0:
475,192,101773,128,0,101869:0:0:0:0:
256,192,101869,1,0,0:0:0:0:
36,192,101869,128,0,102156:0:0:0:0:
402,192,101869,128,0,102156:0:0:0:0:
109,192,101965,128,0,102060:0:0:0:0:
329,192,102060,1,0,0:0:0:0:
256,192,102060,128,0,102348:0:0:0:0:
109,192,102156,128,0,102252:0:0:0:0:
182,192,102252,1,0,0:0:0:0:
475,192,102252,1,0,0:0:0:0:
36,192,102252,128,0,102539:0:0:0:0:
402,192,102252,128,0,102348:0:0:0:0:
109,192,102348,128,0,102444:0:0:0:0:
402,192,102444,1,0,0:0:0:0:
256,192,102444,128,0,102539:0:0:0:0:
109,192,102539,128,0,102635:0:0:0:0:
475,192,102635,1,0,0:0:0:0:
36,192,102635,128,0,102731:0:0:0:0:
329,192,102635,128,0,102731:0:0:0:0:
402,192,102635,1,0,0:0:0:0:
182,192,102635,128,0,102923:0:0:0:0:
256,192,102731,128,0,103018:0:0:0:0:
109,192,102827,1,0,0:0:0:0:
329,192,102827,128,0,102923:0:0:0:0:
475,192,102923,128,0,103210:0:0:0:0:
36,192,103018,1,0,0:0:0:0:
402,192,103018,1,0,0:0:0:0:
329,192,103018,128,0,103114:0:0:0:0:
182,192,103018,128,0,103114:0:0:0:0:
256,192,103114,128,0,103210:0:0:0:0:
109,192,103210,1,0,0:0:0:0:
329,192,103210,128,0,103306:0:0:0:0:
475,192,103306,128,0,103401:0:0:0:0:
256,192,103401,1,0,0:0:0:0:
36,192,103401,1,0,0:0:0:0:
329,192,103401,128,0,103593:0:0:0:0:
182,192,103401,128,0,103497:0:0:0:0:
402,192,103401,128,0,103689:0:0:0:0:
109,192,103497,128,0,103785:0:0:0:0:
475,192,103593,1,0,0:0:0:0:
182,192,103593,128,0,103689:0:0:0:0:
329,192,103689,128,0,103976:0:0:0:0:
36,192,103785,1,0,0:0:0:0:
256,192,103785,1,0,0:0:0:0:
182,192,103785,128,0,103880:0:0:0:0:
402,192,103785,128,0,103880:0:0:0:0:
109,192,103880,128,0,103976:0:0:0:0:
402,192,103976,1,0,0:0:0:0:
182,192,103976,128,0,104072:0:0:0:0:
329,192,104072,128,0,104168:0:0:0:0:
182,192,104168,1,0,0:0:0:0:
402,192,104168,128,0,104264:0:0:0:0:
36,192,104168,128,0,104455:0:0:0:0:
475,192,104168,128,0,104455:0:0:0:0:
256,192,104264,128,0,104359:0:0:0:0:
109,192,104359,1,0,0:0:0:0:
402,192,104359,128,0,104647:0:0:0:0:
256,192,104455,128,0,104551:0:0:0:0:
182,192,104551,1,0,0:0:0:0:
329,192,104551,1,0,0:0:0:0:
36,192,104551,128,0,104838:0:0:0:0:
475,192,104551,128,0,104647:0:0:0:0:
256,192,104647,128,0,104742:0:0:0:0:
329,192,104742,1,0,0:0:0:0:
402,192,104742,128,0,104838:0:0:0:0:
256,192,104838,128,0,104934:0:0:0:0:
36,192,104934,128,0,105221:0:0:0:0:
182,192,104934,1,0,0:0:0:0:
475,192,104934,128,0,105221:0:0:0:0:
402,192,104934,1,0,0:0:0:0:
109,192,105030,128,0,105126:0:0:0:0:
329,192,105126,1,0,0:0:0:0:
182,192,105126,128,0,105413:0:0:0:0:
109,192,105221,128,0,105317:0:0:0:0:
256,192,105317,1,0,0:0:0:0:
402,192,105317,1,0,0:0:0:0:
36,192,105317,128,0,105605:0:0:0:0:
475,192,105317,128,0,105413:0:0:0:0:
109,192,105413,128,0,105509:0:0:0:0:
329,192,105509,1,0,0:0:0:0:
182,192,105509,128,0,105605:0:0:0:0:
109,192,105605,128,0,105700:0:0:0:0:
182,192,105700,1,0,0:0:0:0:
36,192,105700,128,0,105796:0:0:0:0:
475,192,105700,128,0,105988:0:0:0:0:
256,192,105700,128,0,105988:0:0:0:0:
402,192,105796,128,0,105892:0:0:0:0:
109,192,105892,1,0,0:0:0:0:
329,192,105892,128,0,106179:0:0:0:0:
402,192,105988,128,0,106083:0:0:0:0:
36,192,106083,1,0,0:0:0:0:
182,192,106083,1,0,0:0:0:0:
475,192,106083,128,0,106371:0:0:0:0:
256,192,106083,128,0,106179:0:0:0:0:
402,192,106179,128,0,106275:0:0:0:0:
256,192,106275,1,0,0:0:0:0:
329,192,106275,128,0,106371:0:0:0:0:
402,192,106371,128,0,106467:0:0:0:0:
182,192,106467,1,0,0:0:0:0:
475,192,106467,128,0,106562:0:0:0:0:
109,192,106467,128,0,106754:0:0:0:0:
36,192,106467,128,0,106754:0:0:0:0:
256,192,106562,128,0,106658:0:0:0:0:
329,192,106658,1,0,0:0:0:0:
402,192,106658,128,0,106946:0:0:0:0:
256,192,106754,128,0,106850:0:0:0:0:
475,192,106850,1,0,0:0:0:0:
182,192,106850,1,0,0:0:0:0:
109,192,106850,128,0,107137:0:0:0:0:
36,192,106850,128,0,106946:0:0:0:0:
256,192,106946,128,0,107041:0:0:0:0:
329,192,107041,1,0,0:0:0:0:
402,192,107041,128,0,107137:0:0:0:0:
256,192,107137,128,0,107233:0:0:0:0:
182,192,107233,1,0,0:0:0:0:
36,192,107233,1,0,0:0:0:0:
109,192,107233,128,0,107329:0:0:0:0:
475,192,107233,128,0,107712:0:0:0:0:
402,192,107233,128,0,107520:0:0:0:0:
329,192,107329,128,0,107616:0:0:0:0:
256,192,107424,1,0,0:0:0:0:
182,192,107424,128,0,107520:0:0:0:0:
36,192,107520,128,0,107999:0:0:0:0:
109,192,107616,1,0,0:0:0:0:
256,192,107616,1,0,0:0:0:0:
182,192,107616,128,0,107903:0:0:0:0:
402,192,107616,128,0,107712:0:0:0:0:
329,192,107712,128,0,107808:0:0:0:0:
256,192,107808,1,0,0:0:0:0:
475,192,107808,128,0,107903:0:0:0:0:
329,192,107903,128,0,107999:0:0:0:0:
402,192,107999,128,0,108287:0:0:0:0:
182,192,107999,128,0,108095:0:0:0:0:
109,192,107999,128,0,108287:0:0:0:0:
329,192,108095,128,0,108191:0:0:0:0:
475,192,108191,1,0,0:0:0:0:
256,192,108191,128,0,108670:0:0:0:0:
329,192,108287,128,0,108574:0:0:0:0:
36,192,108382,1,0,0:0:0:0:
182,192,108382,1,0,0:0:0:0:
402,192,108382,128,0,108478:0:0:0:0:
109,192,108382,128,0,108478:0:0:0:0:
475,192,108478,128,0,108574:0:0:0:0:
109,192,108574,1,0,0:0:0:0:
402,192,108574,128,0,108670:0:0:0:0:
329,192,108670,128,0,108765:0:0:0:0:
182,192,108765,1,0,0:0:0:0:
256,192,108765,128,0,108861:0:0:0:0:
36,192,108765,128,0,109244:0:0:0:0:
475,192,108765,128,0,109053:0:0:0:0:
109,192,108861,128,0,109149:0:0:0:0:
402,192,108957,1,0,0:0:0:0:
182,192,108957,128,0,109053:0:0:0:0:
256,192,109053,128,0,109532:0:0:0:0:
402,192,109149,1,0,0:0:0:0:
329,192,109149,1,0,0:0:0:0:
182,192,109149,128,0,109436:0:0:0:0:
475,192,109149,128,0,109244:0:0:0:0:
109,192,109244,128,0,109340:0:0:0:0:
402,192,109340,1,0,0:0:0:0:
36,192,109340,128,0,109436:0:0:0:0:
109,192,109436,128,0,109532:0:0:0:0:
475,192,109532,1,0,0:0:0:0:
182,192,109532,128,0,109628:0:0:0:0:
402,192,109532,128,0,110011:0:0:0:0:
36,192,109532,128,0,109819:0:0:0:0:
329,192,109628,128,0,109915:0:0:0:0:
256,192,109723,1,0,0:0:0:0:
182,192,109723,128,0,109819:0:0:0:0:
109,192,109819,128,0,110298:0:0:0:0:
475,192,109915,1,0,0:0:0:0:
182,192,109915,128,0,110202:0:0:0:0:
36,192,109915,128,0,110011:0:0:0:0:
256,192,109915,1,0,0:0:0:0:
329,192,110011,128,0,110106:0:0:0:0:
256,192,110106,1,0,0:0:0:0:
402,192,110106,128,0,110202:0:0:0:0:
329,192,110202,128,0,110298:0:0:0:0:
36,192,110298,128,0,110681:0:0:0:0:
402,192,110298,1,0,0:0:0:0:
475,192,110298,1,0,0:0:0:0:
256,192,110298,128,0,110394:0:0:0:0:
182,192,110298,128,0,110585:0:0:0:0:
109,192,110394,128,0,110585:0:0:0:0:
256,192,110490,1,0,0:0:0:0:
402,192,110490,128,0,110585:0:0:0:0:
475,192,110585,128,0,110969:0:0:0:0:
329,192,110681,1,0,0:0:0:0:
256,192,110681,1,0,0:0:0:0:
402,192,110681,128,0,110873:0:0:0:0:
109,192,110681,128,0,110777:0:0:0:0:
182,192,110681,128,0,110777:0:0:0:0:
36,192,110777,128,0,111160:0:0:0:0:
256,192,110873,1,0,0:0:0:0:
109,192,110873,128,0,111256:0:0:0:0:
402,192,110969,128,0,111064:0:0:0:0:
182,192,111064,1,0,0:0:0:0:
475,192,111064,128,0,111447:0:0:0:0:
329,192,111064,128,0,111352:0:0:0:0:
402,192,111160,128,0,111543:0:0:0:0:
256,192,111256,1,0,0:0:0:0:
36,192,111256,128,0,111352:0:0:0:0:
109,192,111352,128,0,111735:0:0:0:0:
256,192,111447,1,0,0:0:0:0:
182,192,111447,1,0,0:0:0:0:
36,192,111447,128,0,111831:0:0:0:0:
329,192,111447,128,0,111543:0:0:0:0:
475,192,111543,128,0,111639:0:0:0:0:
182,192,111639,1,0,0:0:0:0:
402,192,111639,128,0,112118:0:0:0:0:
475,192,111735,128,0,112022:0:0:0:0:
329,192,111831,1,0,0:0:0:0:
109,192,111831,128,0,111926:0:0:0:0:
256,192,111831,128,0,112118:0:0:0:0:
36,192,111926,128,0,112310:0:0:0:0:
182,192,112022,1,0,0:0:0:0:
109,192,112022,128,0,112405:0:0:0:0:
475,192,112118,128,0,112214:0:0:0:0:
329,192,112214,1,0,0:0:0:0:
402,192,112214,128,0,112597:0:0:0:0:
256,192,112214,128,0,112310:0:0:0:0:
475,192,112310,128,0,112788:0:0:0:0:
256,192,112405,1,0,0:0:0:0:
36,192,112405,128,0,112501:0:0:0:0:
109,192,112501,128,0,112693:0:0:0:0:
329,192,112597,1,0,0:0:0:0:
36,192,112597,128,0,112884:0:0:0:0:
182,192,112597,128,0,112884:0:0:0:0:
402,192,112693,128,0,112980:0:0:0:0:
256,192,112788,1,0,0:0:0:0:
109,192,112788,128,0,113076:0:0:0:0:
475,192,112884,128,0,113172:0:0:0:0:
329,192,112980,1,0,0:0:0:0:
36,192,112980,128,0,113267:0:0:0:0:
182,192,112980,128,0,113076:0:0:0:0:
402,192,113076,128,0,113363:0:0:0:0:
256,192,113172,1,0,0:0:0:0:
109,192,113172,128,0,113459:0:0:0:0:
475,192,113267,128,0,113746:0:0:0:0:
182,192,113363,1,0,0:0:0:0:
329,192,113363,1,0,0:0:0:0:
36,192,113363,128,0,113746:0:0:0:0:
256,192,113459,1,0,0:0:0:0:
402,192,113459,128,0,113555:0:0:0:0:
182,192,113555,1,0,0:0:0:0:
329,192,113555,1,0,0:0:0:0:
109,192,113555,128,0,113746:0:0:0:0:
256,192,113651,1,0,0:0:0:0:
402,192,113651,128,0,113746:0:0:0:0:
182,192,113746,1,0,0:0:0:0:
329,192,113746,1,0,0:0:0:0:
109,192,113842,1,0,0:0:0:0:
402,192,113842,1,0,0:0:0:0:
36,192,113938,1,0,0:0:0:0:
475,192,113938,1,0,0:0:0:0:
256,192,113938,1,0,0:0:0:0:
182,192,114034,1,0,0:0:0:0:
329,192,114034,1,0,0:0:0:0:
402,192,114129,1,0,0:0:0:0:
109,192,114129,1,0,0:0:0:0:
36,192,115662,1,0,0:0:0:0:
256,192,115662,1,0,0:0:0:0:
475,192,115662,1,0,0:0:0:0:
402,192,115662,1,0,0:0:0:0:
329,192,115854,1,0,0:0:0:0:
182,192,116045,1,0,0:0:0:0:
329,192,116237,1,0,0:0:0:0:
475,192,116428,1,0,0:0:0:0:
36,192,116428,1,0,0:0:0:0:
256,192,116620,1,0,0:0:0:0:
109,192,116811,1,0,0:0:0:0:
329,192,116811,1,0,0:0:0:0:
182,192,117003,1,0,0:0:0:0:
402,192,117003,1,0,0:0:0:0:
109,192,117195,1,0,0:0:0:0:
256,192,117195,1,0,0:0:0:0:
329,192,117195,1,0,0:0:0:0:
402,192,117386,1,0,0:0:0:0:
182,192,117578,1,0,0:0:0:0:
256,192,117769,1,0,0:0:0:0:
329,192,117961,1,0,0:0:0:0:
36,192,117961,1,0,0:0:0:0:
109,192,117961,1,0,0:0:0:0:
182,192,118152,1,0,0:0:0:0:
402,192,118344,1,0,0:0:0:0:
475,192,118344,1,0,0:0:0:0:
109,192,118344,1,0,0:0:0:0:
182,192,118536,1,0,0:0:0:0:
475,192,118536,1,0,0:0:0:0:
329,192,118536,1,0,0:0:0:0:
36,192,118727,1,0,0:0:0:0:
256,192,118727,1,0,0:0:0:0:
475,192,118727,1,0,0:0:0:0:
402,192,118727,1,0,0:0:0:0:
329,192,118919,1,0,0:0:0:0:
182,192,119110,1,0,0:0:0:0:
475,192,119110,1,0,0:0:0:0:
36,192,119110,1,0,0:0:0:0:
256,192,119302,1,0,0:0:0:0:
109,192,119493,1,0,0:0:0:0:
329,192,119493,1,0,0:0:0:0:
475,192,119493,1,0,0:0:0:0:
256,192,119493,1,0,0:0:0:0:
182,192,119685,1,0,0:0:0:0:
36,192,119877,1,0,0:0:0:0:
256,192,119877,1,0,0:0:0:0:
402,192,119877,1,0,0:0:0:0:
182,192,120068,1,0,0:0:0:0:
109,192,120260,1,0,0:0:0:0:
475,192,120260,1,0,0:0:0:0:
402,192,120260,1,0,0:0:0:0:
256,192,120260,1,0,0:0:0:0:
329,192,120451,1,0,0:0:0:0:
36,192,120643,1,0,0:0:0:0:
256,192,120643,1,0,0:0:0:0:
475,192,120643,1,0,0:0:0:0:
109,192,120643,1,0,0:0:0:0:
402,192,120834,1,0,0:0:0:0:
182,192,121026,1,0,0:0:0:0:
329,192,121026,1,0,0:0:0:0:
256,192,121218,1,0,0:0:0:0:
109,192,121409,128,0,121792:0:0:0:0:
36,192,121409,1,0,0:0:0:0:
256,192,121409,1,0,0:0:0:0:
475,192,121409,1,0,0:0:0:0:
402,192,121409,1,0,0:0:0:0:
402,192,121601,1,0,0:0:0:0:
256,192,121792,128,0,122559:0:0:0:0:
182,192,121792,128,0,121888:0:0:0:0:
475,192,121792,128,0,121888:0:0:0:0:
329,192,121888,128,0,121984:0:0:0:0:
109,192,121888,128,0,121984:0:0:0:0:
402,192,121984,128,0,122080:0:0:0:0:
36,192,121984,128,0,122080:0:0:0:0:
109,192,122080,128,0,122175:0:0:0:0:
475,192,122080,128,0,122175:0:0:0:0:
182,192,122175,128,0,122271:0:0:0:0:
402,192,122175,128,0,122271:0:0:0:0:
329,192,122271,128,0,122367:0:0:0:0:
109,192,122271,128,0,122367:0:0:0:0:
402,192,122367,128,0,122463:0:0:0:0:
36,192,122367,128,0,122463:0:0:0:0:
182,192,122463,128,0,122559:0:0:0:0:
475,192,122463,128,0,122559:0:0:0:0:
109,192,122559,128,0,123133:0:0:0:0:
402,192,122559,128,0,122654:0:0:0:0:
329,192,122559,128,0,122654:0:0:0:0:
256,192,122654,128,0,122750:0:0:0:0:
182,192,122654,128,0,122750:0:0:0:0:
402,192,122750,128,0,122846:0:0:0:0:
475,192,122750,128,0,122846:0:0:0:0:
329,192,122846,128,0,122942:0:0:0:0:
256,192,122846,128,0,122942:0:0:0:0:
182,192,122942,128,0,123038:0:0:0:0:
36,192,122942,128,0,123038:0:0:0:0:
329,192,123038,128,0,123133:0:0:0:0:
402,192,123038,128,0,123133:0:0:0:0:
256,192,123133,128,0,123229:0:0:0:0:
475,192,123133,128,0,123229:0:0:0:0:
329,192,123229,128,0,123325:0:0:0:0:
182,192,123229,128,0,123325:0:0:0:0:
256,192,123325,128,0,124091:0:0:0:0:
36,192,123325,128,0,123421:0:0:0:0:
109,192,123325,128,0,123421:0:0:0:0:
182,192,123421,128,0,123516:0:0:0:0:
329,192,123421,128,0,123516:0:0:0:0:
402,192,123516,128,0,123612:0:0:0:0:
475,192,123516,128,0,123612:0:0:0:0:
182,192,123612,128,0,123708:0:0:0:0:
329,192,123612,128,0,123708:0:0:0:0:
109,192,123708,128,0,123804:0:0:0:0:
36,192,123708,128,0,123804:0:0:0:0:
402,192,123804,128,0,123900:0:0:0:0:
475,192,123804,128,0,123900:0:0:0:0:
182,192,123900,128,0,123995:0:0:0:0:
109,192,123900,128,0,123995:0:0:0:0:
329,192,123995,128,0,124091:0:0:0:0:
402,192,123995,128,0,124091:0:0:0:0:
36,192,124091,128,0,124666:0:0:0:0:
475,192,124091,128,0,124187:0:0:0:0:
109,192,124091,128,0,124187:0:0:0:0:
182,192,124187,128,0,124283:0:0:0:0:
402,192,124187,128,0,124283:0:0:0:0:
329,192,124283,128,0,124379:0:0:0:0:
256,192,124283,128,0,124379:0:0:0:0:
475,192,124379,128,0,124474:0:0:0:0:
402,192,124379,128,0,124474:0:0:0:0:
109,192,124474,128,0,124570:0:0:0:0:
182,192,124474,128,0,124570:0:0:0:0:
256,192,124570,128,0,124666:0:0:0:0:
329,192,124570,128,0,124666:0:0:0:0:
402,192,124666,128,0,124762:0:0:0:0:
475,192,124666,128,0,124762:0:0:0:0:
182,192,124762,128,0,124857:0:0:0:0:
256,192,124762,128,0,124857:0:0:0:0:
329,192,124857,128,0,125432:0:0:0:0:
36,192,124857,128,0,124953:0:0:0:0:
475,192,124857,128,0,124953:0:0:0:0:
109,192,124953,128,0,125145:0:0:0:0:
402,192,124953,128,0,125049:0:0:0:0:
256,192,125049,128,0,125145:0:0:0:0:
182,192,125145,128,0,125241:0:0:0:0:
475,192,125145,128,0,125336:0:0:0:0:
36,192,125241,128,0,125336:0:0:0:0:
256,192,125241,128,0,125336:0:0:0:0:
109,192,125336,128,0,125528:0:0:0:0:
402,192,125336,128,0,125432:0:0:0:0:
256,192,125432,128,0,125528:0:0:0:0:
475,192,125432,128,0,125528:0:0:0:0:
182,192,125528,128,0,125719:0:0:0:0:
329,192,125528,128,0,125624:0:0:0:0:
256,192,125624,128,0,126198:0:0:0:0:
36,192,125624,128,0,125719:0:0:0:0:
402,192,125719,128,0,125911:0:0:0:0:
109,192,125719,128,0,125815:0:0:0:0:
182,192,125815,128,0,125911:0:0:0:0:
475,192,125815,128,0,125911:0:0:0:0:
329,192,125911,128,0,126103:0:0:0:0:
36,192,125911,128,0,126007:0:0:0:0:
109,192,126007,128,0,126103:0:0:0:0:
475,192,126007,128,0,126103:0:0:0:0:
182,192,126103,128,0,126294:0:0:0:0:
402,192,126103,128,0,126198:0:0:0:0:
329,192,126198,128,0,126294:0:0:0:0:
109,192,126198,128,0,126294:0:0:0:0:
402,192,126294,128,0,126486:0:0:0:0:
256,192,126294,128,0,126390:0:0:0:0:
182,192,126390,128,0,126965:0:0:0:0:
36,192,126390,128,0,126486:0:0:0:0:
475,192,126390,128,0,126486:0:0:0:0:
109,192,126486,128,0,126677:0:0:0:0:
256,192,126486,128,0,126582:0:0:0:0:
402,192,126582,128,0,126677:0:0:0:0:
329,192,126677,128,0,126869:0:0:0:0:
36,192,126677,128,0,126773:0:0:0:0:
256,192,126773,128,0,126869:0:0:0:0:
402,192,126773,128,0,126869:0:0:0:0:
475,192,126869,128,0,127060:0:0:0:0:
109,192,126869,128,0,126965:0:0:0:0:
329,192,126965,128,0,127060:0:0:0:0:
36,192,126965,128,0,127060:0:0:0:0:
256,192,127060,128,0,127252:0:0:0:0:
182,192,127060,128,0,127156:0:0:0:0:
109,192,127156,128,0,127827:0:0:0:0:
329,192,127156,128,0,127252:0:0:0:0:
402,192,127252,128,0,127444:0:0:0:0:
475,192,127252,128,0,127348:0:0:0:0:
256,192,127348,128,0,127444:0:0:0:0:
36,192,127348,128,0,127444:0:0:0:0:
182,192,127444,128,0,127635:0:0:0:0:
329,192,127444,128,0,127539:0:0:0:0:
475,192,127539,128,0,127635:0:0:0:0:
256,192,127539,128,0,127635:0:0:0:0:
329,192,127635,128,0,127827:0:0:0:0:
36,192,127635,128,0,127731:0:0:0:0:
182,192,127731,128,0,127827:0:0:0:0:
402,192,127731,128,0,127827:0:0:0:0:
256,192,127827,128,0,127923:0:0:0:0:
475,192,127827,128,0,127923:0:0:0:0:
182,192,127923,128,0,128497:0:0:0:0:
36,192,127923,128,0,128497:0:0:0:0:
402,192,127923,128,0,128018:0:0:0:0:
329,192,127923,128,0,128018:0:0:0:0:
109,192,128018,128,0,128114:0:0:0:0:
256,192,128018,128,0,128114:0:0:0:0:
475,192,128114,128,0,128210:0:0:0:0:
329,192,128114,128,0,128210:0:0:0:0:
109,192,128210,128,0,128306:0:0:0:0:
402,192,128210,128,0,128306:0:0:0:0:
256,192,128306,128,0,128401:0:0:0:0:
475,192,128306,128,0,128401:0:0:0:0:
329,192,128401,128,0,128497:0:0:0:0:
402,192,128401,128,0,128497:0:0:0:0:
109,192,128497,128,0,128593:0:0:0:0:
256,192,128497,128,0,128593:0:0:0:0:
329,192,128593,128,0,128689:0:0:0:0:
475,192,128593,128,0,128689:0:0:0:0:
256,192,128689,128,0,129264:0:0:0:0:
109,192,128689,128,0,129264:0:0:0:0:
36,192,128689,128,0,128785:0:0:0:0:
402,192,128689,128,0,128785:0:0:0:0:
182,192,128785,128,0,128880:0:0:0:0:
329,192,128785,128,0,128880:0:0:0:0:
475,192,128880,128,0,128976:0:0:0:0:
402,192,128880,128,0,128976:0:0:0:0:
329,192,128976,128,0,129072:0:0:0:0:
36,192,128976,128,0,129072:0:0:0:0:
182,192,129072,128,0,129168:0:0:0:0:
402,192,129072,128,0,129168:0:0:0:0:
475,192,129168,128,0,129264:0:0:0:0:
36,192,129168,128,0,129264:0:0:0:0:
329,192,129264,128,0,129359:0:0:0:0:
182,192,129264,128,0,129359:0:0:0:0:
36,192,129359,128,0,129455:0:0:0:0:
256,192,129359,128,0,129455:0:0:0:0:
182,192,129455,128,0,130030:0:0:0:0:
329,192,129455,128,0,130030:0:0:0:0:
475,192,129455,128,0,129551:0:0:0:0:
402,192,129455,128,0,129551:0:0:0:0:
109,192,129551,128,0,129647:0:0:0:0:
256,192,129551,128,0,129647:0:0:0:0:
36,192,129647,128,0,129742:0:0:0:0:
475,192,129647,128,0,129742:0:0:0:0:
109,192,129742,128,0,129838:0:0:0:0:
402,192,129742,128,0,129838:0:0:0:0:
256,192,129838,128,0,129934:0:0:0:0:
36,192,129838,128,0,129934:0:0:0:0:
109,192,129934,128,0,130030:0:0:0:0:
402,192,129934,128,0,130030:0:0:0:0:
256,192,130030,128,0,130126:0:0:0:0:
475,192,130030,128,0,130126:0:0:0:0:
182,192,130126,128,0,130221:0:0:0:0:
329,192,130126,128,0,130221:0:0:0:0:
256,192,130221,128,0,130796:0:0:0:0:
402,192,130221,128,0,130796:0:0:0:0:
36,192,130221,128,0,130317:0:0:0:0:
109,192,130221,128,0,130317:0:0:0:0:
182,192,130317,128,0,130413:0:0:0:0:
329,192,130317,128,0,130413:0:0:0:0:
475,192,130413,128,0,130509:0:0:0:0:
109,192,130413,128,0,130509:0:0:0:0:
36,192,130509,128,0,130605:0:0:0:0:
329,192,130509,128,0,130605:0:0:0:0:
182,192,130605,128,0,130700:0:0:0:0:
475,192,130605,128,0,130700:0:0:0:0:
109,192,130700,128,0,130796:0:0:0:0:
329,192,130700,128,0,130796:0:0:0:0:
182,192,130796,128,0,130892:0:0:0:0:
475,192,130796,128,0,130892:0:0:0:0:
256,192,130892,128,0,130988:0:0:0:0:
36,192,130892,128,0,130988:0:0:0:0:
329,192,130988,128,0,131562:0:0:0:0:
402,192,130988,128,0,131562:0:0:0:0:
109,192,130988,128,0,131083:0:0:0:0:
182,192,130988,128,0,131083:0:0:0:0:
256,192,131083,128,0,131179:0:0:0:0:
475,192,131083,128,0,131179:0:0:0:0:
36,192,131179,128,0,131275:0:0:0:0:
182,192,131179,128,0,131275:0:0:0:0:
109,192,131275,128,0,131371:0:0:0:0:
475,192,131275,128,0,131371:0:0:0:0:
256,192,131371,128,0,131467:0:0:0:0:
36,192,131371,128,0,131467:0:0:0:0:
182,192,131467,128,0,131562:0:0:0:0:
475,192,131467,128,0,131562:0:0:0:0:
109,192,131562,128,0,131658:0:0:0:0:
256,192,131562,128,0,131658:0:0:0:0:
329,192,131658,128,0,131754:0:0:0:0:
402,192,131658,128,0,131754:0:0:0:0:
109,192,131754,128,0,132329:0:0:0:0:
182,192,131754,128,0,132329:0:0:0:0:
256,192,131754,128,0,131850:0:0:0:0:
475,192,131754,128,0,131850:0:0:0:0:
36,192,131850,128,0,131946:0:0:0:0:
329,192,131850,128,0,131946:0:0:0:0:
402,192,131946,128,0,132041:0:0:0:0:
256,192,131946,128,0,132041:0:0:0:0:
475,192,132041,128,0,132137:0:0:0:0:
329,192,132041,128,0,132137:0:0:0:0:
36,192,132137,128,0,132233:0:0:0:0:
402,192,132137,128,0,132233:0:0:0:0:
256,192,132233,128,0,132329:0:0:0:0:
475,192,132233,128,0,132329:0:0:0:0:
329,192,132329,128,0,132424:0:0:0:0:
402,192,132329,128,0,132424:0:0:0:0:
182,192,132424,128,0,132520:0:0:0:0:
109,192,132424,128,0,132520:0:0:0:0:
256,192,132520,128,0,132616:0:0:0:0:
475,192,132520,128,0,132616:0:0:0:0:
36,192,132520,128,0,132616:0:0:0:0:
329,192,132616,128,0,132712:0:0:0:0:
182,192,132616,128,0,132712:0:0:0:0:
109,192,132712,128,0,132808:0:0:0:0:
402,192,132712,128,0,132808:0:0:0:0:
182,192,132808,128,0,132903:0:0:0:0:
329,192,132808,128,0,132903:0:0:0:0:
475,192,132903,128,0,132999:0:0:0:0:
256,192,132903,128,0,132999:0:0:0:0:
36,192,132903,128,0,132999:0:0:0:0:
402,192,132999,128,0,133095:0:0:0:0:
109,192,132999,128,0,133095:0:0:0:0:
182,192,133095,128,0,133191:0:0:0:0:
329,192,133095,128,0,133191:0:0:0:0:
256,192,133191,128,0,133287:0:0:0:0:
36,192,133287,128,0,133478:0:0:0:0:
109,192,133287,128,0,133478:0:0:0:0:
182,192,133287,128,0,133478:0:0:0:0:
475,192,133287,1,0,0:0:0:0:
329,192,133287,1,0,0:0:0:0:
402,192,133287,1,0,0:0:0:0:
329,192,133478,1,0,0:0:0:0:
475,192,133478,1,0,0:0:0:0:
402,192,133478,1,0,0:0:0:0:
329,192,133670,128,0,133861:0:0:0:0:
402,192,133670,128,0,133861:0:0:0:0:
475,192,133670,128,0,133861:0:0:0:0:
109,192,133670,1,0,0:0:0:0:
182,192,133670,1,0,0:0:0:0:
36,192,133670,1,0,0:0:0:0:
36,192,133861,1,0,0:0:0:0:
109,192,133861,1,0,0:0:0:0:
182,192,133861,1,0,0:0:0:0:
36,192,134053,1,0,0:0:0:0:
256,192,134053,1,0,0:0:0:0:
475,192,134053,1,0,0:0:0:0:
402,192,134149,1,0,0:0:0:0:
329,192,134244,1,0,0:0:0:0:
36,192,134244,1,0,0:0:0:0:
109,192,134244,1,0,0:0:0:0:
256,192,134340,1,0,0:0:0:0:
402,192,134436,1,0,0:0:0:0:
182,192,134436,1,0,0:0:0:0:
109,192,134436,1,0,0:0:0:0:
329,192,134532,1,0,0:0:0:0:
256,192,134628,1,0,0:0:0:0:
36,192,134628,1,0,0:0:0:0:
109,192,134628,1,0,0:0:0:0:
182,192,134723,1,0,0:0:0:0:
329,192,134819,1,0,0:0:0:0:
475,192,134819,1,0,0:0:0:0:
36,192,134819,1,0,0:0:0:0:
256,192,134915,1,0,0:0:0:0:
182,192,135011,1,0,0:0:0:0:
402,192,135011,1,0,0:0:0:0:
475,192,135011,1,0,0:0:0:0:
109,192,135106,1,0,0:0:0:0:
256,192,135202,1,0,0:0:0:0:
329,192,135202,1,0,0:0:0:0:
475,192,135202,1,0,0:0:0:0:
182,192,135298,1,0,0:0:0:0:
109,192,135394,1,0,0:0:0:0:
402,192,135394,1,0,0:0:0:0:
36,192,135490,1,0,0:0:0:0:
182,192,135585,1,0,0:0:0:0:
256,192,135585,1,0,0:0:0:0:
475,192,135585,1,0,0:0:0:0:
402,192,135681,1,0,0:0:0:0:
329,192,135681,1,0,0:0:0:0:
109,192,135777,1,0,0:0:0:0:
182,192,135777,1,0,0:0:0:0:
256,192,135873,1,0,0:0:0:0:
475,192,135873,1,0,0:0:0:0:
402,192,135969,1,0,0:0:0:0:
329,192,135969,1,0,0:0:0:0:
36,192,135969,1,0,0:0:0:0:
182,192,135969,1,0,0:0:0:0:
109,192,136064,1,0,0:0:0:0:
256,192,136064,1,0,0:0:0:0:
182,192,136160,1,0,0:0:0:0:
329,192,136160,1,0,0:0:0:0:
256,192,136256,1,0,0:0:0:0:
402,192,136256,1,0,0:0:0:0:
329,192,136352,1,0,0:0:0:0:
475,192,136352,1,0,0:0:0:0:
36,192,136352,1,0,0:0:0:0:
109,192,136352,1,0,0:0:0:0:
182,192,136447,1,0,0:0:0:0:
256,192,136447,1,0,0:0:0:0:
402,192,136543,1,0,0:0:0:0:
329,192,136543,1,0,0:0:0:0:
109,192,136639,1,0,0:0:0:0:
182,192,136639,1,0,0:0:0:0:
256,192,136735,1,0,0:0:0:0:
329,192,136735,1,0,0:0:0:0:
36,192,136735,1,0,0:0:0:0:
402,192,136783,1,0,0:0:0:0:
475,192,136831,1,0,0:0:0:0:
182,192,136831,1,0,0:0:0:0:
109,192,136879,1,0,0:0:0:0:
36,192,136926,1,0,0:0:0:0:
256,192,136926,1,0,0:0:0:0:
329,192,136974,1,0,0:0:0:0:
402,192,137022,1,0,0:0:0:0:
109,192,137022,1,0,0:0:0:0:
182,192,137070,1,0,0:0:0:0:
256,192,137118,128,0,137214:0:0:0:0:
475,192,137118,128,0,137214:0:0:0:0:
36,192,137118,128,0,137405:0:0:0:0:
329,192,137214,128,0,137310:0:0:0:0:
109,192,137214,128,0,137405:0:0:0:0:
402,192,137310,128,0,137405:0:0:0:0:
182,192,137310,128,0,137501:0:0:0:0:
475,192,137405,128,0,137501:0:0:0:0:
256,192,137405,128,0,137597:0:0:0:0:
36,192,137501,128,0,137597:0:0:0:0:
109,192,137501,128,0,137597:0:0:0:0:
329,192,137501,128,0,137693:0:0:0:0:
182,192,137597,128,0,137693:0:0:0:0:
402,192,137597,128,0,137788:0:0:0:0:
475,192,137693,128,0,137788:0:0:0:0:
256,192,137693,128,0,137788:0:0:0:0:
329,192,137788,128,0,137884:0:0:0:0:
109,192,137788,128,0,137884:0:0:0:0:
475,192,137884,128,0,138172:0:0:0:0:
402,192,137884,128,0,138076:0:0:0:0:
36,192,137884,128,0,138172:0:0:0:0:
329,192,137980,128,0,138076:0:0:0:0:
109,192,137980,128,0,138267:0:0:0:0:
182,192,138076,128,0,138172:0:0:0:0:
256,192,138076,128,0,138267:0:0:0:0:
329,192,138172,128,0,138267:0:0:0:0:
402,192,138172,128,0,138363:0:0:0:0:
475,192,138267,128,0,138363:0:0:0:0:
36,192,138267,128,0,138363:0:0:0:0:
182,192,138267,128,0,138363:0:0:0:0:
256,192,138363,128,0,138459:0:0:0:0:
329,192,138363,128,0,138459:0:0:0:0:
402,192,138459,128,0,138555:0:0:0:0:
475,192,138459,128,0,138555:0:0:0:0:
109,192,138555,128,0,138651:0:0:0:0:
329,192,138555,128,0,138651:0:0:0:0:
256,192,138651,128,0,138746:0:0:0:0:
36,192,138651,128,0,138746:0:0:0:0:
475,192,138651,128,0,138938:0:0:0:0:
182,192,138746,128,0,138842:0:0:0:0:
402,192,138746,128,0,138938:0:0:0:0:
109,192,138842,128,0,138938:0:0:0:0:
329,192,138842,128,0,139034:0:0:0:0:
36,192,138938,128,0,139034:0:0:0:0:
256,192,138938,128,0,139129:0:0:0:0:
475,192,139034,128,0,139129:0:0:0:0:
402,192,139034,128,0,139129:0:0:0:0:
182,192,139034,128,0,139225:0:0:0:0:
329,192,139129,128,0,139225:0:0:0:0:
109,192,139129,128,0,139321:0:0:0:0:
36,192,139225,128,0,139321:0:0:0:0:
256,192,139225,128,0,139321:0:0:0:0:
182,192,139321,128,0,139417:0:0:0:0:
402,192,139321,128,0,139417:0:0:0:0:
36,192,139417,128,0,139704:0:0:0:0:
109,192,139417,128,0,139608:0:0:0:0:
475,192,139417,128,0,139704:0:0:0:0:
182,192,139513,128,0,139608:0:0:0:0:
402,192,139513,128,0,139800:0:0:0:0:
329,192,139608,128,0,139704:0:0:0:0:
256,192,139608,128,0,139800:0:0:0:0:
182,192,139704,128,0,139800:0:0:0:0:
109,192,139704,128,0,139896:0:0:0:0:
36,192,139800,128,0,139896:0:0:0:0:
475,192,139800,128,0,139896:0:0:0:0:
329,192,139800,128,0,139896:0:0:0:0:
256,192,139896,128,0,139992:0:0:0:0:
182,192,139896,128,0,139992:0:0:0:0:
109,192,139992,128,0,140087:0:0:0:0:
36,192,139992,128,0,140087:0:0:0:0:
329,192,140087,128,0,140183:0:0:0:0:
256,192,140087,128,0,140183:0:0:0:0:
475,192,140183,128,0,140375:0:0:0:0:
36,192,140183,1,0,0:0:0:0:
109,192,140183,1,0,0:0:0:0:
402,192,140231,128,0,140423:0:0:0:0:
329,192,140279,128,0,140470:0:0:0:0:
256,192,140327,128,0,140518:0:0:0:0:
182,192,140375,128,0,140566:0:0:0:0:
109,192,140423,128,0,140614:0:0:0:0:
36,192,140470,128,0,140662:0:0:0:0:
475,192,140566,128,0,140662:0:0:0:0:
402,192,140566,128,0,140662:0:0:0:0:
329,192,140662,128,0,140758:0:0:0:0:
256,192,140662,128,0,140758:0:0:0:0:
182,192,140758,128,0,140854:0:0:0:0:
109,192,140758,128,0,140854:0:0:0:0:
256,192,140854,128,0,140949:0:0:0:0:
329,192,140854,128,0,140949:0:0:0:0:
36,192,140949,128,0,141141:0:0:0:0:
475,192,140949,1,0,0:0:0:0:
402,192,140949,1,0,0:0:0:0:
109,192,140997,128,0,141189:0:0:0:0:
182,192,141045,128,0,141237:0:0:0:0:
256,192,141093,128,0,141285:0:0:0:0:
329,192,141141,128,0,141333:0:0:0:0:
402,192,141189,128,0,141380:0:0:0:0:
475,192,141237,128,0,141428:0:0:0:0:
36,192,141333,128,0,141428:0:0:0:0:
109,192,141333,128,0,141428:0:0:0:0:
182,192,141428,128,0,141524:0:0:0:0:
256,192,141428,128,0,141524:0:0:0:0:
329,192,141524,128,0,141620:0:0:0:0:
402,192,141524,128,0,141620:0:0:0:0:
182,192,141620,128,0,141716:0:0:0:0:
256,192,141620,128,0,141716:0:0:0:0:
109,192,141716,1,0,0:0:0:0:
36,192,141716,1,0,0:0:0:0:
475,192,141716,128,0,142003:0:0:0:0:
402,192,141764,128,0,142051:0:0:0:0:
329,192,141811,128,0,142099:0:0:0:0:
256,192,141859,128,0,142147:0:0:0:0:
182,192,141907,128,0,142195:0:0:0:0:
109,192,141955,128,0,142242:0:0:0:0:
36,192,142003,128,0,142290:0:0:0:0:
475,192,142099,128,0,142674:0:0:0:0:
402,192,142147,128,0,142626:0:0:0:0:
329,192,142195,128,0,142578:0:0:0:0:
256,192,142242,128,0,142530:0:0:0:0:
182,192,142290,128,0,142482:0:0:0:0:
109,192,142338,128,0,142434:0:0:0:0:
36,192,142386,1,0,0:0:0:0:
36,192,142482,128,0,142674:0:0:0:0:
109,192,142530,128,0,142721:0:0:0:0:
182,192,142578,128,0,142769:0:0:0:0:
256,192,142626,128,0,142817:0:0:0:0:
329,192,142674,128,0,142865:0:0:0:0:
402,192,142721,128,0,142913:0:0:0:0:
475,192,142769,128,0,142961:0:0:0:0:
36,192,142769,128,0,142865:0:0:0:0:
109,192,142817,128,0,142913:0:0:0:0:
182,192,142865,128,0,142961:0:0:0:0:
256,192,142913,128,0,143009:0:0:0:0:
329,192,142961,128,0,143057:0:0:0:0:
36,192,142961,1,0,0:0:0:0:
402,192,143009,128,0,143105:0:0:0:0:
109,192,143009,1,0,0:0:0:0:
475,192,143057,128,0,143152:0:0:0:0:
182,192,143057,1,0,0:0:0:0:
256,192,143105,1,0,0:0:0:0:
329,192,143152,1,0,0:0:0:0:
402,192,143200,1,0,0:0:0:0:
475,192,143248,1,0,0:0:0:0:
109,192,143248,128,0,143536:0:0:0:0:
36,192,143248,128,0,143536:0:0:0:0:
182,192,143248,1,0,0:0:0:0:
256,192,143248,1,0,0:0:0:0:
329,192,143344,128,0,143440:0:0:0:0:
402,192,143344,128,0,143440:0:0:0:0:
182,192,143440,128,0,143727:0:0:0:0:
256,192,143440,128,0,143727:0:0:0:0:
402,192,143536,128,0,143631:0:0:0:0:
475,192,143536,128,0,143631:0:0:0:0:
109,192,143631,128,0,143919:0:0:0:0:
36,192,143631,128,0,143919:0:0:0:0:
329,192,143727,128,0,143823:0:0:0:0:
402,192,143727,128,0,143823:0:0:0:0:
182,192,143823,128,0,144110:0:0:0:0:
256,192,143823,128,0,144110:0:0:0:0:
402,192,143919,128,0,144015:0:0:0:0:
475,192,143919,128,0,144015:0:0:0:0:
36,192,144015,128,0,144302:0:0:0:0:
109,192,144015,128,0,144302:0:0:0:0:
329,192,144110,128,0,144206:0:0:0:0:
402,192,144110,128,0,144206:0:0:0:0:
182,192,144206,128,0,144398:0:0:0:0:
256,192,144206,128,0,144398:0:0:0:0:
402,192,144302,128,0,144398:0:0:0:0:
475,192,144302,128,0,144398:0:0:0:0:
36,192,144398,1,0,0:0:0:0:
329,192,144398,128,0,144493:0:0:0:0:
109,192,144398,128,0,144781:0:0:0:0:
402,192,144493,128,0,144589:0:0:0:0:
182,192,144493,128,0,144781:0:0:0:0:
475,192,144589,128,0,144685:0:0:0:0:
256,192,144589,128,0,144781:0:0:0:0:
329,192,144685,128,0,144781:0:0:0:0:
36,192,144685,128,0,144781:0:0:0:0:
475,192,144781,128,0,145068:0:0:0:0:
402,192,144781,128,0,145068:0:0:0:0:
109,192,144877,128,0,144972:0:0:0:0:
182,192,144877,128,0,144972:0:0:0:0:
256,192,144972,128,0,145260:0:0:0:0:
329,192,144972,128,0,145260:0:0:0:0:
109,192,145068,128,0,145164:0:0:0:0:
36,192,145068,128,0,145164:0:0:0:0:
475,192,145164,128,0,145451:0:0:0:0:
402,192,145164,128,0,145451:0:0:0:0:
109,192,145260,128,0,145356:0:0:0:0:
182,192,145260,128,0,145356:0:0:0:0:
256,192,145356,128,0,145643:0:0:0:0:
329,192,145356,128,0,145643:0:0:0:0:
36,192,145451,128,0,145547:0:0:0:0:
109,192,145451,128,0,145547:0:0:0:0:
402,192,145547,128,0,145834:0:0:0:0:
475,192,145547,128,0,145834:0:0:0:0:
182,192,145643,128,0,145739:0:0:0:0:
109,192,145643,128,0,145739:0:0:0:0:
256,192,145739,128,0,145930:0:0:0:0:
329,192,145739,128,0,145930:0:0:0:0:
36,192,145834,128,0,145930:0:0:0:0:
109,192,145834,128,0,145930:0:0:0:0:
475,192,145930,1,0,0:0:0:0:
182,192,145930,128,0,146026:0:0:0:0:
402,192,145930,128,0,146313:0:0:0:0:
329,192,146026,128,0,146313:0:0:0:0:
109,192,146026,128,0,146122:0:0:0:0:
256,192,146122,128,0,146313:0:0:0:0:
36,192,146122,128,0,146218:0:0:0:0:
182,192,146218,128,0,146313:0:0:0:0:
475,192,146218,128,0,146313:0:0:0:0:
36,192,146313,128,0,146792:0:0:0:0:
109,192,146313,128,0,146505:0:0:0:0:
182,192,146409,128,0,146505:0:0:0:0:
256,192,146409,128,0,146601:0:0:0:0:
329,192,146505,128,0,146601:0:0:0:0:
402,192,146505,128,0,146697:0:0:0:0:
109,192,146601,128,0,146792:0:0:0:0:
182,192,146601,128,0,146888:0:0:0:0:
256,192,146697,128,0,146888:0:0:0:0:
329,192,146697,128,0,146984:0:0:0:0:
402,192,146792,128,0,146984:0:0:0:0:
475,192,146792,128,0,147271:0:0:0:0:
109,192,146888,128,0,147175:0:0:0:0:
36,192,146888,128,0,147175:0:0:0:0:
182,192,146984,128,0,147080:0:0:0:0:
256,192,146984,128,0,147080:0:0:0:0:
329,192,147080,128,0,147367:0:0:0:0:
402,192,147080,128,0,147271:0:0:0:0:
256,192,147175,128,0,147367:0:0:0:0:
182,192,147175,128,0,147463:0:0:0:0:
36,192,147271,128,0,147750:0:0:0:0:
109,192,147271,128,0,147463:0:0:0:0:
475,192,147367,128,0,147846:0:0:0:0:
402,192,147367,128,0,147559:0:0:0:0:
329,192,147463,128,0,147559:0:0:0:0:
256,192,147463,128,0,147654:0:0:0:0:
182,192,147559,128,0,147654:0:0:0:0:
109,192,147559,128,0,147750:0:0:0:0:
402,192,147654,128,0,147846:0:0:0:0:
329,192,147654,128,0,147942:0:0:0:0:
256,192,147750,128,0,147942:0:0:0:0:
182,192,147750,128,0,148038:0:0:0:0:
109,192,147846,128,0,148038:0:0:0:0:
36,192,147846,128,0,148325:0:0:0:0:
475,192,147942,128,0,148229:0:0:0:0:
402,192,147942,128,0,148229:0:0:0:0:
329,192,148038,128,0,148133:0:0:0:0:
256,192,148038,128,0,148133:0:0:0:0:
109,192,148133,128,0,148325:0:0:0:0:
182,192,148133,128,0,148421:0:0:0:0:
256,192,148229,128,0,148421:0:0:0:0:
329,192,148229,128,0,148516:0:0:0:0:
402,192,148325,128,0,148516:0:0:0:0:
475,192,148325,128,0,148804:0:0:0:0:
36,192,148421,128,0,148900:0:0:0:0:
109,192,148421,128,0,148612:0:0:0:0:
182,192,148516,128,0,148612:0:0:0:0:
256,192,148516,128,0,148708:0:0:0:0:
329,192,148612,128,0,148708:0:0:0:0:
402,192,148612,128,0,148804:0:0:0:0:
109,192,148708,128,0,148900:0:0:0:0:
182,192,148708,128,0,148995:0:0:0:0:
329,192,148804,128,0,149091:0:0:0:0:
256,192,148804,128,0,148995:0:0:0:0:
402,192,148900,128,0,149091:0:0:0:0:
475,192,148900,128,0,149283:0:0:0:0:
109,192,148995,128,0,149283:0:0:0:0:
36,192,148995,128,0,149283:0:0:0:0:
182,192,149091,128,0,149187:0:0:0:0:
256,192,149091,128,0,149187:0:0:0:0:
329,192,149187,128,0,149379:0:0:0:0:
402,192,149187,128,0,149283:0:0:0:0:
256,192,149283,128,0,149379:0:0:0:0:
182,192,149283,128,0,149379:0:0:0:0:
475,192,149379,1,0,0:0:0:0:
402,192,149379,1,0,0:0:0:0:
36,192,149379,128,0,149762:0:0:0:0:
109,192,149426,128,0,149714:0:0:0:0:
182,192,149474,128,0,149666:0:0:0:0:
256,192,149522,128,0,149618:0:0:0:0:
329,192,149570,128,0,149810:0:0:0:0:
402,192,149618,128,0,150001:0:0:0:0:
475,192,149666,128,0,150193:0:0:0:0:
256,192,149714,128,0,149857:0:0:0:0:
182,192,149762,128,0,149905:0:0:0:0:
109,192,149810,128,0,149953:0:0:0:0:
36,192,149857,128,0,150480:0:0:0:0:
329,192,149905,128,0,150049:0:0:0:0:
256,192,149953,128,0,150097:0:0:0:0:
182,192,150001,128,0,150145:0:0:0:0:
109,192,150049,128,0,150432:0:0:0:0:
402,192,150097,128,0,150241:0:0:0:0:
329,192,150145,128,0,150288:0:0:0:0:
256,192,150193,128,0,150336:0:0:0:0:
182,192,150241,128,0,150384:0:0:0:0:
475,192,150288,128,0,150528:0:0:0:0:
402,192,150336,128,0,150576:0:0:0:0:
329,192,150384,128,0,150624:0:0:0:0:
256,192,150432,128,0,150672:0:0:0:0:
182,192,150480,128,0,150719:0:0:0:0:
109,192,150528,128,0,150767:0:0:0:0:
36,192,150576,128,0,150815:0:0:0:0:
475,192,150624,128,0,150719:0:0:0:0:
402,192,150672,128,0,150767:0:0:0:0:
329,192,150719,128,0,150815:0:0:0:0:
256,192,150767,128,0,150863:0:0:0:0:
182,192,150815,128,0,150911:0:0:0:0:
109,192,150863,128,0,150959:0:0:0:0:
36,192,150911,128,0,151007:0:0:0:0:
329,192,150911,128,0,151246:0:0:0:0:
475,192,150911,128,0,150959:0:0:0:0:
402,192,151007,128,0,151055:0:0:0:0:
182,192,151007,128,0,151055:0:0:0:0:
109,192,151103,128,0,151246:0:0:0:0:
256,192,151103,128,0,151151:0:0:0:0:
475,192,151198,128,0,151246:0:0:0:0:
36,192,151198,128,0,151246:0:0:0:0:
182,192,151294,128,0,151629:0:0:0:0:
109,192,151294,128,0,151342:0:0:0:0:
329,192,151294,128,0,151342:0:0:0:0:
256,192,151390,128,0,151438:0:0:0:0:
36,192,151390,128,0,151438:0:0:0:0:
402,192,151486,128,0,151629:0:0:0:0:
329,192,151486,128,0,151534:0:0:0:0:
109,192,151582,128,0,151629:0:0:0:0:
402,192,151677,128,0,151725:0:0:0:0:
256,192,151677,128,0,152013:0:0:0:0:
182,192,151677,128,0,151725:0:0:0:0:
475,192,151773,128,0,151821:0:0:0:0:
36,192,151773,128,0,151821:0:0:0:0:
329,192,151869,128,0,151917:0:0:0:0:
109,192,151869,128,0,152013:0:0:0:0:
402,192,151965,128,0,152013:0:0:0:0:
182,192,151965,128,0,152013:0:0:0:0:
256,192,152060,128,0,152108:0:0:0:0:
109,192,152060,128,0,152108:0:0:0:0:
475,192,152060,128,0,152396:0:0:0:0:
402,192,152156,128,0,152204:0:0:0:0:
36,192,152156,128,0,152204:0:0:0:0:
182,192,152252,128,0,152396:0:0:0:0:
329,192,152252,128,0,152300:0:0:0:0:
256,192,152348,128,0,152396:0:0:0:0:
402,192,152348,128,0,152396:0:0:0:0:
36,192,152444,128,0,152539:0:0:0:0:
475,192,152444,128,0,152539:0:0:0:0:
109,192,152492,128,0,152587:0:0:0:0:
402,192,152492,128,0,152587:0:0:0:0:
182,192,152539,128,0,152635:0:0:0:0:
329,192,152539,128,0,152635:0:0:0:0:
256,192,152587,128,0,152683:0:0:0:0:
475,192,152635,128,0,152683:0:0:0:0:
36,192,152635,128,0,152683:0:0:0:0:
402,192,152683,128,0,152731:0:0:0:0:
109,192,152683,128,0,152731:0:0:0:0:
329,192,152731,128,0,152779:0:0:0:0:
182,192,152731,128,0,152779:0:0:0:0:
256,192,152779,128,0,152827:0:0:0:0:
109,192,152827,128,0,152923:0:0:0:0:
402,192,152827,128,0,152923:0:0:0:0:
329,192,152923,128,0,153114:0:0:0:0:
182,192,152923,128,0,153114:0:0:0:0:
36,192,153018,128,0,153114:0:0:0:0:
475,192,153018,128,0,153114:0:0:0:0:
109,192,153114,128,0,153210:0:0:0:0:
402,192,153114,128,0,153210:0:0:0:0:
256,192,153210,128,0,153258:0:0:0:0:
182,192,153258,128,0,153306:0:0:0:0:
329,192,153258,128,0,153306:0:0:0:0:
109,192,153306,128,0,153354:0:0:0:0:
402,192,153306,128,0,153354:0:0:0:0:
36,192,153354,128,0,153401:0:0:0:0:
475,192,153354,128,0,153401:0:0:0:0:
256,192,153401,128,0,153497:0:0:0:0:
182,192,153449,128,0,153545:0:0:0:0:
329,192,153449,128,0,153545:0:0:0:0:
109,192,153497,128,0,153593:0:0:0:0:
402,192,153497,128,0,153593:0:0:0:0:
36,192,153545,128,0,153641:0:0:0:0:
475,192,153545,128,0,153641:0:0:0:0:
256,192,153593,128,0,153689:0:0:0:0:
109,192,153689,128,0,153880:0:0:0:0:
402,192,153689,128,0,153880:0:0:0:0:
36,192,153785,128,0,153880:0:0:0:0:
475,192,153785,128,0,153880:0:0:0:0:
182,192,153880,128,0,153976:0:0:0:0:
329,192,153880,128,0,153976:0:0:0:0:
36,192,153976,128,0,154264:0:0:0:0:
475,192,153976,1,0,0:0:0:0:
402,192,153976,1,0,0:0:0:0:
109,192,154024,128,0,154311:0:0:0:0:
182,192,154072,128,0,154359:0:0:0:0:
256,192,154120,128,0,154407:0:0:0:0:
329,192,154168,128,0,154455:0:0:0:0:
402,192,154216,128,0,154503:0:0:0:0:
475,192,154264,128,0,154551:0:0:0:0:
36,192,154359,128,0,154934:0:0:0:0:
109,192,154407,128,0,154886:0:0:0:0:
182,192,154455,128,0,154838:0:0:0:0:
256,192,154503,128,0,154790:0:0:0:0:
329,192,154551,128,0,154742:0:0:0:0:
402,192,154599,128,0,154695:0:0:0:0:
475,192,154647,1,0,0:0:0:0:
475,192,154742,128,0,154934:0:0:0:0:
402,192,154790,128,0,154982:0:0:0:0:
329,192,154838,128,0,155030:0:0:0:0:
256,192,154886,128,0,155078:0:0:0:0:
182,192,154934,128,0,155126:0:0:0:0:
109,192,154982,128,0,155174:0:0:0:0:
475,192,155030,128,0,155126:0:0:0:0:
36,192,155030,128,0,155221:0:0:0:0:
402,192,155078,128,0,155174:0:0:0:0:
329,192,155126,128,0,155221:0:0:0:0:
256,192,155174,128,0,155269:0:0:0:0:
182,192,155221,128,0,155317:0:0:0:0:
475,192,155221,1,0,0:0:0:0:
109,192,155269,128,0,155365:0:0:0:0:
402,192,155269,1,0,0:0:0:0:
329,192,155317,1,0,0:0:0:0:
36,192,155317,128,0,155413:0:0:0:0:
256,192,155365,1,0,0:0:0:0:
182,192,155413,1,0,0:0:0:0:
109,192,155461,1,0,0:0:0:0:
36,192,155509,1,0,0:0:0:0:
329,192,155509,128,0,155844:0:0:0:0:
475,192,155509,128,0,155605:0:0:0:0:
402,192,155509,128,0,155605:0:0:0:0:
182,192,155605,128,0,155700:0:0:0:0:
256,192,155605,128,0,155700:0:0:0:0:
36,192,155700,128,0,155796:0:0:0:0:
402,192,155700,128,0,155796:0:0:0:0:
109,192,155700,128,0,156036:0:0:0:0:
182,192,155796,128,0,155892:0:0:0:0:
475,192,155796,128,0,155892:0:0:0:0:
256,192,155892,128,0,156227:0:0:0:0:
36,192,155892,128,0,155988:0:0:0:0:
329,192,155892,128,0,155988:0:0:0:0:
182,192,155988,128,0,156083:0:0:0:0:
475,192,155988,128,0,156083:0:0:0:0:
402,192,156083,128,0,156419:0:0:0:0:
109,192,156083,128,0,156179:0:0:0:0:
329,192,156083,128,0,156179:0:0:0:0:
36,192,156179,128,0,156275:0:0:0:0:
182,192,156275,128,0,156610:0:0:0:0:
256,192,156275,128,0,156371:0:0:0:0:
475,192,156275,128,0,156371:0:0:0:0:
109,192,156371,128,0,156467:0:0:0:0:
329,192,156371,128,0,156467:0:0:0:0:
36,192,156467,128,0,156802:0:0:0:0:
402,192,156467,128,0,156562:0:0:0:0:
475,192,156467,128,0,156562:0:0:0:0:
256,192,156562,128,0,156658:0:0:0:0:
329,192,156562,128,0,156658:0:0:0:0:
182,192,156658,128,0,156754:0:0:0:0:
402,192,156658,128,0,156993:0:0:0:0:
109,192,156658,128,0,156754:0:0:0:0:
329,192,156754,128,0,156850:0:0:0:0:
475,192,156754,128,0,156850:0:0:0:0:
256,192,156850,128,0,157185:0:0:0:0:
36,192,156850,128,0,156946:0:0:0:0:
109,192,156850,128,0,156946:0:0:0:0:
182,192,156946,128,0,157041:0:0:0:0:
329,192,156946,128,0,157041:0:0:0:0:
109,192,157041,128,0,157377:0:0:0:0:
475,192,157041,128,0,157137:0:0:0:0:
402,192,157041,128,0,157137:0:0:0:0:
329,192,157137,128,0,157233:0:0:0:0:
182,192,157137,128,0,157233:0:0:0:0:
256,192,157233,128,0,157329:0:0:0:0:
402,192,157233,128,0,157568:0:0:0:0:
475,192,157233,128,0,157329:0:0:0:0:
182,192,157329,128,0,157424:0:0:0:0:
329,192,157329,128,0,157424:0:0:0:0:
109,192,157424,128,0,157520:0:0:0:0:
36,192,157424,128,0,157760:0:0:0:0:
256,192,157424,128,0,157520:0:0:0:0:
182,192,157520,128,0,157616:0:0:0:0:
475,192,157520,128,0,157616:0:0:0:0:
329,192,157616,128,0,157951:0:0:0:0:
402,192,157616,128,0,157712:0:0:0:0:
256,192,157616,128,0,157712:0:0:0:0:
109,192,157712,128,0,157808:0:0:0:0:
475,192,157712,128,0,157808:0:0:0:0:
182,192,157808,128,0,158143:0:0:0:0:
36,192,157808,128,0,157903:0:0:0:0:
256,192,157808,128,0,157903:0:0:0:0:
109,192,157903,128,0,157999:0:0:0:0:
475,192,157903,128,0,157999:0:0:0:0:
402,192,157999,128,0,158334:0:0:0:0:
256,192,157999,128,0,158095:0:0:0:0:
329,192,157999,128,0,158095:0:0:0:0:
36,192,158095,128,0,158191:0:0:0:0:
475,192,158095,128,0,158191:0:0:0:0:
109,192,158191,128,0,158526:0:0:0:0:
182,192,158191,128,0,158287:0:0:0:0:
329,192,158191,128,0,158287:0:0:0:0:
475,192,158287,128,0,158382:0:0:0:0:
256,192,158287,128,0,158382:0:0:0:0:
329,192,158382,128,0,158574:0:0:0:0:
402,192,158382,128,0,158478:0:0:0:0:
182,192,158382,128,0,158478:0:0:0:0:
256,192,158478,128,0,158574:0:0:0:0:
36,192,158478,128,0,158574:0:0:0:0:
109,192,158574,128,0,158670:0:0:0:0:
182,192,158574,128,0,158670:0:0:0:0:
475,192,158574,128,0,158861:0:0:0:0:
402,192,158670,128,0,158957:0:0:0:0:
329,192,158670,128,0,158718:0:0:0:0:
256,192,158765,128,0,159053:0:0:0:0:
109,192,158765,128,0,158813:0:0:0:0:
36,192,158861,128,0,159149:0:0:0:0:
182,192,158861,128,0,158909:0:0:0:0:
109,192,158957,128,0,159244:0:0:0:0:
475,192,158957,128,0,159005:0:0:0:0:
402,192,159053,128,0,159340:0:0:0:0:
182,192,159053,128,0,159101:0:0:0:0:
256,192,159149,128,0,159197:0:0:0:0:
329,192,159149,128,0,159436:0:0:0:0:
36,192,159244,128,0,159292:0:0:0:0:
475,192,159244,128,0,159532:0:0:0:0:
109,192,159340,128,0,159388:0:0:0:0:
256,192,159340,128,0,159628:0:0:0:0:
402,192,159436,128,0,159484:0:0:0:0:
182,192,159436,128,0,159723:0:0:0:0:
329,192,159532,128,0,159580:0:0:0:0:
36,192,159532,128,0,159819:0:0:0:0:
475,192,159628,128,0,159675:0:0:0:0:
402,192,159628,128,0,159915:0:0:0:0:
109,192,159723,128,0,160011:0:0:0:0:
256,192,159723,128,0,159771:0:0:0:0:
329,192,159819,128,0,160106:0:0:0:0:
475,192,159819,128,0,159867:0:0:0:0:
182,192,159915,128,0,160202:0:0:0:0:
36,192,159915,128,0,159963:0:0:0:0:
256,192,160011,128,0,160298:0:0:0:0:
402,192,160011,128,0,160059:0:0:0:0:
109,192,160106,128,0,160154:0:0:0:0:
475,192,160106,128,0,160394:0:0:0:0:
329,192,160202,128,0,160250:0:0:0:0:
36,192,160202,128,0,160490:0:0:0:0:
182,192,160298,128,0,160346:0:0:0:0:
402,192,160298,128,0,160585:0:0:0:0:
256,192,160394,128,0,160442:0:0:0:0:
109,192,160394,128,0,160681:0:0:0:0:
329,192,160490,128,0,160777:0:0:0:0:
475,192,160490,128,0,160538:0:0:0:0:
182,192,160585,128,0,160873:0:0:0:0:
36,192,160585,128,0,160633:0:0:0:0:
256,192,160681,128,0,160969:0:0:0:0:
402,192,160681,128,0,160729:0:0:0:0:
109,192,160777,128,0,160825:0:0:0:0:
475,192,160777,128,0,161064:0:0:0:0:
329,192,160873,128,0,160921:0:0:0:0:
402,192,160873,128,0,161160:0:0:0:0:
182,192,160969,128,0,161016:0:0:0:0:
36,192,160969,128,0,161256:0:0:0:0:
256,192,161064,128,0,161112:0:0:0:0:
109,192,161064,128,0,161352:0:0:0:0:
329,192,161160,128,0,161447:0:0:0:0:
475,192,161160,128,0,161208:0:0:0:0:
256,192,161256,128,0,161543:0:0:0:0:
402,192,161256,128,0,161304:0:0:0:0:
182,192,161352,128,0,161639:0:0:0:0:
36,192,161352,128,0,161400:0:0:0:0:
475,192,161447,128,0,161639:0:0:0:0:
109,192,161447,128,0,161495:0:0:0:0:
329,192,161543,128,0,161591:0:0:0:0:
36,192,161543,128,0,161639:0:0:0:0:
402,192,161639,128,0,161735:0:0:0:0:
256,192,161639,128,0,161831:0:0:0:0:
109,192,161639,128,0,162022:0:0:0:0:
329,192,161735,128,0,161926:0:0:0:0:
36,192,161735,128,0,161926:0:0:0:0:
402,192,161831,128,0,162022:0:0:0:0:
182,192,161831,128,0,162118:0:0:0:0:
475,192,161926,128,0,162118:0:0:0:0:
256,192,161926,128,0,162214:0:0:0:0:
329,192,162022,128,0,162597:0:0:0:0:
36,192,162022,128,0,162214:0:0:0:0:
402,192,162118,128,0,162501:0:0:0:0:
109,192,162118,128,0,162310:0:0:0:0:
475,192,162214,128,0,162405:0:0:0:0:
182,192,162214,128,0,162405:0:0:0:0:
256,192,162310,1,0,0:0:0:0:
36,192,162310,128,0,162693:0:0:0:0:
256,192,162405,128,0,162501:0:0:0:0:
109,192,162405,128,0,162597:0:0:0:0:
182,192,162501,128,0,162884:0:0:0:0:
475,192,162501,128,0,162788:0:0:0:0:
256,192,162597,128,0,162980:0:0:0:0:
402,192,162597,128,0,162693:0:0:0:0:
329,192,162693,128,0,163172:0:0:0:0:
109,192,162693,128,0,162788:0:0:0:0:
402,192,162788,128,0,162884:0:0:0:0:
36,192,162788,128,0,163172:0:0:0:0:
475,192,162884,128,0,163267:0:0:0:0:
109,192,162884,128,0,162980:0:0:0:0:
402,192,162980,128,0,163076:0:0:0:0:
182,192,162980,128,0,163363:0:0:0:0:
109,192,163076,1,0,0:0:0:0:
256,192,163076,128,0,163267:0:0:0:0:
109,192,163172,128,0,163459:0:0:0:0:
402,192,163172,128,0,163363:0:0:0:0:
36,192,163267,128,0,163555:0:0:0:0:
329,192,163267,128,0,163459:0:0:0:0:
256,192,163363,128,0,163555:0:0:0:0:
475,192,163363,128,0,163651:0:0:0:0:
182,192,163459,128,0,163651:0:0:0:0:
402,192,163459,128,0,163746:0:0:0:0:
109,192,163555,128,0,163746:0:0:0:0:
329,192,163555,128,0,163938:0:0:0:0:
36,192,163651,128,0,163842:0:0:0:0:
256,192,163651,128,0,164129:0:0:0:0:
182,192,163746,128,0,164034:0:0:0:0:
475,192,163746,128,0,164129:0:0:0:0:
402,192,163842,1,0,0:0:0:0:
109,192,163842,128,0,163938:0:0:0:0:
402,192,163938,128,0,164034:0:0:0:0:
36,192,163938,128,0,164225:0:0:0:0:
109,192,164034,128,0,164321:0:0:0:0:
329,192,164034,128,0,164225:0:0:0:0:
182,192,164129,128,0,164417:0:0:0:0:
402,192,164129,128,0,164321:0:0:0:0:
475,192,164225,128,0,164417:0:0:0:0:
256,192,164225,128,0,164704:0:0:0:0:
329,192,164321,128,0,164608:0:0:0:0:
36,192,164321,128,0,164513:0:0:0:0:
402,192,164417,128,0,164513:0:0:0:0:
109,192,164417,128,0,164513:0:0:0:0:
475,192,164513,128,0,165087:0:0:0:0:
182,192,164513,128,0,164704:0:0:0:0:
109,192,164608,1,0,0:0:0:0:
402,192,164608,128,0,164800:0:0:0:0:
36,192,164608,1,0,0:0:0:0:
329,192,164704,128,0,164800:0:0:0:0:
109,192,164704,128,0,164896:0:0:0:0:
36,192,164704,128,0,165183:0:0:0:0:
182,192,164800,128,0,164896:0:0:0:0:
256,192,164800,128,0,164992:0:0:0:0:
329,192,164896,128,0,164992:0:0:0:0:
402,192,164896,128,0,165087:0:0:0:0:
109,192,164992,128,0,165183:0:0:0:0:
182,192,164992,128,0,165279:0:0:0:0:
256,192,165087,128,0,165279:0:0:0:0:
329,192,165087,128,0,165470:0:0:0:0:
402,192,165183,128,0,165470:0:0:0:0:
475,192,165183,128,0,165758:0:0:0:0:
109,192,165279,128,0,165662:0:0:0:0:
36,192,165279,128,0,165662:0:0:0:0:
182,192,165375,1,0,0:0:0:0:
256,192,165375,1,0,0:0:0:0:
256,192,165470,128,0,165566:0:0:0:0:
182,192,165470,128,0,165566:0:0:0:0:
402,192,165566,128,0,165758:0:0:0:0:
329,192,165566,128,0,165854:0:0:0:0:
182,192,165662,128,0,165949:0:0:0:0:
256,192,165662,128,0,165854:0:0:0:0:
36,192,165758,128,0,166333:0:0:0:0:
109,192,165758,128,0,165949:0:0:0:0:
402,192,165854,128,0,166045:0:0:0:0:
475,192,165854,128,0,166428:0:0:0:0:
256,192,165949,128,0,166237:0:0:0:0:
329,192,165949,128,0,166045:0:0:0:0:
109,192,166045,128,0,166333:0:0:0:0:
182,192,166045,128,0,166237:0:0:0:0:
402,192,166141,1,0,0:0:0:0:
329,192,166141,1,0,0:0:0:0:
402,192,166237,128,0,166428:0:0:0:0:
329,192,166237,128,0,166524:0:0:0:0:
256,192,166333,128,0,166524:0:0:0:0:
182,192,166333,128,0,166620:0:0:0:0:
109,192,166428,128,0,166620:0:0:0:0:
36,192,166428,128,0,166907:0:0:0:0:
402,192,166524,128,0,166811:0:0:0:0:
475,192,166524,128,0,166811:0:0:0:0:
256,192,166620,128,0,166716:0:0:0:0:
329,192,166620,128,0,166716:0:0:0:0:
182,192,166716,128,0,166907:0:0:0:0:
109,192,166716,128,0,166907:0:0:0:0:
256,192,166811,128,0,166907:0:0:0:0:
329,192,166811,128,0,166907:0:0:0:0:
475,192,166907,1,0,0:0:0:0:
402,192,166907,1,0,0:0:0:0:
475,192,167003,128,0,167290:0:0:0:0:
256,192,167003,128,0,167578:0:0:0:0:
36,192,167003,1,0,0:0:0:0:
109,192,167003,1,0,0:0:0:0:
402,192,167051,128,0,167242:0:0:0:0:
329,192,167099,128,0,167195:0:0:0:0:
36,192,167147,128,0,167434:0:0:0:0:
109,192,167195,128,0,167386:0:0:0:0:
182,192,167242,128,0,167338:0:0:0:0:
329,192,167290,128,0,167530:0:0:0:0:
402,192,167338,128,0,167482:0:0:0:0:
475,192,167386,128,0,167721:0:0:0:0:
182,192,167434,128,0,167626:0:0:0:0:
109,192,167482,128,0,167674:0:0:0:0:
36,192,167530,128,0,168105:0:0:0:0:
402,192,167578,128,0,167769:0:0:0:0:
329,192,167626,128,0,167817:0:0:0:0:
256,192,167674,128,0,167913:0:0:0:0:
182,192,167721,128,0,167865:0:0:0:0:
109,192,167769,128,0,168057:0:0:0:0:
475,192,167817,128,0,168296:0:0:0:0:
402,192,167865,128,0,168248:0:0:0:0:
329,192,167913,128,0,167961:0:0:0:0:
182,192,167961,128,0,168009:0:0:0:0:
256,192,168009,128,0,168152:0:0:0:0:
329,192,168057,128,0,168200:0:0:0:0:
182,192,168105,128,0,168392:0:0:0:0:
109,192,168152,128,0,168440:0:0:0:0:
36,192,168200,128,0,168488:0:0:0:0:
256,192,168248,128,0,168344:0:0:0:0:
329,192,168296,128,0,168631:0:0:0:0:
402,192,168344,128,0,168583:0:0:0:0:
475,192,168392,128,0,168536:0:0:0:0:
256,192,168440,128,0,168679:0:0:0:0:
182,192,168488,1,0,0:0:0:0:
182,192,168488,128,0,168823:0:0:0:0:
109,192,168536,128,0,168775:0:0:0:0:
36,192,168583,128,0,168727:0:0:0:0:
475,192,168631,128,0,169015:0:0:0:0:
402,192,168679,128,0,168967:0:0:0:0:
329,192,168727,128,0,168919:0:0:0:0:
256,192,168775,128,0,168871:0:0:0:0:
36,192,168823,128,0,169158:0:0:0:0:
109,192,168871,128,0,169110:0:0:0:0:
182,192,168919,128,0,169062:0:0:0:0:
256,192,168967,128,0,169350:0:0:0:0:
329,192,169015,128,0,169302:0:0:0:0:
402,192,169062,128,0,169254:0:0:0:0:
475,192,169110,128,0,169206:0:0:0:0:
182,192,169158,128,0,169206:0:0:0:0:
109,192,169206,128,0,169254:0:0:0:0:
36,192,169254,128,0,169302:0:0:0:0:
182,192,169302,128,0,169398:0:0:0:0:
475,192,169302,128,0,169398:0:0:0:0:
402,192,169350,128,0,169446:0:0:0:0:
109,192,169350,128,0,169446:0:0:0:0:
36,192,169398,128,0,169493:0:0:0:0:
329,192,169398,128,0,169493:0:0:0:0:
256,192,169446,128,0,169541:0:0:0:0:
182,192,169493,128,0,169589:0:0:0:0:
475,192,169493,128,0,169589:0:0:0:0:
109,192,169541,128,0,169637:0:0:0:0:
402,192,169541,128,0,169637:0:0:0:0:
36,192,169589,128,0,169685:0:0:0:0:
329,192,169589,128,0,169685:0:0:0:0:
256,192,169637,128,0,169733:0:0:0:0:
475,192,169685,128,0,169781:0:0:0:0:
182,192,169685,128,0,169781:0:0:0:0:
109,192,169733,128,0,169829:0:0:0:0:
402,192,169733,128,0,169829:0:0:0:0:
329,192,169781,128,0,169877:0:0:0:0:
36,192,169781,128,0,169877:0:0:0:0:
256,192,169829,128,0,169924:0:0:0:0:
182,192,169877,128,0,169972:0:0:0:0:
475,192,169877,128,0,169972:0:0:0:0:
402,192,169924,128,0,170020:0:0:0:0:
109,192,169924,128,0,170020:0:0:0:0:
36,192,169972,128,0,170068:0:0:0:0:
329,192,169972,128,0,170068:0:0:0:0:
256,192,170020,128,0,170116:0:0:0:0:
182,192,170068,128,0,170164:0:0:0:0:
475,192,170068,128,0,170164:0:0:0:0:
109,192,170116,128,0,170212:0:0:0:0:
402,192,170116,128,0,170212:0:0:0:0:
36,192,170164,128,0,170308:0:0:0:0:
329,192,170164,128,0,170308:0:0:0:0:
256,192,170212,128,0,170260:0:0:0:0:
402,192,170260,128,0,170356:0:0:0:0:
109,192,170260,128,0,170356:0:0:0:0:
475,192,170308,128,0,170403:0:0:0:0:
182,192,170308,128,0,170403:0:0:0:0:
256,192,170356,128,0,170451:0:0:0:0:
329,192,170403,128,0,170499:0:0:0:0:
36,192,170403,128,0,170499:0:0:0:0:
402,192,170451,128,0,170547:0:0:0:0:
109,192,170451,128,0,170547:0:0:0:0:
475,192,170499,128,0,170595:0:0:0:0:
182,192,170499,128,0,170595:0:0:0:0:
256,192,170547,128,0,170643:0:0:0:0:
329,192,170595,128,0,170691:0:0:0:0:
36,192,170595,128,0,170691:0:0:0:0:
402,192,170643,128,0,170739:0:0:0:0:
109,192,170643,128,0,170739:0:0:0:0:
475,192,170691,128,0,170787:0:0:0:0:
182,192,170691,128,0,170787:0:0:0:0:
256,192,170739,128,0,170834:0:0:0:0:
329,192,170787,128,0,170882:0:0:0:0:
402,192,170834,128,0,170930:0:0:0:0:
36,192,170834,128,0,171601:0:0:0:0:
475,192,170834,128,0,170930:0:0:0:0:
182,192,171601,128,0,172367:0:0:0:0:
402,192,172367,128,0,172750:0:0:0:0:
109,192,172750,128,0,173133:0:0:0:0:
256,192,173133,128,0,173900:0:0:0:0:
182,192,174283,128,0,174474:0:0:0:0:
256,192,174474,128,0,174666:0:0:0:0:
329,192,174666,128,0,174857:0:0:0:0:
182,192,174666,128,0,174857:0:0:0:0:
109,192,175049,128,0,175241:0:0:0:0:
256,192,175049,128,0,175241:0:0:0:0:
402,192,175049,128,0,175241:0:0:0:0:
36,192,175432,128,0,175624:0:0:0:0:
182,192,175432,128,0,175624:0:0:0:0:
329,192,175432,128,0,175624:0:0:0:0:
475,192,175432,128,0,175624:0:0:0:0:
109,192,175815,128,0,176007:0:0:0:0:
402,192,175815,128,0,176007:0:0:0:0:
182,192,176007,128,0,176198:0:0:0:0:
329,192,176007,128,0,176198:0:0:0:0:
36,192,176198,128,0,176582:0:0:0:0:
475,192,176198,128,0,176582:0:0:0:0:
182,192,176582,128,0,176965:0:0:0:0:
329,192,176582,128,0,176965:0:0:0:0:
256,192,176965,128,0,177348:0:0:0:0:
256,192,177539,1,0,0:0:0:0:
256,192,177731,128,0,180030:0:0:0:0:
402,192,180030,128,0,180605:0:0:0:0:
109,192,180605,1,0,0:0:0:0:
109,192,180796,128,0,183095:0:0:0:0:
475,192,182903,1,0,0:0:0:0:
402,192,182999,1,0,0:0:0:0:
256,192,183095,128,0,189225:0:0:0:0:
329,192,183095,1,0,0:0:0:0:
