osu file format v14

[General]
AudioFilename: audio.ogg
AudioLeadIn: 0
PreviewTime: 46572
Countdown: 0
SampleSet: Soft
StackLeniency: 0.3
Mode: 0
LetterboxInBreaks: 0
WidescreenStoryboard: 1

[Editor]
Bookmarks: 10132,25784,37523
DistanceSpacing: 1
BeatDivisor: 4
GridSize: 32
TimelineZoom: 1.4

[Metadata]
Title:Beginning
TitleUnicode:Beginning
Artist:Yuki Ishii
ArtistUnicode:石井悠輝
Creator:AkyuC
Version:Normal
Source:葬送のフリーレン
Tags:うさぎ丸 Usagimaru Atlust Houshou Hari Necho Gust [Hatsune Miku] フリーレン frieren フェルン Fern ヒンメル Himmel ハイター Heiter アイゼン Eisen シュタルク Stark ザイン Sein instrumental folk すっきり目覚めに優雅なクラシカルBGM -さわやかな朝に贈る生演奏- 石井悠輝 山田鐘人 アベツカサ Frieren: Beyond Journey's End Frieren at the Funeral
BeatmapID:4526762
BeatmapSetID:1421130

[Difficulty]
HPDrainRate:3
CircleSize:3.5
OverallDifficulty:4
ApproachRate:6
SliderMultiplier:1.1
SliderTickRate:1

[Events]
//Background and Video events
0,0,"bg5.jpg",0,0
Video,120,"Videoplayback.mp4"
//Break Periods
//Storyboard Layer 0 (Background)
//Storyboard Layer 1 (Fail)
//Storyboard Layer 2 (Pass)
//Storyboard Layer 3 (Foreground)
//Storyboard Layer 4 (Overlay)
//Storyboard Sound Samples

[TimingPoints]
488,326.086956521739,6,2,10,5,1,0
2444,-100,6,2,10,60,0,0
10270,-100,6,2,10,60,0,0
25922,-100,6,2,10,60,0,0
37661,-100,6,2,10,60,0,0
43531,-125,6,2,10,50,0,0
45814,-125,6,2,10,50,0,0
46792,333.333333333333,6,2,10,40,1,0
46792,-125,6,2,10,40,0,0
47458,322.58064516129,6,2,10,75,1,0
47458,-100,6,2,10,75,0,0
48416,337.078651685393,6,2,10,75,1,0
48416,-100,6,2,10,75,0,0
49436,326.086956521739,6,2,10,75,1,0
49436,-100,6,2,10,75,0,0
78783,-100,6,2,10,65,0,0
94435,-125,6,2,10,40,0,0
96391,329.67032967033,6,2,10,30,1,0
96391,-125,6,2,10,30,0,0
98369,333.333333333333,6,2,10,25,1,0
98369,-125,6,2,10,25,0,0
100369,337.078651685393,6,2,10,20,1,0
100369,-125,6,2,10,20,0,0
101043,352.941176470588,6,2,10,18,1,0
101043,-125,6,2,10,25,0,0
101395,375,6,2,10,15,1,0
101395,-125,6,2,10,25,0,0
101770,400,6,2,10,13,1,0
101770,-125,6,2,10,25,0,0
102170,454.545454545455,6,2,10,11,1,0
102170,-125,6,2,10,25,0,0
102624,454.545454545455,6,2,10,10,1,0
102624,-125,6,2,10,25,0,0
108078,-100,6,2,10,5,0,0

[Colours]
Combo1 : 255,75,255
Combo2 : 164,32,240
Combo3 : 37,185,239
Combo4 : 23,209,116

[HitObjects]
92,341,2444,6,0,P|140:357|167:313,1,110,6|0,1:2|0:0,0:0:0:0:
174,258,2933,1,8,0:0:0:0:
136,160,3259,1,0,1:2:0:0:
136,160,3422,2,0,P|126:103|153:49,1,110,10|2,0:0|0:0,0:0:0:0:
249,15,4074,1,2,1:2:0:0:
297,115,4401,1,2,1:2:0:0:
406,123,4727,5,2,0:0:0:0:
358,23,5053,1,2,0:0:0:0:
297,115,5379,2,0,P|266:196|325:322,1,220,10|2,0:0|1:2,0:0:0:0:
418,276,6357,6,0,P|438:225|428:172,1,110,2|2,1:2|0:0,0:0:0:0:
406,123,6846,1,8,0:0:0:0:
358,23,7172,1,0,1:2:0:0:
358,23,7335,2,0,P|301:13|247:40,1,110,10|2,0:0|0:0,0:0:0:0:
220,137,7987,1,2,1:2:0:0:
132,69,8314,1,2,1:2:0:0:
36,121,8640,5,2,0:0:0:0:
70,225,8966,1,2,0:0:0:0:
35,329,9292,2,0,B|189:350|189:350|153:292,1,220,10|2,0:0|1:2,0:0:0:0:
70,225,10270,6,0,L|84:109,1,110,2|2,1:2|0:0,0:0:0:0:
157,32,10922,1,2,0:0:0:0:
256,79,11248,2,0,L|365:74,1,110,10|2,0:0|0:0,0:0:0:0:
467,32,11900,1,2,1:2:0:0:
482,141,12227,6,0,L|494:250,1,110,2|2,1:2|0:0,0:0:0:0:
433,342,12879,1,2,0:0:0:0:
343,277,13205,2,0,P|238:251|131:275,1,220,10|0,0:0|1:2,0:0:0:0:
55,355,14183,5,2,1:2:0:0:
164,360,14509,2,0,L|273:365,1,110,2|2,0:0|0:0,0:0:0:0:
343,277,15161,1,10,0:0:0:0:
271,193,15487,2,0,L|266:84,1,110,2|2,0:0|1:2,0:0:0:0:
352,14,16140,5,2,1:2:0:0:
370,122,16466,1,2,0:0:0:0:
265,83,16792,1,2,0:0:0:0:
156,105,17118,2,0,P|60:156|30:264,1,220,10|0,0:0|1:2,0:0:0:0:
99,340,18096,6,0,L|228:349,1,110,2|2,1:2|0:0,0:0:0:0:
312,310,18748,1,2,0:0:0:0:
244,223,19074,2,0,L|134:229,1,110,10|2,0:0|0:0,0:0:0:0:
29,258,19726,1,2,1:2:0:0:
10,149,20053,6,0,P|10:94|15:39,1,110,2|2,1:2|0:0,0:0:0:0:
121,12,20705,1,2,0:0:0:0:
200,87,21031,2,0,P|203:147|197:219,1,110,10|0,0:0|0:0,0:0:0:0:
156,297,21683,5,2,1:2:0:0:
258,337,22009,2,0,B|336:337|336:337|302:309,1,110,2|0,1:2|3:0,0:0:0:0:
287,210,22661,1,2,0:0:0:0:
386,257,22987,2,0,B|464:257|464:257|430:229,1,110,10|0,0:0|0:0,0:0:0:0:
380,144,23640,1,2,1:2:0:0:
386,257,23966,5,2,1:2:0:0:
378,366,24292,2,0,P|323:373|268:371,1,110,2|2,0:0|0:0,0:0:0:0:
232,269,24944,2,0,P|159:236|105:305,1,165,10|0,0:0|3:2,0:0:0:0:
87,340,25596,2,0,L|11:341,1,55,2|2,1:2|0:0,0:0:0:0:
8,290,25922,5,2,1:2:0:0:
59,193,26248,1,2,0:0:0:0:
29,87,26574,1,2,0:0:0:0:
128,38,26901,2,0,L|256:37,1,110,10|2,0:0|3:2,0:0:0:0:
299,128,27553,1,2,1:2:0:0:
393,66,27880,2,0,L|521:65,2,110,2|2|2,1:2|0:0|0:0,0:0:0:0:
299,128,28857,2,0,P|294:188|316:246,1,110,10|0,0:0|3:2,0:0:0:0:
408,281,29509,6,0,L|485:275,1,55,2|2,1:2|0:0,0:0:0:0:
502,314,29835,1,2,1:2:0:0:
410,375,30161,2,0,L|301:371,1,110,2|2,0:0|0:0,0:0:0:0:
222,292,30814,1,10,0:0:0:0:
123,341,31140,2,0,L|14:337,1,110,2|2,3:2|1:2,0:0:0:0:
1,227,31792,2,0,L|17:119,2,110,2|2|2,1:2|0:0|0:0,0:0:0:0:
14,337,32770,2,0,L|123:341,1,110,10|0,0:0|3:2,0:0:0:0:
222,292,33422,6,0,L|231:237,1,55,2|2,1:2|0:0,0:0:0:0:
219,183,33748,1,2,1:2:0:0:
267,84,34074,1,2,0:0:0:0:
172,26,34400,1,2,0:0:0:0:
86,95,34727,2,0,L|70:203,2,110,10|2|2,0:0|3:2|1:2,0:0:0:0:
172,26,35706,6,0,L|300:25,1,110,2|2,1:2|0:0,0:0:0:0:
369,91,36357,1,2,0:0:0:0:
473,57,36683,2,0,L|469:181,1,110,10|0,0:0|3:2,0:0:0:0:
493,274,37335,1,2,1:2:0:0:
414,351,37661,5,2,1:2:0:0:
315,301,37988,2,0,L|205:301,1,110,2|2,0:0|0:0,0:0:0:0:
116,235,38640,2,0,L|113:117,2,110,10|2|2,0:0|3:2|1:2,0:0:0:0:
101,344,39618,5,2,1:2:0:0:
205,301,39944,2,0,L|315:301,1,110,2|2,0:0|0:0,0:0:0:0:
414,351,40596,1,10,0:0:0:0:
493,274,40922,2,0,L|496:156,1,110,2|2,3:2|1:2,0:0:0:0:
502,54,41574,5,2,1:2:0:0:
402,5,41901,1,2,0:0:0:0:
306,59,42227,1,2,0:0:0:0:
340,163,42553,2,0,P|237:140|201:40,1,220,10|2,0:0|1:2,0:0:0:0:
93,21,43531,2,0,P|106:87|62:140,1,132,2|8,1:2|0:0,0:0:0:0:
24,157,44183,1,2,0:0:0:0:
35,261,44509,2,0,P|76:276|119:267,1,88,8|0,0:0|3:2,0:0:0:0:
215,221,45161,1,0,1:2:0:0:
263,315,45487,1,0,1:2:0:0:
359,282,45814,6,0,B|416:263|416:263|398:284,1,88,2|2,1:2|1:2,0:0:0:0:
350,380,46466,1,10,0:0:0:0:
263,315,46792,2,0,L|175:312,1,88,0|2,0:0|0:0,0:0:0:0:
74,363,47458,6,0,P|58:311|75:259,1,110,6|2,1:2|0:0,0:0:0:0:
167,199,48103,1,2,0:0:0:0:
114,111,48416,2,0,P|115:56|123:1,1,110,8|0,0:0|0:0,0:0:0:0:
228,34,49090,2,0,L|305:38,1,55,2|2,1:2|0:0,0:0:0:0:
316,86,49436,6,0,B|418:43|418:43|480:51|496:108,1,220,2|0,1:2|0:0,0:0:0:0:
427,193,50414,2,0,P|416:246|420:317,1,110,10|2,0:0|0:0,0:0:0:0:
506,366,51066,1,2,1:2:0:0:
417,301,51392,6,0,B|358:279|310:299|260:317|199:296,1,220,2|0,1:2|0:0,0:0:0:0:
109,358,52370,2,0,P|46:298|133:199,1,220,10|0,0:0|1:2,0:0:0:0:
205,147,53349,2,0,P|166:80|41:120,1,220,2|0,1:2|0:0,0:0:0:0:
110,201,54327,1,10,0:0:0:0:
205,147,54653,2,0,P|260:145|315:147,1,110,2|2,0:0|1:2,0:0:0:0:
418,186,55305,5,2,1:2:0:0:
491,104,55631,1,2,0:0:0:0:
428,13,55957,1,2,0:0:0:0:
320,42,56283,2,0,B|253:68|226:5|161:31,1,165,8|0,0:0|0:0,0:0:0:0:
118,65,56936,2,0,L|63:64,1,55,2|2,1:2|0:0,0:0:0:0:
18,29,57262,2,0,P|50:134|33:241,1,220,2|0,1:2|0:0,0:0:0:0:
83,339,58240,6,0,B|110:346|110:346|164:333|164:333|189:341,1,110,10|0,0:0|0:0,0:0:0:0:
299,343,58892,1,2,1:2:0:0:
252,243,59218,2,0,P|247:188|257:134,1,110,2|0,1:2|0:0,0:0:0:0:
308,36,59870,1,2,0:0:0:0:
376,122,60196,2,0,L|485:124,1,110,10|0,0:0|0:0,0:0:0:0:
436,25,60849,5,2,1:2:0:0:
376,122,61175,1,2,1:2:0:0:
417,223,61501,1,2,0:0:0:0:
358,315,61827,2,0,B|331:323|331:323|280:318|280:318|250:325,1,110,2|10,0:0|0:0,0:0:0:0:
141,337,62479,5,2,3:2:0:0:
68,254,62805,1,2,1:2:0:0:
115,153,63131,2,0,P|121:100|89:56,1,110,6|2,1:2|0:0,0:0:0:0:
8,130,63783,1,2,0:0:0:0:
115,153,64109,2,0,B|155:156|155:156|235:135|235:135|276:141,1,165,10|0,0:0|0:0,0:0:0:0:
328,161,64762,2,0,L|399:163,1,55,2|2,1:2|0:0,0:0:0:0:
413,115,65088,6,0,P|403:224|435:329,1,220,2|0,1:2|0:0,0:0:0:0:
328,357,66066,2,0,P|273:352|223:329,1,110,10|2,0:0|0:0,0:0:0:0:
168,234,66718,1,2,1:2:0:0:
58,239,67044,6,0,P|117:327|223:329,1,220,2|0,1:2|0:0,0:0:0:0:
320,279,68022,2,0,P|366:183|315:91,1,220,10|0,0:0|1:2,0:0:0:0:
221,33,69001,2,0,P|115:40|60:131,1,220,2|0,1:2|0:0,0:0:0:0:
58,239,69979,1,10,0:0:0:0:
154,186,70305,2,0,P|214:181|289:180,1,110,2|2,0:0|1:2,0:0:0:0:
361,229,70957,5,2,1:2:0:0:
269,290,71283,1,2,0:0:0:0:
263,179,71609,1,2,0:0:0:0:
350,111,71935,2,0,B|380:10|380:10|309:40,1,165,10|0,0:0|0:0,0:0:0:0:
270,43,72588,2,0,L|215:42,1,55,2|2,1:2|0:0,0:0:0:0:
166,17,72914,2,0,P|176:126|144:231,1,220,2|0,1:2|0:0,0:0:0:0:
41,268,73892,6,0,P|41:323|64:373,1,110,10|0,0:0|0:0,0:0:0:0:
174,366,74544,1,2,1:2:0:0:
258,296,74870,2,0,P|316:297|366:314,1,110,2|0,1:2|0:0,0:0:0:0:
455,377,75522,1,2,0:0:0:0:
504,279,75848,2,0,P|509:224|496:170,1,110,10|0,0:0|0:0,0:0:0:0:
455,68,76501,5,2,1:2:0:0:
347,44,76827,1,2,1:2:0:0:
265,118,77153,2,0,P|252:171|257:225,1,110,2|2,0:0|0:0,0:0:0:0:
306,323,77805,2,0,L|437:342,1,110,10|0,0:0|3:2,0:0:0:0:
491,259,78457,1,2,1:2:0:0:
469,151,78783,6,0,L|360:135,1,110,6|2,1:2|0:0,0:0:0:0:
251,117,79435,1,2,0:0:0:0:
230,8,79762,1,10,0:0:0:0:
339,26,80088,2,0,L|447:41,1,110,2|2,0:0|1:2,0:0:0:0:
469,151,80740,1,2,1:2:0:0:
415,247,81066,5,2,0:0:0:0:
466,343,81392,2,0,P|413:358|361:343,1,110,2|10,0:0|0:0,0:0:0:0:
283,265,82044,1,2,0:0:0:0:
220,355,82370,1,2,1:2:0:0:
142,277,82696,2,0,L|12:272,2,110,2|2|2,1:2|0:0|0:0,0:0:0:0:
220,355,83675,1,10,0:0:0:0:
283,265,84001,2,0,P|286:199|283:145,1,110,2|2,0:0|1:2,0:0:0:0:
241,53,84653,5,2,1:2:0:0:
183,146,84979,2,0,P|128:142|73:136,1,110,2|2,0:0|0:0,0:0:0:0:
22,38,85631,1,10,0:0:0:0:
131,43,85957,2,0,P|185:46|240:52,1,110,2|2,0:0|1:2,0:0:0:0:
350,57,86609,6,0,B|417:5|417:5|457:2,2,110,2|2|2,1:2|0:0|0:0,0:0:0:0:
294,152,87588,2,0,P|293:203|295:269,1,110,10|2,0:0|0:0,0:0:0:0:
371,340,88240,1,2,1:2:0:0:
473,299,88566,1,2,1:2:0:0:
461,188,88892,5,2,0:0:0:0:
371,124,89218,2,0,B|354:90|354:90|373:20,1,110,2|10,0:0|0:0,0:0:0:0:
481,5,89870,1,2,0:0:0:0:
505,112,90196,1,2,1:2:0:0:
452,208,90522,2,0,B|490:275|490:275|478:319,2,110,2|2|2,1:2|0:0|0:0,0:0:0:0:
347,171,91501,5,10,0:0:0:0:
256,233,91827,1,2,0:0:0:0:
248,342,92153,2,0,L|193:349,1,55,2|2,1:2|0:0,0:0:0:0:
143,371,92479,2,0,B|66:373|66:373|36:350,1,110,2|2,1:2|0:2,0:0:0:0:
9,247,93131,1,2,0:2:0:0:
93,176,93457,2,0,P|96:121|88:66,1,110,10|2,0:0|3:2,0:0:0:0:
189,23,94109,2,0,L|243:27,1,55,2|8,1:2|0:0,0:0:0:0:
282,48,94435,6,0,L|388:40,2,88,6|0|0,1:2|0:0|0:0,0:0:0:0:
319,127,95414,2,0,L|425:135,2,88,2|0|0,0:0|0:0|0:0,0:0:0:0:
328,213,96391,6,0,L|432:230,2,88,2|0|0,0:0|0:0|0:0,0:0:0:0:
317,300,97380,2,0,L|402:321,2,88,2|0|0,0:0|0:0|0:0,0:0:0:0:
263,369,98369,6,0,L|157:376,2,88,2|0|0,0:0|0:0|0:0,0:0:0:0:
226,290,99369,2,0,L|123:282,2,88,2|0|0,0:0|0:0|0:0,0:0:0:0:
217,204,100369,6,0,L|113:186,2,88,2|0|0,0:0|0:0|0:0,0:0:0:0:
256,192,101395,12,2,102624,0:0:0:0:
