osu file format v14

[General]
AudioFilename: audio.ogg
AudioLeadIn: 0
PreviewTime: 4353
Countdown: 0
SampleSet: Soft
StackLeniency: 0.7
Mode: 0
LetterboxInBreaks: 0
SkinPreference:Default
WidescreenStoryboard: 1

[Editor]
DistanceSpacing: 1
BeatDivisor: 4
GridSize: 4
TimelineZoom: 1

[Metadata]
Title:POKEDANCE
TitleUnicode:POKÉDANCE
Artist:Yuki Honda feat. Nanahira
ArtistUnicode:本多友紀 feat. ななひら
Creator:Bloxi
Version:Normal
Source:ポケットモンスター
Tags:pokemon day 2024 pop english tiktok meme chibi_fox arte refact yūki tsukasa kikuchi 菊池 司 nintendo pocket monsters video game videogame time to pokémon partners of different generations animation music kantaro mitarashi santa USGMEN Komugiko2000 QuickObake ASCAN kariya misato. alpha@ MimicryMeta ft. featuring
BeatmapID:4579008
BeatmapSetID:2169820

[Difficulty]
HPDrainRate:3
CircleSize:4
OverallDifficulty:5
ApproachRate:6
SliderMultiplier:1.1
SliderTickRate:1

[Events]
//Background and Video events
0,0,"bg.jpg",0,0
Video,0,"video.avi"
//Break Periods
2,35037,40078
//Storyboard Layer 0 (Background)
//Storyboard Layer 1 (Fail)
//Storyboard Layer 2 (Pass)
//Storyboard Layer 3 (Foreground)
//Storyboard Layer 4 (Overlay)
//Storyboard Sound Samples

[TimingPoints]
483,483.870967741935,4,2,0,70,1,0
35321,-111.111111111111,4,2,0,60,0,0
41128,-100,4,2,0,70,0,0
43063,-90.9090909090909,4,2,0,75,0,1
48789,-90.9090909090909,4,2,0,75,0,0
48870,-90.9090909090909,4,2,0,75,0,1
49273,-90.9090909090909,4,2,0,75,0,0
49353,-90.9090909090909,4,2,0,75,0,1
49757,-90.9090909090909,4,2,0,75,0,0
49837,-90.9090909090909,4,2,0,75,0,1
50724,-90.9090909090909,4,2,0,75,0,0
50805,-90.9090909090909,4,2,0,75,0,1
58547,-90.9090909090909,4,2,0,75,0,0
66289,-100,4,2,0,70,0,0

[Colours]
Combo1 : 145,233,251
Combo2 : 193,232,213
Combo3 : 254,221,133
Combo4 : 247,139,134
SliderTrackOverride : 28,44,95
SliderBorder : 255,204,3

[HitObjects]
166,366,4353,6,0,L|178:291,1,55,4|0,1:0|0:0,0:0:0:0:
222,283,4837,2,0,L|210:208,1,55,8|0,0:0|0:0,0:0:0:0:
168,196,5321,1,0,1:0:0:0:
192,148,5563,5,2,0:0:0:0:
192,148,5805,1,10,0:0:0:0:
126,59,6289,6,0,P|99:68|28:66,2,82.5,0|2|2,1:0|0:0|0:0,0:0:0:0:
179,45,7257,1,0,1:0:0:0:
235,32,7499,5,10,0:0:0:0:
235,32,7741,1,10,0:0:0:0:
344,27,8224,6,0,P|356:56|349:87,1,55,0|0,1:0|0:0,0:0:0:0:
383,124,8708,2,0,P|363:148|333:158,1,55,8|0,0:0|0:0,0:0:0:0:
287,170,9192,1,0,1:0:0:0:
246,140,9434,5,2,0:0:0:0:
246,140,9676,1,10,0:0:0:0:
163,213,10160,6,0,L|168:316,2,82.5,0|2|2,1:0|0:0|0:0,0:0:0:0:
111,193,11128,1,0,1:0:0:0:
62,179,11370,5,10,0:0:0:0:
62,179,11612,1,10,0:0:0:0:
7,274,12095,6,0,B|2:309|2:309|12:342,1,55,0|0,1:0|0:0,0:0:0:0:
41,371,12579,2,0,L|101:361,1,55,8|0,0:0|0:0,0:0:0:0:
147,345,13063,1,0,1:0:0:0:
200,372,13305,5,2,0:0:0:0:
200,372,13547,1,10,0:0:0:0:
288,306,14031,6,0,B|331:297|331:297|382:310,2,82.5,0|2|2,1:0|0:0|0:0,0:0:0:0:
250,265,14999,1,0,1:0:0:0:
274,217,15241,5,10,0:0:0:0:
274,217,15482,1,10,0:0:0:0:
345,133,15966,6,0,P|378:125|411:132,1,55,0|0,1:0|0:0,0:0:0:0:
429,173,16450,2,0,P|462:181|495:174,1,55,8|0,0:0|0:0,0:0:0:0:
510,130,16934,1,0,1:0:0:0:
501,79,17176,5,2,0:0:0:0:
501,79,17418,1,10,0:0:0:0:
399,35,17902,6,0,P|429:10|495:1,2,82.5,0|2|2,1:0|0:0|0:0,0:0:0:0:
343,39,18870,2,0,P|334:65|335:92,1,55,0|10,1:0|0:0,0:0:0:0:
305,138,19353,2,0,P|323:158|346:171,1,55,10|2,0:0|0:0,0:0:0:0:
364,224,19837,5,6,0:0:0:0:
294,308,20321,1,8,0:0:0:0:
189,274,20805,1,0,1:0:0:0:
173,328,21046,5,2,0:0:0:0:
173,328,21288,1,10,0:0:0:0:
70,286,21773,6,0,L|74:390,2,82.5,0|2|2,1:0|0:0|0:0,0:0:0:0:
31,245,22741,1,0,1:0:0:0:
46,195,22982,5,10,0:0:0:0:
46,195,23224,1,10,0:0:0:0:
213,52,24192,5,8,0:0:0:0:
179,157,24676,1,0,1:0:0:0:
233,173,24917,5,2,0:0:0:0:
233,173,25159,1,10,0:0:0:0:
337,137,25644,6,0,P|387:130|441:133,2,82.5,0|2|2,1:0|0:0|0:0,0:0:0:0:
319,189,26612,1,0,1:0:0:0:
358,234,26853,5,10,0:0:0:0:
358,234,27095,1,10,0:0:0:0:
500,66,28063,5,8,0:0:0:0:
401,17,28547,1,0,1:0:0:0:
351,5,28788,5,2,0:0:0:0:
351,5,29030,1,10,0:0:0:0:
258,65,29515,6,0,B|250:108|250:108|262:169,2,82.5,0|2|2,1:0|0:0|0:0,0:0:0:0:
205,46,30483,1,0,1:0:0:0:
156,33,30724,5,10,0:0:0:0:
156,33,30966,1,10,0:0:0:0:
18,204,31934,5,8,0:0:0:0:
115,255,32418,1,0,1:0:0:0:
168,236,32659,5,2,0:0:0:0:
168,236,32901,1,10,0:0:0:0:
269,192,33386,6,0,L|265:88,2,82.5,0|2|2,1:0|0:0|0:0,0:0:0:0:
307,231,34354,1,0,1:0:0:0:
365,228,34595,5,10,0:0:0:0:
365,228,34837,1,10,0:0:0:0:
456,339,41128,5,0,1:0:0:0:
479,259,41491,1,0,1:0:0:0:
420,208,41853,1,0,1:0:0:0:
420,208,42095,1,0,1:0:0:0:
198,304,43063,6,0,P|153:299|96:262,2,90.7500027694703,4|2|2,1:0|0:0|0:0,0:0:0:0:
228,251,44031,1,0,1:0:0:0:
285,232,44273,2,0,L|263:151,1,60.5000018463135,2|8,0:0|0:0,0:0:0:0:
362,95,44999,6,0,P|362:62|346:31,1,60.5000018463135,0|0,1:0|0:0,0:0:0:0:
301,2,45482,2,0,P|268:2|237:18,1,60.5000018463135,8|2,0:0|0:0,0:0:0:0:
205,60,45966,1,0,1:0:0:0:
146,44,46208,1,10,0:0:0:0:
96,78,46450,1,10,0:0:0:0:
43,186,46934,6,0,L|181:208,1,121.000003692627,0|8,1:0|0:0,0:0:0:0:
200,252,47660,1,0,0:0:0:0:
241,295,47902,2,0,L|360:275,1,121.000003692627,0|10,1:0|0:0,0:0:0:0:
420,171,48870,5,0,1:0:0:0:
300,171,49353,5,0,1:0:0:0:
360,67,49837,5,0,1:0:0:0:
142,173,50805,6,0,B|147:218|147:218|184:275,2,90.7500027694703,0|2|2,1:0|0:0|0:0,0:0:0:0:
179,125,51773,1,0,1:0:0:0:
217,78,52015,2,0,L|195:-3,1,60.5000018463135,2|10,0:0|0:0,0:0:0:0:
80,9,52741,6,0,P|47:9|16:25,1,60.5000018463135,0|0,1:0|0:0,0:0:0:0:
10,79,53224,2,0,L|32:160,1,60.5000018463135,8|2,0:0|0:0,0:0:0:0:
77,170,53708,1,0,1:0:0:0:
86,229,53950,1,10,0:0:0:0:
96,288,54192,1,10,0:0:0:0:
196,355,54676,6,0,P|240:318|278:241,1,121.000003692627,0|10,1:0|0:0,0:0:0:0:
259,204,55402,1,0,0:0:0:0:
239,146,55644,2,0,P|260:106|295:77,2,90.7500027694703,0|2|2,1:0|0:0|0:0,0:0:0:0:
183,121,56612,5,0,1:0:0:0:
100,158,56974,1,2,0:0:0:0:
48,89,57337,1,2,0:0:0:0:
48,89,57579,2,0,L|113:63,1,60.5000018463135,0|2,1:0|3:0,0:0:0:0:
141,18,58063,2,0,L|206:44,1,60.5000018463135,10|2,3:2|3:0,0:0:0:0:
252,65,58547,5,0,1:0:0:0:
298,176,59031,2,0,P|333:184|380:182,1,60.5000018463135,8|2,0:0|0:0,0:0:0:0:
414,163,59515,1,0,1:0:0:0:
488,271,59999,1,8,0:0:0:0:
488,271,60241,1,2,0:0:0:0:
488,271,60482,2,0,B|486:310|486:310|460:340,1,60.5000018463135,0|2,1:0|0:0,0:0:0:0:
424,363,60966,2,0,L|292:337,1,121.000003692627,8|0,0:0|1:0,0:0:0:0:
275,286,61692,2,0,B|277:247|277:247|303:217,2,60.5000018463135,2|8|2,0:0|0:0|0:0,0:0:0:0:
219,311,62418,5,0,1:0:0:0:
141,357,62781,1,0,1:0:0:0:
73,304,63144,1,0,1:0:0:0:
73,304,63386,2,0,L|62:198,2,90.7500027694703,0|0|0,1:0|1:0|1:0,0:0:0:0:
23,338,64353,5,0,1:0:0:0:
101,383,64716,1,0,1:0:0:0:
164,318,65079,1,0,1:0:0:0:
214,284,65321,1,0,1:0:0:0:
400,166,66289,6,0,L|389:38,1,110,0|10,1:0|0:0,0:0:0:0:
382,1,67015,1,2,0:0:0:0:
275,6,67499,5,2,0:0:0:0:
275,6,67741,1,10,0:0:0:0:
212,96,68224,6,0,P|212:143|251:194,1,110,0|8,1:0|0:0,0:0:0:0:
188,285,69192,1,0,1:0:0:0:
174,340,69434,5,2,0:0:0:0:
174,340,69676,1,8,0:0:0:0:
281,315,70160,6,0,B|286:279|286:279|269:253|269:253|277:201,2,110,2|10|2,0:0|0:0|0:0,0:0:0:0:
302,368,71370,5,2,0:0:0:0:
302,368,71612,1,10,0:0:0:0:
409,346,72095,5,2,0:0:0:0:
441,240,72579,1,10,0:0:0:0:
338,117,73305,5,2,0:0:0:0:
338,117,73547,1,10,0:0:0:0:
