osu file format v14

[General]
AudioFilename: audio.mp3
AudioLeadIn: 0
PreviewTime: 126107
Countdown: 1
SampleSet: Normal
StackLeniency: 0.7
Mode: 0
LetterboxInBreaks: 0
WidescreenStoryboard: 0

[Editor]
Bookmarks: 68506,92849,117363,127998,129026,129198,129369,129884,130398,130569,131255,131598,131769,131941,132112,132626,133141,133312,133826,133998,134512,134684,134855,135541,135884,136055,136569,136912,137084,137255,137426,137598,138112,138455,138969,139484,139998,140169,140341,140855,141369,141541,141712,142226,142398,142912,143769,143941,144284,144969,145484,145655,145826,146341,146684,149764,158850,163479,164507,178226,180626,218164,218512
DistanceSpacing: 0.8
BeatDivisor: 4
GridSize: 4
TimelineZoom: 1.7

[Metadata]
Title:You Say Run
TitleUnicode:You Say Run
Artist:Yuki Hayashi
ArtistUnicode:林 ゆうき
Creator:Zare
Version:Plus Ultra
Source:僕のヒーローアカデミア
Tags:BNHA MHA Boku No Hero Academia My Academy Anime OST Official Soundtrack Instrumental Orchestral Symphonic Rock Akitoshi
BeatmapID:1040115
BeatmapSetID:487907

[Difficulty]
HPDrainRate:7
CircleSize:4
OverallDifficulty:8.5
ApproachRate:9.2
SliderMultiplier:1.9
SliderTickRate:1

[Events]
//Background and Video events
0,0,"BNHA.jpg",0,0
//Break Periods
//Storyboard Layer 0 (Background)
//Storyboard Layer 1 (Fail)
//Storyboard Layer 2 (Pass)
//Storyboard Layer 3 (Foreground)
//Storyboard Sound Samples

[TimingPoints]
449,342.857142857143,4,2,0,50,1,0
449,-200,4,2,0,50,0,0
22391,-133.333333333333,4,3,0,60,0,0
23763,-133.333333333333,4,1,0,60,0,0
121134,-133.333333333333,4,1,0,60,0,0
122849,324.324324324324,4,1,0,50,1,0
123497,342.857142857143,4,1,0,50,1,0
123879,342.857142857143,4,1,0,50,1,0
125250,-133.333333333333,4,1,0,70,0,0
126621,-200,4,2,1,60,0,1
126707,-200,4,2,0,60,0,0
147193,-133.333333333333,4,1,0,60,0,0
148564,-100,4,1,1,70,0,1
148736,-100,4,1,0,70,0,1
170507,-100,4,1,0,70,0,0
171879,-100,4,1,0,70,0,1
196564,-133.333333333333,4,1,0,60,0,0
219707,-200,4,1,0,70,0,0
219793,-200,4,2,0,5,0,0

[Colours]
Combo1 : 255,46,9
Combo2 : 98,167,95
Combo3 : 154,154,152
Combo4 : 30,131,232

[HitObjects]
325,28,449,6,0,L|310:121,1,95,2|0,0:3|0:0,0:0:0:0:
214,193,963,1,0,0:0:0:0:
321,241,1134,1,2,0:0:0:0:
225,312,1306,1,0,0:0:0:0:
29,299,1477,2,0,P|71:245|139:254,1,142.5,2|0,0:3|0:0,0:0:0:0:
349,190,2163,2,0,L|288:194,1,47.5
115,149,2506,1,0,0:0:0:0:
223,102,2677,2,0,L|221:48,1,47.5,2|0,0:0|0:0,0:0:0:0:
333,14,3020,1,0,0:0:0:0:
121,29,3191,6,0,P|74:23|28:34,1,95,2|0,0:3|0:0,0:0:0:0:
17,159,3706,1,0,0:0:0:0:
65,266,3877,1,2,0:0:0:0:
136,170,4049,1,0,0:0:0:0:
364,215,4220,2,0,P|286:208|237:262,1,142.5,2|0,0:3|0:0,0:0:0:0:
158,333,4906,2,0,L|163:277,1,47.5
317,285,5249,2,0,L|312:332,1,47.5,2|0,0:0|0:0,0:0:0:0:
88,257,5591,2,0,L|93:201,1,47.5
306,205,5934,6,0,P|296:158|305:112,1,95,2|0,0:3|0:0,0:0:0:0:
377,40,6449,1,0,0:0:0:0:
259,57,6620,1,2,0:0:0:0:
144,26,6791,1,0,0:0:0:0:
10,190,6963,2,0,P|76:165|141:191,1,142.5,2|0,0:3|0:0,0:0:0:0:
251,232,7649,2,0,L|310:226,1,47.5,2|0,0:0|0:0,0:0:0:0:
477,165,7991,2,0,P|426:177|338:136,1,142.5,2|0,0:3|0:0,0:0:0:0:
155,135,8677,6,0,L|161:75,1,47.5,2|0,0:3|0:0,0:0:0:0:
278,87,9020,1,0,0:0:0:0:
376,20,9191,1,0,0:0:0:0:
384,137,9363,2,0,P|381:161|384:185,1,47.5,2|0,0:0|0:0,0:0:0:0:
210,227,9706,2,0,P|283:311|172:303,1,285,2|0,0:3|0:0,0:0:0:0:
168,160,10906,1,0,0:0:0:0:
91,306,11077,2,0,L|41:312,1,47.5,2|0,0:0|0:0,0:0:0:0:
56,133,11420,6,0,P|46:93|75:31,1,95,2|0,0:3|0:0,0:0:0:0:
175,83,11934,1,0,0:0:0:0:
241,182,12106,2,0,P|288:157|387:177,1,142.5,2|0,0:2|0:0,0:0:0:0:
394,379,12791,2,0,P|337:337|316:271,1,142.5,2|0,0:3|0:0,0:0:0:0:
489,143,13477,2,0,P|481:212|435:265,1,142.5,2|0,0:2|0:0,0:0:0:0:
214,355,14163,6,0,L|21:323,1,190,2|0,0:3|0:0,0:0:0:0:
2,207,15020,1,0,0:0:0:0:
118,184,15191,2,0,L|305:216,1,190,2|0,0:3|0:0,0:0:0:0:
416,171,16049,1,0,0:0:0:0:
311,113,16220,2,0,P|319:90|324:67,1,47.5,2|0,0:3|0:0,0:0:0:0:
224,2,16563,2,0,P|216:24|211:47,1,47.5,2|0,0:0|0:0,0:0:0:0:
190,165,16906,6,0,P|147:140|181:244,2,285,2|2|0,0:3|0:3|0:0,0:0:0:0:
272,264,19134,1,0,0:0:0:0:
390,218,19306,2,0,L|392:161,1,47.5,2|0,0:0|0:0,0:0:0:0:
490,62,19649,6,0,P|447:81|399:83,2,95,2|0|0,0:3|0:0|0:0,0:0:0:0:
308,161,20677,2,0,P|260:145|156:219,1,190,2|0,0:2|0:0,0:0:0:0:
40,250,21534,2,0,L|32:358,1,95,2|0,0:3|0:3,0:3:0:0:
151,363,22049,2,0,L|145:311,1,47.5,2|0,0:0|0:0,0:0:0:0:
249,97,22391,5,6,0:3:0:0:
227,287,22563,1,4,0:3:0:0:
253,297,22649,1,0,0:3:0:0:
279,307,22734,1,8,0:3:0:0:
305,317,22820,1,0,0:3:0:0:
331,327,22906,2,0,L|380:332,1,35.625001358986,6|0,0:3|0:3,0:3:0:0:
465,284,23077,1,6,0:3:0:0:
446,256,23163,1,0,0:3:0:0:
433,225,23249,1,0,0:3:0:0:
433,192,23334,1,0,0:3:0:0:
445,160,23420,1,10,0:3:0:0:
466,134,23506,1,0,0:3:0:0:
475,102,23591,1,6,0:3:0:0:
471,68,23677,1,10,0:3:0:0:
447,51,23763,6,0,L|371:59,1,71.2500027179719,6|0,0:2|0:3,0:3:0:0:
126,58,24106,1,8,0:3:0:0:
298,104,24277,1,2,0:2:0:0:
48,100,24449,2,0,L|59:178,1,71.2500027179719,2|0,0:3|0:3,0:3:0:0:
11,378,24791,1,10,0:3:0:0:
156,174,24963,6,0,P|220:205|288:189,1,142.500005435944,6|0,0:3|0:3,0:3:0:0:
160,16,25477,1,8,0:3:0:0:
306,173,25649,1,0,0:2:0:0:
334,176,25734,1,2,0:2:0:0:
362,179,25820,1,2,0:3:0:0:
475,315,25991,1,0,0:2:0:0:
419,130,26163,1,8,0:3:0:0:
398,336,26334,1,2,0:2:0:0:
493,136,26506,6,0,L|503:64,1,71.2500027179719,6|0,0:3|0:3,0:3:0:0:
253,58,26849,1,8,0:3:0:0:
428,30,27020,1,2,0:2:0:0:
202,133,27191,2,0,L|207:211,1,71.2500027179719,2|0,0:3|0:3,0:3:0:0:
395,333,27534,1,10,0:3:0:0:
112,384,27706,6,0,P|146:322|135:253,1,142.500005435944,6|0,0:3|0:3,0:3:0:0:
117,36,28220,1,8,0:3:0:0:
121,228,28391,1,0,0:2:0:0:
126,199,28477,1,2,0:2:0:0:
131,170,28563,1,2,0:3:0:0:
338,105,28734,1,0,0:3:0:0:
136,141,28906,2,0,L|135:67,1,71.2500027179719,8|2,0:3|0:2,0:3:0:0:
354,16,29249,6,0,L|355:90,1,71.2500027179719,6|0,0:3|0:3,0:3:0:0:
443,281,29591,1,8,0:3:0:0:
346,100,29763,1,2,0:2:0:0:
317,305,29934,1,2,0:3:0:0:
461,155,30106,1,0,0:3:0:0:
257,191,30277,1,10,0:3:0:0:
470,292,30449,6,0,P|386:272|326:296,1,142.500005435944,6|0,0:3|0:3,0:3:0:0:
94,292,30963,1,8,0:3:0:0:
310,292,31134,1,0,0:2:0:0:
286,280,31220,1,2,0:2:0:0:
262,268,31306,1,2,0:3:0:0:
38,228,31477,1,0,0:3:0:0:
290,188,31649,1,8,0:3:0:0:
86,158,31820,1,2,0:2:0:0:
294,92,31991,6,0,P|303:126|301:161,1,71.2500027179719,6|0,0:3|0:3,0:3:0:0:
454,328,32334,1,8,0:3:0:0:
430,116,32506,1,0,0:2:0:0:
438,88,32591,1,2,0:2:0:0:
446,60,32677,1,2,0:3:0:0:
234,28,32849,1,4,0:3:0:0:
235,56,32934,1,0,0:3:0:0:
237,84,33020,1,10,0:3:0:0:
169,298,33191,6,0,P|201:248|193:169,1,142.500005435944,6|0,0:3|0:3,0:3:0:0:
41,215,33706,1,8,0:3:0:0:
181,150,33877,1,4,0:3:0:0:
199,128,33963,1,2,0:2:0:0:
223,113,34049,1,2,0:3:0:0:
250,105,34134,1,0,0:3:0:0:
279,105,34220,1,4,0:3:0:0:
306,113,34306,1,0,0:3:0:0:
330,128,34391,1,8,0:3:0:0:
349,149,34477,1,2,0:2:0:0:
361,175,34563,1,2,0:3:0:0:
365,203,34649,1,10,0:3:0:0:
362,236,34734,6,0,L|365:307,1,71.2500027179719,6|0,0:2|0:3,0:3:0:0:
127,299,35077,1,8,0:3:0:0:
370,337,35249,1,2,0:2:0:0:
70,353,35420,2,0,L|-4:331,1,71.2500027179719,2|0,0:3|0:3,0:3:0:0:
0,97,35763,1,10,0:3:0:0:
127,299,35934,6,0,P|169:288|258:337,1,142.500005435944,6|0,0:3|0:3,0:3:0:0:
486,309,36449,1,8,0:3:0:0:
278,341,36620,1,0,0:2:0:0:
306,344,36706,1,2,0:2:0:0:
334,347,36791,1,2,0:3:0:0:
435,129,36963,1,0,0:3:0:0:
365,375,37134,2,0,L|355:287,1,71.2500027179719,8|2,0:3|0:2,0:3:0:0:
278,38,37477,6,0,L|286:108,1,71.2500027179719,6|0,0:3|0:3,0:3:0:0:
430,276,37820,1,8,0:3:0:0:
278,128,37991,1,0,0:2:0:0:
250,136,38077,1,2,0:2:0:0:
222,145,38163,1,2,0:3:0:0:
15,93,38334,1,0,0:3:0:0:
278,128,38506,1,10,0:3:0:0:
117,338,38677,6,0,P|131:268|120:198,1,142.500005435944,6|0,0:3|0:3,0:3:0:0:
364,144,39191,1,8,0:3:0:0:
144,118,39363,1,0,0:2:0:0:
139,89,39449,1,2,0:2:0:0:
134,61,39534,1,2,0:3:0:0:
384,66,39706,1,0,0:3:0:0:
120,198,39877,1,10,0:3:0:0:
364,144,40049,1,0,0:2:0:0:
369,173,40134,1,2,0:2:0:0:
374,201,40220,5,6,0:3:0:0:
164,263,40391,1,2,0:2:0:0:
448,240,40563,2,0,P|442:278|446:323,1,71.2500027179719,8|2,0:3|0:2,0:3:0:0:
233,377,40906,2,0,P|239:339|235:294,1,71.2500027179719,2|2,0:3|0:2,0:3:0:0:
303,65,41249,1,10,0:3:0:0:
210,292,41420,6,0,P|195:240|226:152,1,142.500005435944,6|0,0:3|0:3,0:3:0:0:
485,157,41934,1,8,0:3:0:0:
204,131,42106,1,0,0:2:0:0:
203,102,42191,1,2,0:2:0:0:
203,73,42277,2,0,L|192:2,1,71.2500027179719,2|2,0:3|0:2,0:3:0:0:
406,13,42620,1,8,0:3:0:0:
203,102,42791,1,2,0:2:0:0:
498,46,42963,6,0,L|509:117,1,71.2500027179719,6|2,0:3|0:2,0:3:0:0:
263,159,43306,1,8,0:3:0:0:
499,145,43477,1,2,0:2:0:0:
394,355,43649,1,2,0:3:0:0:
376,84,43820,1,2,0:2:0:0:
507,280,43991,1,10,0:3:0:0:
271,294,44163,6,0,L|200:298,1,71.2500027179719,6|0,0:3|0:3,0:3:0:0:
11,196,44506,1,2,0:2:0:0:
332,222,44677,1,8,0:3:0:0:
77,86,44849,1,0,0:2:0:0:
78,114,44934,1,2,0:2:0:0:
79,142,45020,1,2,0:3:0:0:
332,222,45191,1,2,0:2:0:0:
80,170,45363,1,6,0:3:0:0:
399,172,45534,1,8,0:3:0:0:
156,193,45706,5,0,0:3:0:0:
218,315,45877,1,2,0:3:0:0:
217,287,45963,1,4,0:3:0:0:
235,85,46134,1,4,0:3:0:0:
236,113,46220,1,2,0:3:0:0:
349,230,46391,1,6,0:3:0:0:
347,202,46477,1,0,0:3:0:0:
345,174,46563,2,4,L|352:138,1,35.625001358986,4|4,0:3|0:3,0:3:0:0:
414,49,46734,1,8,0:3:0:0:
386,56,46820,1,2,0:2:0:0:
357,57,46906,1,6,0:3:0:0:
328,53,46991,1,2,0:3:0:0:
301,43,47077,6,0,P|266:36|230:41,1,71.2500027179719,6|0,0:2|0:3,0:3:0:0:
4,124,47420,2,0,L|93:138,1,71.2500027179719,10|2,0:3|0:2,0:3:0:0:
176,188,47763,1,0,0:0:0:0:
268,126,47934,1,2,0:3:0:0:
226,335,48106,1,8,0:3:0:0:
436,375,48277,1,2,0:3:0:0:
477,166,48449,6,0,P|471:131|475:95,1,71.2500027179719,6|2,0:3|0:2,0:3:0:0:
266,55,48791,2,0,P|271:89|267:125,1,71.2500027179719,8|0,0:3|0:2,0:3:0:0:
182,138,49049,1,2,0:2:0:0:
169,163,49134,2,0,L|178:255,1,71.2500027179719,2|0,0:3|0:3,0:3:0:0:
384,287,49477,1,10,0:3:0:0:
129,304,49649,1,2,0:3:0:0:
395,261,49820,6,0,P|430:251|465:248,1,71.2500027179719,4|2,0:3|0:2,0:3:0:0:
480,34,50163,1,8,0:3:0:0:
323,218,50334,1,0,0:3:0:0:
294,222,50420,1,2,0:2:0:0:
266,226,50506,1,0,0:3:0:0:
199,53,50677,1,2,0:3:0:0:
232,299,50849,1,8,0:3:0:0:
193,21,51020,6,0,P|261:0|329:15,1,142.500005435944,6|2,0:3|0:2,0:3:0:0:
262,219,51534,1,8,0:3:0:0:
354,36,51706,1,0,0:3:0:0:
382,32,51791,1,2,0:2:0:0:
410,28,51877,1,2,0:3:0:0:
195,157,52049,1,2,0:3:0:0:
451,186,52220,1,8,0:3:0:0:
233,82,52391,1,6,0:3:0:0:
417,261,52563,6,0,L|423:331,1,71.2500027179719,6|2,0:3|0:2,0:3:0:0:
177,369,52906,1,8,0:3:0:0:
352,211,53077,1,2,0:3:0:0:
353,182,53163,1,2,0:2:0:0:
355,153,53249,1,0,0:3:0:0:
150,48,53420,1,0,0:3:0:0:
356,124,53591,1,10,0:3:0:0:
75,78,53763,6,0,P|70:114|71:149,1,71.2500027179719,6|0,0:3|0:3,0:3:0:0:
265,293,54106,1,2,0:2:0:0:
78,181,54277,2,0,L|71:251,1,71.2500027179719,10|0,0:3|0:3,0:3:0:0:
138,306,54534,1,2,0:2:0:0:
130,333,54620,2,0,P|166:330|201:337,1,71.2500027179719,2|0,0:3|0:3,0:3:0:0:
432,290,54963,2,0,L|344:298,1,71.2500027179719,8|0,0:3|0:3,0:3:0:0:
161,187,55306,6,0,P|156:151|163:117,1,71.2500027179719,4|2,0:3|0:3,0:3:0:0:
350,11,55649,2,0,P|354:46|347:80,1,71.2500027179719,8|0,0:3|0:3,0:3:0:0:
377,161,55906,1,2,0:2:0:0:
381,189,55991,2,0,P|377:225|380:260,1,71.2500027179719,2|0,0:3|0:3,0:3:0:0:
163,334,56334,1,10,0:3:0:0:
393,285,56506,6,0,L|464:288,1,71.2500027179719,6|0,0:3|0:3,0:3:0:0:
478,86,56849,1,2,0:2:0:0:
490,300,57020,1,10,0:3:0:0:
512,19,57191,2,0,P|460:6|367:20,1,142.500005435944,2|2,0:3|0:2,0:3:0:0:
147,25,57706,1,10,0:3:0:0:
150,53,57791,1,8,0:3:0:0:
154,81,57877,1,4,0:3:0:0:
158,109,57963,1,6,0:3:0:0:
162,136,58049,6,0,L|150:216,1,71.2500027179719,6|0,0:2|0:2,0:3:0:0:
396,342,58391,1,8,0:3:0:0:
250,179,58563,1,0,0:3:0:0:
254,151,58649,1,2,0:2:0:0:
258,122,58734,1,2,0:3:0:0:
492,59,58906,1,2,0:2:0:0:
340,248,59077,1,10,0:3:0:0:
352,6,59249,1,2,0:3:0:0:
483,208,59420,6,0,P|487:244|486:279,1,71.2500027179719,6|2,0:3|0:2,0:3:0:0:
241,358,59763,2,0,P|237:322|238:287,1,71.2500027179719,10|0,0:3|0:3,0:3:0:0:
320,260,60020,1,2,0:2:0:0:
322,231,60106,2,0,L|311:159,1,71.2500027179719,0|0,0:3|0:3,0:3:0:0:
498,50,60449,1,10,0:3:0:0:
293,137,60620,1,2,0:3:0:0:
108,31,60791,6,0,L|110:105,1,71.2500027179719,6|2,0:3|0:2,0:3:0:0:
44,351,61134,1,8,0:3:0:0:
120,128,61306,1,0,0:3:0:0:
116,156,61391,1,2,0:2:0:0:
112,184,61477,1,2,0:3:0:0:
339,329,61649,1,0,0:3:0:0:
98,261,61820,1,10,0:3:0:0:
275,86,61991,6,0,P|297:153|280:222,1,142.500005435944,6|2,0:3|0:2,0:3:0:0:
30,86,62506,1,8,0:3:0:0:
203,246,62677,1,0,0:3:0:0:
204,274,62763,1,2,0:2:0:0:
203,300,62849,2,0,P|233:320|265:336,1,71.2500027179719,2|0,0:3|0:3,0:3:0:0:
425,348,63191,1,10,0:3:0:0:
281,242,63363,1,2,0:3:0:0:
490,384,63534,6,0,P|499:349|490:315,1,71.2500027179719,6|2,0:3|0:2,0:3:0:0:
285,167,63877,1,8,0:3:0:0:
480,288,64049,1,0,0:3:0:0:
482,259,64134,1,2,0:2:0:0:
485,230,64220,1,0,0:3:0:0:
288,90,64391,1,2,0:3:0:0:
365,289,64563,1,8,0:3:0:0:
165,366,64734,1,2,0:3:0:0:
89,167,64906,6,0,L|95:96,1,71.2500027179719,6|2,0:3|0:2,0:3:0:0:
319,0,65249,1,10,0:3:0:0:
172,170,65420,1,0,0:3:0:0:
172,198,65506,1,2,0:2:0:0:
173,226,65591,1,2,0:3:0:0:
356,308,65763,1,2,0:3:0:0:
108,288,65934,1,8,0:3:0:0:
301,240,66106,1,0,0:2:0:0:
306,211,66191,1,2,0:2:0:0:
311,182,66277,6,0,L|345:114,1,71.2500027179719,6|0,0:3|0:3,0:3:0:0:
117,25,66620,1,10,0:3:0:0:
347,90,66791,1,4,0:3:0:0:
321,77,66877,1,2,0:3:0:0:
292,71,66963,1,4,0:3:0:0:
263,68,67049,1,2,0:3:0:0:
234,70,67134,1,4,0:3:0:0:
206,76,67220,1,2,0:2:0:0:
180,87,67306,1,10,0:3:0:0:
115,336,67477,6,0,P|146:273|136:204,1,142.500005435944,6|2,0:3|0:2,0:3:0:0:
29,2,67991,1,8,0:3:0:0:
123,178,68163,1,0,0:3:0:0:
127,150,68249,1,2,0:2:0:0:
132,121,68334,1,2,0:3:0:0:
376,12,68506,1,2,0:3:0:0:
103,46,68677,1,8,0:3:0:0:
412,88,68849,1,2,0:3:0:0:
132,121,69020,6,0,L|124:203,1,71.2500027179719,6|0,0:2|0:2,0:3:0:0:
168,379,69363,2,0,P|154:333|193:247,1,142.500005435944,10|0,0:3|0:3,0:3:0:0:
250,38,69877,1,2,0:2:0:0:
255,327,70049,1,10,0:3:0:0:
268,16,70220,6,0,L|345:12,1,71.2500027179719,6|0,0:3|0:3,0:3:0:0:
476,159,70563,1,2,0:2:0:0:
209,110,70734,1,10,0:3:0:0:
484,184,70906,2,0,P|474:219|477:254,1,71.2500027179719,2|0,0:3|0:3,0:3:0:0:
208,319,71249,1,2,0:2:0:0:
491,279,71420,1,10,0:3:0:0:
317,54,71591,1,2,0:3:0:0:
290,63,71677,1,2,0:2:0:0:
266,71,71763,6,0,L|252:151,1,71.2500027179719,6|2,0:3|0:2,0:3:0:0:
306,362,72106,2,0,P|319:309|277:229,1,142.500005435944,10|2,0:3|0:2,0:3:0:0:
0,359,72620,2,0,L|91:343,1,71.2500027179719,2|8,0:3|0:3,0:3:0:0:
276,205,72963,6,0,L|290:60,1,142.500005435944,6|2,0:3|0:2,0:3:0:0:
64,63,73477,1,10,0:3:0:0:
69,92,73563,1,2,0:2:0:0:
73,121,73649,1,4,0:3:0:0:
200,247,73820,1,4,0:3:0:0:
186,272,73906,1,0,0:3:0:0:
185,300,73991,1,2,0:3:0:0:
197,325,74077,1,0,0:3:0:0:
218,343,74163,1,12,0:3:0:0:
246,340,74249,1,2,0:2:0:0:
274,337,74334,1,2,0:3:0:0:
302,334,74420,1,2,0:2:0:0:
329,331,74506,6,0,P|365:326|399:335,1,71.2500027179719,6|2,0:3|0:2,0:3:0:0:
512,153,74849,2,0,P|476:157|442:148,1,71.2500027179719,10|0,0:3|0:3,0:3:0:0:
170,151,75191,1,2,0:3:0:0:
418,132,75363,1,2,0:2:0:0:
145,135,75534,1,10,0:3:0:0:
453,199,75706,6,0,L|458:291,1,71.2500027179719,6|0,0:3|0:3,0:3:0:0:
257,340,76049,1,2,0:3:0:0:
264,312,76134,1,2,0:2:0:0:
271,284,76220,1,8,0:3:0:0:
177,69,76391,1,2,0:3:0:0:
278,256,76563,1,4,0:3:0:0:
285,228,76649,1,2,0:2:0:0:
292,200,76734,2,0,L|327:199,1,35.625001358986,2|0,0:3|0:3,0:3:0:0:
217,144,76906,2,0,L|181:144,1,35.625001358986,10|0,0:3|0:3,0:3:0:0:
287,81,77077,1,6,0:3:0:0:
328,72,77163,1,8,0:3:0:0:
369,63,77249,6,0,L|439:70,1,71.2500027179719,6|2,0:3|0:2,0:3:0:0:
512,303,77591,2,0,L|441:295,1,71.2500027179719,10|0,0:3|0:3,0:3:0:0:
468,74,77934,1,2,0:2:0:0:
412,292,78106,2,0,L|341:284,1,71.2500027179719,2|8,0:3|0:3,0:3:0:0:
58,250,78449,6,0,P|127:251|180:297,1,142.500005435944,6|2,0:3|0:2,0:3:0:0:
376,207,78963,1,8,0:3:0:0:
176,326,79134,1,0,0:3:0:0:
203,332,79220,1,2,0:2:0:0:
230,338,79306,1,0,0:3:0:0:
510,281,79477,2,0,L|457:291,1,35.625001358986,2|0,0:3|0:3,0:3:0:0:
276,268,79649,2,0,L|329:258,1,35.625001358986,10|0,0:3|0:3,0:3:0:0:
489,165,79820,2,0,L|436:175,1,35.625001358986,2|0,0:3|0:3,0:3:0:0:
255,151,79991,6,0,L|245:81,1,71.2500027179719,6|0,0:2|0:2,0:3:0:0:
54,17,80334,2,0,P|64:87|32:149,1,142.500005435944,10|0,0:3|0:3,0:3:0:0:
74,287,80849,1,2,0:2:0:0:
154,87,81020,1,10,0:3:0:0:
88,311,81191,6,0,L|157:326,1,71.2500027179719,6|0,0:3|0:3,0:3:0:0:
410,277,81534,2,0,P|376:290|341:291,1,71.2500027179719,2|8,0:3|0:3,0:3:0:0:
148,198,81877,2,0,L|135:234,1,35.625001358986,2|0,0:3|0:3,0:3:0:0:
94,129,82049,2,0,L|91:58,1,71.2500027179719,2|0,0:2|0:3,0:3:0:0:
336,32,82391,1,8,0:3:0:0:
148,198,82563,1,2,0:3:0:0:
362,22,82734,6,0,P|395:37|430:37,1,71.2500027179719,6|2,0:3|0:2,0:3:0:0:
502,240,83077,1,8,0:3:0:0:
336,32,83249,1,0,0:3:0:0:
309,42,83334,1,2,0:2:0:0:
282,52,83420,2,0,L|212:45,1,71.2500027179719,2|0,0:3|0:3,0:3:0:0:
38,257,83763,1,10,0:3:0:0:
335,121,83934,6,0,L|405:128,1,71.2500027179719,6|0,0:3|0:3,0:3:0:0:
312,338,84277,1,2,0:2:0:0:
309,106,84449,1,8,0:3:0:0:
332,247,84620,1,4,0:3:0:0:
305,237,84706,1,0,0:3:0:0:
277,233,84791,1,2,0:3:0:0:
249,237,84877,1,0,0:3:0:0:
222,248,84963,1,2,0:2:0:0:
199,265,85049,1,0,0:3:0:0:
180,286,85134,2,0,L|144:282,1,35.625001358986,10|0,0:3|0:3,0:3:0:0:
26,187,85306,2,0,L|61:191,1,35.625001358986,2|0,0:3|0:3,0:3:0:0:
230,362,85477,6,0,P|264:351|299:355,1,71.2500027179719,6|2,0:3|0:2,0:3:0:0:
446,218,85820,2,0,P|383:249|313:240,1,142.500005435944,10|0,0:3|0:3,0:3:0:0:
364,46,86334,1,2,0:2:0:0:
293,228,86506,1,10,0:3:0:0:
291,13,86677,6,0,L|218:18,1,71.2500027179719,6|0,0:3|0:3,0:3:0:0:
22,101,87020,1,2,0:3:0:0:
192,10,87191,1,8,0:3:0:0:
54,176,87363,1,2,0:3:0:0:
49,204,87449,1,2,0:2:0:0:
44,232,87534,1,0,0:3:0:0:
169,346,87706,1,2,0:3:0:0:
59,153,87877,1,10,0:3:0:0:
280,154,88049,1,2,0:3:0:0:
202,368,88220,6,0,P|238:373|273:368,1,71.2500027179719,6|0,0:3|0:3,0:3:0:0:
444,292,88563,2,0,P|408:286|373:291,1,71.2500027179719,10|0,0:3|0:3,0:3:0:0:
181,350,88906,1,4,0:3:0:0:
228,155,89077,1,2,0:2:0:0:
375,309,89249,1,10,0:3:0:0:
263,85,89420,6,0,B|203:47|203:47|133:65,1,142.500005435944,6|2,0:3|0:2,0:3:0:0:
191,256,89934,2,0,L|191:178,1,71.2500027179719,8|0,0:3|0:3,0:3:0:0:
65,30,90277,1,6,0:3:0:0:
282,99,90449,1,4,0:3:0:0:
309,105,90534,1,0,0:3:0:0:
337,107,90620,1,8,0:3:0:0:
365,106,90706,1,2,0:2:0:0:
393,100,90791,1,2,0:3:0:0:
419,90,90877,1,8,0:3:0:0:
441,72,90963,6,0,L|454:165,1,71.2500027179719,6|0,0:2|0:2,0:3:0:0:
510,333,91306,1,8,0:3:0:0:
315,288,91477,1,0,0:3:0:0:
319,259,91563,1,2,0:2:0:0:
323,231,91649,1,0,0:3:0:0:
259,41,91820,1,2,0:2:0:0:
328,202,91991,1,10,0:3:0:0:
146,62,92163,6,0,L|165:215,1,142.500005435944,6|0,0:3|0:3,0:3:0:0:
404,220,92677,1,8,0:3:0:0:
190,213,92849,1,0,0:3:0:0:
184,241,92934,1,2,0:2:0:0:
179,268,93020,2,0,P|143:271|109:261,1,71.2500027179719,2|0,0:3|0:3,0:3:0:0:
5,91,93363,2,0,L|77:107,1,71.2500027179719,8|0,0:3|0:3,0:3:0:0:
285,15,93706,6,0,P|272:85|298:150,1,142.500005435944,6|8,0:3|0:3,0:3:0:0:
432,64,94220,1,0,0:3:0:0:
427,91,94306,1,2,0:2:0:0:
422,119,94391,2,0,L|427:196,1,71.2500027179719,0|0,0:3|0:3,0:3:0:0:
296,343,94734,1,10,0:3:0:0:
487,253,94906,6,0,P|424:221|354:229,1,142.500005435944,6|2,0:3|0:2,0:3:0:0:
174,318,95420,1,8,0:3:0:0:
290,192,95591,1,0,0:3:0:0:
294,163,95677,1,2,0:2:0:0:
298,134,95763,1,2,0:3:0:0:
443,21,95934,1,2,0:2:0:0:
427,150,96106,1,10,0:3:0:0:
314,5,96277,1,2,0:3:0:0:
509,124,96449,6,0,L|502:272,1,142.500005435944,6|8,0:3|0:3,0:3:0:0:
319,352,96963,1,0,0:3:0:0:
322,323,97049,1,2,0:2:0:0:
325,294,97134,1,0,0:3:0:0:
267,164,97306,1,2,0:2:0:0:
317,380,97477,1,10,0:3:0:0:
106,316,97649,1,2,0:3:0:0:
224,88,97820,6,0,L|241:12,1,71.2500027179719,6|2,0:3|0:2,0:3:0:0:
461,19,98163,1,8,0:3:0:0:
285,140,98334,1,0,0:0:0:0:
277,167,98420,1,0,0:3:0:0:
269,194,98506,1,0,0:3:0:0:
434,322,98677,2,0,L|360:330,1,71.2500027179719,2|8,0:3|0:3,0:3:0:0:
195,234,99020,1,2,0:3:0:0:
444,308,99191,6,0,P|434:273|435:238,1,71.2500027179719,6|2,0:3|0:2,0:3:0:0:
410,24,99534,1,8,0:3:0:0:
441,211,99706,1,0,0:3:0:0:
446,182,99791,1,2,0:2:0:0:
451,153,99877,1,2,0:3:0:0:
317,15,100049,1,2,0:2:0:0:
359,210,100220,1,8,0:3:0:0:
169,150,100391,1,2,0:3:0:0:
440,210,100563,6,0,P|443:246|438:281,1,71.2500027179719,6|2,0:3|0:2,0:3:0:0:
189,342,100906,1,8,0:3:0:0:
303,266,101077,1,6,0:3:0:0:
305,237,101163,1,2,0:2:0:0:
307,208,101249,1,6,0:3:0:0:
295,181,101334,1,2,0:2:0:0:
283,154,101420,1,8,0:3:0:0:
271,128,101506,1,2,0:3:0:0:
259,101,101591,1,10,0:3:0:0:
417,39,101763,1,2,0:2:0:0:
182,66,101934,6,0,L|111:55,1,71.2500027179719,6|0,0:2|0:2,0:3:0:0:
2,222,102277,1,10,0:3:0:0:
150,138,102449,1,0,0:3:0:0:
151,166,102534,1,2,0:2:0:0:
152,194,102620,1,0,0:3:0:0:
368,151,102791,1,2,0:2:0:0:
303,363,102963,1,10,0:3:0:0:
421,81,103134,6,0,B|378:66|378:66|274:86,1,142.500005435944,6|2,0:3|0:2,0:3:0:0:
63,47,103649,1,8,0:3:0:0:
259,90,103820,1,0,0:3:0:0:
262,118,103906,1,2,0:2:0:0:
265,146,103991,1,2,0:3:0:0:
219,340,104163,1,2,0:2:0:0:
346,118,104334,2,0,L|417:124,1,71.2500027179719,10|0,0:3|0:3,0:3:0:0:
512,341,104677,6,0,P|448:361|377:344,1,142.500005435944,6|8,0:3|0:3,0:3:0:0:
146,268,105191,2,0,L|295:277,1,142.500005435944,6|0,0:3|0:3,0:3:0:0:
444,196,105706,1,10,0:3:0:0:
157,187,105877,6,0,P|121:190|86:182,1,71.2500027179719,6|0,0:3|0:3,0:3:0:0:
218,13,106220,1,2,0:3:0:0:
277,225,106391,1,10,0:3:0:0:
62,170,106563,2,0,P|66:207|62:243,1,71.2500027179719,2|0,0:3|0:3,0:3:0:0:
255,311,106906,1,2,0:2:0:0:
52,266,107077,1,10,0:3:0:0:
291,228,107249,1,2,0:3:0:0:
318,234,107334,1,2,0:2:0:0:
345,240,107420,6,0,L|415:229,1,71.2500027179719,6|2,0:3|0:2,0:3:0:0:
490,57,107763,2,0,P|456:70|421:71,1,71.2500027179719,8|0,0:3|0:3,0:3:0:0:
168,202,108106,1,2,0:3:0:0:
400,61,108277,1,2,0:3:0:0:
213,15,108449,1,8,0:3:0:0:
354,247,108620,6,0,B|326:315|326:315|266:348,1,142.500005435944,6|2,0:3|0:2,0:3:0:0:
170,157,109134,1,8,0:3:0:0:
360,218,109306,1,2,0:3:0:0:
357,189,109391,1,2,0:2:0:0:
354,160,109477,1,0,0:3:0:0:
163,80,109649,1,0,0:3:0:0:
350,131,109820,1,10,0:3:0:0:
101,122,109991,1,2,0:3:0:0:
72,118,110077,1,2,0:2:0:0:
43,114,110163,6,0,P|44:78|52:43,1,71.2500027179719,6|0,0:3|0:3,0:3:0:0:
289,42,110506,2,0,P|287:77|279:112,1,71.2500027179719,2|0,0:3|0:3,0:3:0:0:
197,137,110763,1,2,0:2:0:0:
191,164,110849,1,2,0:3:0:0:
65,303,111020,1,2,0:3:0:0:
248,225,111191,1,8,0:3:0:0:
88,105,111363,6,0,B|106:34|106:34|173:16,1,142.500005435944,6|2,0:3|0:2,0:3:0:0:
421,28,111877,1,8,0:3:0:0:
206,47,112049,1,2,0:3:0:0:
203,75,112134,1,2,0:2:0:0:
200,103,112220,1,0,0:3:0:0:
74,228,112391,1,6,0:3:0:0:
99,215,112477,1,0,0:3:0:0:
126,207,112563,1,8,0:3:0:0:
155,205,112649,1,0,0:3:0:0:
183,209,112734,1,6,0:3:0:0:
210,218,112820,1,2,0:2:0:0:
234,233,112906,6,0,B|269:225|269:225|304:228,1,71.2500027179719,6|2,0:3|0:2,0:3:0:0:
507,159,113249,2,0,P|473:169|437:170,1,71.2500027179719,8|0,0:3|0:3,0:3:0:0:
421,86,113506,1,2,0:2:0:0:
399,66,113591,2,0,L|323:71,1,71.2500027179719,2|0,0:3|0:3,0:3:0:0:
109,44,113934,1,10,0:3:0:0:
379,41,114106,6,0,B|303:48,1,71.2500027179719,6|0,0:3|0:3,0:3:0:0:
83,130,114449,1,2,0:3:0:0:
318,135,114620,1,8,0:3:0:0:
198,336,114791,1,0,0:3:0:0:
203,307,114877,1,2,0:2:0:0:
208,278,114963,1,2,0:3:0:0:
341,121,115134,1,6,0:3:0:0:
314,131,115220,1,0,0:3:0:0:
287,140,115306,1,10,0:3:0:0:
259,143,115391,1,0,0:3:0:0:
231,140,115477,1,6,0:3:0:0:
203,132,115563,1,2,0:2:0:0:
178,119,115649,6,0,L|107:127,1,71.2500027179719,6|2,0:3|0:2,0:3:0:0:
40,354,115991,2,0,L|110:345,1,71.2500027179719,10|0,0:3|0:3,0:3:0:0:
202,116,116334,1,0,0:3:0:0:
139,343,116506,2,0,L|209:334,1,71.2500027179719,2|8,0:3|0:3,0:3:0:0:
443,253,116849,6,0,L|372:261,1,71.2500027179719,6|0,0:3|0:3,0:3:0:0:
122,253,117191,1,2,0:2:0:0:
413,178,117363,2,0,P|408:142|411:107,1,71.2500027179719,10|0,0:3|0:3,0:3:0:0:
461,38,117620,1,2,0:2:0:0:
453,10,117706,1,4,0:3:0:0:
199,72,117877,2,0,L|270:70,1,71.2500027179719,6|8,0:3|0:3,0:3:0:0:
447,115,118220,1,0,0:0:0:0:
337,361,118391,5,6,0:3:0:0:
201,174,118563,1,2,0:2:0:0:
420,245,118734,1,8,0:3:0:0:
201,316,118906,1,2,0:3:0:0:
337,130,119077,1,0,0:2:0:0:
316,365,119249,1,2,0:2:0:0:
214,158,119420,1,10,0:3:0:0:
418,265,119591,6,0,L|426:193,1,71.2500027179719,6|0,0:3|0:3,0:3:0:0:
314,22,119934,1,2,0:2:0:0:
336,278,120106,1,10,0:3:0:0:
256,79,120277,1,0,0:3:0:0:
250,107,120363,1,2,0:2:0:0:
244,134,120449,1,2,0:3:0:0:
389,340,120620,1,0,0:3:0:0:
163,168,120791,2,0,L|174:246,1,71.2500027179719,10|0,0:3|0:3,0:3:0:0:
457,271,121134,5,4,0:3:0:0:
464,186,121306,1,8,0:3:0:0:
472,100,121477,1,8,0:3:0:0:
364,46,121649,5,12,0:3:0:0:
372,132,121820,1,8,0:3:0:0:
379,217,121991,1,0,0:3:0:0:
276,327,122163,6,0,L|303:246,1,71.2500027179719,12|0,0:3|0:3,0:3:0:0:
234,201,122420,1,0,0:3:0:0:
242,173,122506,6,0,L|246:118,2,47.5000018119813,4|0|0,0:3|0:3|0:3,0:3:0:0:
168,73,122849,2,0,L|177:-1,2,63.3333333333333,12|0|0,0:3|0:3|0:3,0:3:0:0:
95,123,123173,5,8,0:3:0:0:
171,161,123281,1,8,0:3:0:0:
175,247,123389,1,8,0:3:0:0:
103,293,123497,1,8,0:3:0:0:
27,254,123611,1,4,0:3:0:0:
23,169,123725,1,12,0:3:0:0:
99,207,125250,5,4,0:3:0:0:
413,177,125421,1,8,0:3:0:0:
413,177,125764,1,4,0:3:0:0:
134,137,126107,5,4,0:3:0:0:
378,247,126279,1,8,0:3:0:0:
256,29,126450,1,4,0:3:0:0:
256,355,126621,6,0,P|257:224|347:319,1,332.5,4|0,0:1|0:0,0:0:0:0:
283,290,127993,6,0,B|163:234|163:336|55:287,1,237.5,2|0,0:0|0:0,0:0:0:0:
83,222,129021,1,0,0:0:0:0:
83,150,129193,1,0,0:0:0:0:
30,102,129364,6,0,P|71:79|118:86,1,95,2|0,0:0|0:0,0:0:0:0:
154,148,129879,2,0,L|251:130,1,95,2|0,0:0|0:0,0:0:0:0:
318,141,130393,1,0,0:0:0:0:
293,74,130564,6,0,P|361:82|389:144,1,142.5,2|0,0:0|0:0,0:0:0:0:
384,216,131250,2,0,P|383:239|385:263,1,47.5,2|0,0:0|0:0,0:0:0:0:
435,314,131593,1,0,0:0:0:0:
392,371,131764,1,0,0:0:0:0:
320,367,131936,1,0,0:0:0:0:
283,306,132107,6,0,L|183:311,1,95,2|0,0:0|0:0,0:0:0:0:
116,316,132621,2,0,P|152:286|169:242,1,95,2|0,0:0|0:0,0:0:0:0:
118,190,133136,1,0,0:0:0:0:
57,151,133307,6,0,L|68:54,1,95,2|0,0:0|0:0,0:0:0:0:
137,39,133821,1,0,0:0:0:0:
189,87,133993,2,0,P|237:90|284:86,1,95,2|0,0:0|0:0,0:0:0:0:
346,51,134507,1,0,0:0:0:0:
417,55,134679,1,0,0:0:0:0:
466,106,134850,6,0,L|454:248,1,142.5,2|0,0:0|0:0,0:0:0:0:
393,308,135536,2,0,P|369:313|346:311,1,47.5,2|0,0:0|0:0,0:0:0:0:
286,272,135879,1,0,0:0:0:0:
268,203,136050,6,0,L|153:208,1,95,2|0,0:0|0:0,0:0:0:0:
137,267,136564,2,0,P|136:291|137:315,1,47.5,2|0,0:0|0:0,0:0:0:0:
204,337,136907,1,0,0:0:0:0:
274,346,137079,1,0,0:0:0:0:
340,322,137250,1,0,0:0:0:0:
390,272,137421,1,0,0:0:0:0:
413,204,137593,6,0,P|401:158|408:111,1,95,6|0,0:0|0:0,0:0:0:0:
383,44,138107,2,0,L|336:52,1,47.5,2|0,0:0|0:0,0:0:0:0:
280,96,138450,2,0,P|236:78|190:87,1,95,2|0,0:0|0:0,0:0:0:0:
117,86,138964,6,0,P|121:134|115:181,1,95,2|0,0:0|0:0,0:0:0:0:
59,227,139479,2,0,P|99:252|146:246,1,95,2|0,0:0|0:0,0:0:0:0:
197,196,139993,1,0,0:0:0:0:
267,190,140164,1,0,0:0:0:0:
316,241,140336,6,0,L|410:242,1,95,2|0,0:0|0:0,0:0:0:0:
465,288,140850,2,0,P|482:244|468:200,1,95,2|0,0:0|0:0,0:0:0:0:
401,171,141364,1,0,0:0:0:0:
369,106,141536,1,0,0:0:0:0:
402,43,141707,6,0,P|356:36|301:124,1,142.5,2|0,0:0|0:0,0:0:0:0:
329,167,142393,1,0,0:0:0:0:
258,160,142564,2,0,L|194:155,1,47.5,2|0,0:0|0:0,0:0:0:0:
147,122,142907,1,2,0:0:0:0:
83,156,143079,6,0,P|67:225|75:295,1,142.5,4|0,0:0|0:0,0:0:0:0:
137,330,143764,1,0,0:0:0:0:
197,291,143936,2,0,L|263:297,1,47.5,2|0,0:0|0:0,0:0:0:0:
284,353,144279,6,0,P|314:291|278:233,1,142.5,6|0,0:0|0:0,0:0:0:0:
209,216,144964,2,0,L|225:110,1,95,2|0,0:0|0:0,0:0:0:0:
283,82,145479,1,0,0:0:0:0:
220,48,145650,1,0,0:0:0:0:
160,86,145821,6,0,B|112:70|66:82,1,95,6|0,0:0|0:0,0:0:0:0:
23,139,146336,2,0,L|32:193,1,47.5,6|0,0:0|0:0,0:0:0:0:
70,245,146679,2,0,P|118:238|171:244,1,95,6|0,0:0|0:0,0:0:0:0:
240,269,147193,5,14,0:3:0:0:
299,209,147364,1,4,0:3:0:0:
322,224,147450,1,0,0:3:0:0:
350,230,147536,1,8,0:3:0:0:
377,223,147621,1,0,0:3:0:0:
400,206,147707,1,4,0:3:0:0:
414,182,147793,1,0,0:3:0:0:
417,154,147879,1,2,0:3:0:0:
408,127,147964,1,0,0:3:0:0:
389,106,148050,1,6,0:3:0:0:
363,94,148136,1,0,0:3:0:0:
335,94,148221,1,10,0:3:0:0:
309,105,148307,1,2,0:2:0:0:
290,125,148393,1,2,0:3:0:0:
281,153,148479,1,2,0:2:0:0:
283,182,148564,6,0,P|236:175|189:184,1,95,4|0,0:1|0:2,0:3:0:0:
68,26,148907,1,8,0:3:0:0:
202,200,149079,2,0,L|191:294,1,95,2|0,0:3|0:3,0:3:0:0:
375,365,149421,1,2,0:2:0:0:
187,322,149593,1,10,0:3:0:0:
430,306,149764,1,0,0:3:0:0:
158,244,149936,6,0,B|114:231|114:231|66:243,1,95,6|2,0:3|0:2,0:0:0:0:
10,21,150279,1,8,0:3:0:0:
216,186,150450,2,0,P|304:210|381:160,1,190,2|2,0:3|0:2,0:3:0:0:
151,66,150964,1,10,0:3:0:0:
414,33,151136,1,2,0:3:0:0:
312,277,151307,6,0,L|301:377,1,95,6|0,0:2|0:2,0:3:0:0:
73,358,151650,1,8,0:3:0:0:
392,262,151821,2,0,L|403:162,1,95,2|0,0:3|0:3,0:3:0:0:
171,80,152164,1,2,0:2:0:0:
407,138,152336,1,10,0:3:0:0:
169,108,152507,6,0,L|158:208,1,95,6|0,0:3|0:3,0:3:0:0:
365,320,152850,1,2,0:2:0:0:
97,252,153021,1,10,0:3:0:0:
325,253,153193,1,0,0:3:0:0:
332,215,153279,1,2,0:2:0:0:
339,177,153364,1,0,0:3:0:0:
488,22,153536,1,2,0:3:0:0:
472,263,153707,1,10,0:3:0:0:
413,42,153879,1,2,0:3:0:0:
417,79,153964,1,2,0:2:0:0:
421,116,154050,6,0,P|374:111|330:129,1,95,6|0,0:2|0:2,0:3:0:0:
73,128,154393,2,0,P|119:132|163:114,1,95,8|2,0:3|0:3,0:3:0:0:
168,29,154650,1,2,0:2:0:0:
202,44,154736,2,0,L|297:41,1,95,0|0,0:3|0:3,0:3:0:0:
270,269,155079,1,10,0:3:0:0:
315,7,155250,6,0,L|326:129,1,95,6|0,0:3|0:3,0:3:0:0:
200,319,155593,1,2,0:2:0:0:
384,149,155764,1,10,0:3:0:0:
141,67,155936,2,0,P|135:114|137:165,1,95,2|0,0:3|0:3,0:3:0:0:
323,199,156279,1,2,0:2:0:0:
72,205,156450,1,10,0:3:0:0:
317,282,156621,1,2,0:3:0:0:
262,32,156793,6,0,L|365:22,1,95,6|0,0:2|0:2,0:3:0:0:
417,253,157136,1,8,0:3:0:0:
433,45,157307,1,0,0:3:0:0:
386,275,157479,2,0,P|338:272|295:290,1,95,2|2,0:3|0:2,0:3:0:0:
240,68,157821,1,10,0:3:0:0:
293,328,157993,6,0,L|199:326,1,95,6|0,0:3|0:3,0:3:0:0:
79,118,158336,1,2,0:2:0:0:
122,361,158507,2,0,P|114:315|117:266,1,95,10|0,0:3|0:3,0:3:0:0:
402,184,158850,1,2,0:3:0:0:
102,253,159021,1,2,0:2:0:0:
303,21,159193,1,10,0:3:0:0:
277,327,159364,1,2,0:3:0:0:
118,63,159536,6,0,P|127:110|128:157,1,95,6|0,0:2|0:2,0:3:0:0:
356,274,159879,1,8,0:3:0:0:
78,216,160050,2,0,L|85:310,1,95,2|0,0:3|0:3,0:3:0:0:
313,341,160393,1,2,0:3:0:0:
165,179,160564,1,8,0:3:0:0:
378,132,160736,1,2,0:3:0:0:
291,360,160907,6,0,L|195:351,1,95,6|2,0:3|0:2,0:3:0:0:
221,123,161250,1,8,0:3:0:0:
355,308,161421,1,2,0:3:0:0:
392,310,161507,1,2,0:2:0:0:
430,312,161593,1,0,0:3:0:0:
472,125,161764,1,2,0:2:0:0:
275,268,161936,1,10,0:3:0:0:
493,206,162107,1,2,0:3:0:0:
246,190,162279,6,0,P|246:133|251:85,1,95,6|0,0:2|0:2,0:3:0:0:
448,26,162621,1,8,0:3:0:0:
165,3,162793,2,0,L|167:97,1,95,2|0,0:3|0:2,0:3:0:0:
394,87,163136,1,2,0:2:0:0:
168,131,163307,1,10,0:3:0:0:
447,152,163479,1,2,0:3:0:0:
133,207,163650,6,0,P|139:255|133:302,1,95,4|0,0:2|0:2,0:3:0:0:
372,338,163993,1,8,0:3:0:0:
184,365,164164,1,2,0:2:0:0:
425,281,164336,1,2,0:3:0:0:
117,326,164507,2,0,L|19:316,1,95,2|8,0:3|0:3,0:3:0:0:
50,48,164850,6,0,P|8:130|56:206,1,190,6|2,0:2|0:2,0:3:0:0:
309,151,165364,1,8,0:3:0:0:
97,125,165536,1,2,0:2:0:0:
181,321,165707,1,2,0:3:0:0:
373,88,165879,2,0,L|468:73,1,95,2|8,0:3|0:3,0:3:0:0:
470,311,166221,6,0,P|477:264|464:219,1,95,6|0,0:2|0:3,0:3:0:0:
304,282,166564,1,4,0:3:0:0:
270,298,166650,1,2,0:2:0:0:
232,301,166736,1,8,0:3:0:0:
196,286,166821,1,0,0:3:0:0:
174,255,166907,1,6,0:3:0:0:
167,217,166993,1,2,0:2:0:0:
179,181,167079,1,4,0:3:0:0:
207,155,167164,1,0,0:3:0:0:
239,135,167250,1,4,0:3:0:0:
259,103,167336,1,2,0:2:0:0:
267,65,167421,1,10,0:3:0:0:
255,29,167507,1,2,0:2:0:0:
222,9,167593,1,6,0:3:0:0:
183,6,167679,1,6,0:3:0:0:
156,33,167764,6,0,L|167:150,1,95,6|0,0:2|0:2,0:3:0:0:
63,321,168107,1,8,0:3:0:0:
239,135,168279,2,0,P|234:189|245:237,1,95,2|0,0:3|0:3,0:3:0:0:
468,262,168621,1,2,0:3:0:0:
206,308,168793,1,8,0:3:0:0:
414,204,168964,1,2,0:3:0:0:
179,334,169136,6,0,P|133:324|87:337,1,95,6|0,0:2|0:2,0:3:0:0:
44,131,169479,1,8,0:3:0:0:
60,325,169650,1,2,0:3:0:0:
67,287,169736,1,2,0:2:0:0:
74,249,169821,1,2,0:3:0:0:
87,42,169993,1,0,0:3:0:0:
158,299,170164,2,0,P|204:293|254:291,1,95,10|0,0:3|0:3,0:3:0:0:
428,142,170507,5,4,0:3:0:0:
392,156,170593,1,0,0:3:0:0:
356,170,170679,1,8,0:3:0:0:
231,28,170850,1,10,0:3:0:0:
344,250,171021,1,4,0:3:0:0:
308,264,171107,1,0,0:3:0:0:
272,278,171193,1,8,0:3:0:0:
147,136,171364,1,2,0:3:0:0:
234,360,171536,1,14,0:3:0:0:
196,352,171621,1,0,0:3:0:0:
158,345,171707,1,6,0:3:0:0:
120,338,171793,1,2,0:2:0:0:
82,329,171879,6,0,L|77:234,1,95,6|0,0:2|0:2,0:3:0:0:
123,29,172221,2,0,L|128:124,1,95,8|0,0:3|0:3,0:3:0:0:
357,137,172564,1,2,0:3:0:0:
161,203,172736,1,2,0:2:0:0:
316,339,172907,1,10,0:3:0:0:
423,73,173079,6,0,B|448:113|448:113|438:157|438:157|466:204|448:250,1,190,6|2,0:3|0:2,0:3:0:0:
195,228,173593,2,0,L|292:222,1,95,10|0,0:3|0:3,0:3:0:0:
476,330,173936,1,2,0:3:0:0:
350,110,174107,2,0,L|227:136,1,95,2|8,0:3|0:3,0:3:0:0:
132,321,174450,1,2,0:3:0:0:
231,113,174621,6,0,P|236:70|216:20,1,95,6|0,0:2|0:2,0:3:0:0:
25,140,174964,1,10,0:3:0:0:
290,153,175136,2,0,L|285:255,1,95,2|0,0:3|0:3,0:3:0:0:
60,352,175479,2,0,L|65:250,1,95,2|8,0:3|0:3,0:3:0:0:
215,111,175821,1,2,0:3:0:0:
221,73,175907,1,2,0:2:0:0:
227,35,175993,6,0,P|271:44|323:31,1,95,6|2,0:3|0:2,0:3:0:0:
336,251,176336,1,10,0:3:0:0:
351,12,176507,2,0,L|448:24,1,95,2|0,0:3|0:3,0:3:0:0:
427,272,176850,1,2,0:3:0:0:
288,66,177021,1,8,0:3:0:0:
180,287,177193,1,2,0:3:0:0:
457,249,177364,6,0,P|448:202|452:155,1,95,6|0,0:2|0:2,0:2:0:0:
243,26,177707,2,0,L|246:138,1,95,8|0,0:3|0:3,0:3:0:0:
441,76,178050,1,2,0:2:0:0:
142,148,178221,1,2,0:3:0:0:
416,161,178393,1,8,0:3:0:0:
285,17,178564,1,2,0:3:0:0:
272,290,178736,6,0,L|268:196,1,95,6|2,0:3|0:2,0:3:0:0:
139,25,179079,2,0,B|132:76|132:76|141:118,1,95,10|0,0:3|0:3,0:3:0:0:
211,322,179421,1,2,0:2:0:0:
141,125,179593,1,2,0:3:0:0:
306,315,179764,1,8,0:3:0:0:
211,61,179936,1,2,0:3:0:0:
380,251,180107,6,0,L|391:145,1,95,6|2,0:2|0:2,0:3:0:0:
148,9,180450,2,0,L|157:105,1,95,8|2,0:3|0:2,0:3:0:0:
359,338,180793,1,2,0:2:0:0:
222,149,180964,1,0,0:0:0:0:
453,126,181136,1,10,0:3:0:0:
276,350,181307,6,0,P|228:354|181:347,1,95,6|0,0:3|0:3,0:3:0:0:
282,116,181650,1,2,0:2:0:0:
198,332,181821,1,8,0:3:0:0:
311,106,181993,1,2,0:3:0:0:
168,341,182164,1,2,0:3:0:0:
162,188,182336,1,4,0:3:0:0:
137,158,182421,1,0,0:3:0:0:
126,122,182507,1,10,0:3:0:0:
129,85,182593,1,0,0:2:0:0:
147,51,182679,1,6,0:3:0:0:
176,27,182764,1,2,0:2:0:0:
212,16,182850,6,0,L|304:42,1,95,4|0,0:2|0:2,0:3:0:0:
271,249,183193,1,8,0:3:0:0:
355,100,183364,1,0,0:3:0:0:
364,131,183450,1,2,0:2:0:0:
373,162,183536,1,2,0:3:0:0:
230,320,183707,1,4,0:3:0:0:
203,293,183793,1,0,0:3:0:0:
191,258,183879,1,10,0:3:0:0:
196,220,183964,1,2,0:2:0:0:
218,190,184050,6,0,B|231:140|231:140|212:119|212:119|241:62|217:12,1,190,6|2,0:3|0:2,0:3:0:0:
4,70,184564,1,10,0:3:0:0:
196,220,184736,1,0,0:3:0:0:
200,257,184821,1,2,0:2:0:0:
204,294,184907,1,2,0:3:0:0:
421,365,185079,2,0,P|409:320|416:270,1,95,2|8,0:3|0:3,0:3:0:0:
420,33,185421,1,2,0:3:0:0:
426,241,185593,6,0,L|413:146,1,95,6|0,0:2|0:2,0:3:0:0:
205,33,185936,1,8,0:3:0:0:
343,249,186107,2,0,L|355:343,1,95,2|0,0:3|0:3,0:3:0:0:
49,326,186450,1,2,0:3:0:0:
279,190,186621,1,10,0:3:0:0:
53,49,186793,1,2,0:3:0:0:
55,87,186879,1,2,0:2:0:0:
56,125,186964,6,0,P|64:176|48:224,1,95,6|2,0:3|0:2,0:3:0:0:
261,326,187307,1,8,0:3:0:0:
27,239,187479,2,0,L|41:344,1,95,2|0,0:3|0:3,0:3:0:0:
232,251,187821,1,2,0:2:0:0:
16,356,187993,1,10,0:3:0:0:
281,324,188164,1,2,0:3:0:0:
122,111,188336,6,0,L|110:222,1,95,6|0,0:2|0:2,0:3:0:0:
312,332,188679,1,8,0:3:0:0:
148,282,188850,1,2,0:3:0:0:
150,320,188936,1,2,0:2:0:0:
153,358,189021,1,0,0:3:0:0:
397,356,189193,2,0,P|395:308|373:267,1,95,2|8,0:3|0:3,0:3:0:0:
430,46,189536,1,2,0:3:0:0:
353,281,189707,6,0,L|258:279,1,95,6|2,0:3|0:3,0:3:0:0:
159,63,190050,1,8,0:3:0:0:
268,194,190221,1,4,0:3:0:0:
305,196,190307,1,0,0:3:0:0:
341,185,190393,1,6,0:3:0:0:
367,157,190479,1,0,0:3:0:0:
381,121,190564,1,2,0:2:0:0:
382,83,190650,1,0,0:3:0:0:
363,49,190736,1,8,0:3:0:0:
331,27,190821,1,2,0:2:0:0:
293,20,190907,1,6,0:3:0:0:
255,29,190993,1,2,0:2:0:0:
224,51,191079,6,0,L|125:46,1,95,6|0,0:2|0:2,0:3:0:0:
49,281,191421,1,12,0:3:0:0:
269,218,191593,1,8,0:3:0:0:
122,123,191764,1,6,0:3:0:0:
195,375,191936,1,10,0:3:0:0:
186,57,192107,1,12,0:3:0:0:
283,382,192279,1,8,0:3:0:0:
273,51,192450,5,4,0:3:0:0:
116,326,192621,1,0,0:3:0:0:
343,108,192793,2,0,L|353:212,1,95,14|0,0:3|0:3,0:3:0:0:
43,274,193136,2,0,L|33:170,1,95,6|0,0:3|0:3,0:3:0:0:
293,44,193479,1,14,0:3:0:0:
116,326,193650,1,0,0:3:0:0:
342,107,193821,6,0,P|389:114|436:108,1,95,6|0,0:2|0:2,0:3:0:0:
471,335,194164,1,8,0:3:0:0:
257,149,194336,2,0,L|138:145,1,95,6|0,0:2|0:2,0:3:0:0:
32,357,194679,1,0,0:3:0:0:
5,55,194850,2,0,B|53:68|53:68|112:72,1,95,6|0,0:2|0:2,0:3:0:0:
86,280,195193,5,6,0:2:0:0:
214,61,195364,1,8,0:3:0:0:
241,314,195536,1,12,0:3:0:0:
70,124,195707,1,6,0:2:0:0:
319,178,195879,1,4,0:3:0:0:
338,145,195964,1,0,0:3:0:0:
370,125,196050,1,8,0:3:0:0:
408,122,196136,1,0,0:3:0:0:
443,135,196221,1,6,0:2:0:0:
468,163,196307,1,2,0:2:0:0:
479,199,196393,1,2,0:3:0:0:
472,236,196479,1,2,0:2:0:0:
450,266,196564,6,0,L|377:271,1,71.2500027179719,6|2,0:2|0:2,0:3:0:0:
127,316,196907,1,8,0:3:0:0:
308,229,197079,1,2,0:2:0:0:
61,257,197250,2,0,P|60:221|65:186,1,71.2500027179719,2|0,0:3|0:3,0:3:0:0:
261,72,197593,1,10,0:3:0:0:
78,161,197764,6,0,P|91:91|74:23,1,142.500005435944,6|2,0:3|0:2,0:3:0:0:
281,1,198279,1,8,0:3:0:0:
198,190,198450,1,0,0:3:0:0:
195,218,198536,1,2,0:2:0:0:
192,246,198621,1,2,0:3:0:0:
28,346,198793,1,2,0:2:0:0:
239,311,198964,1,10,0:3:0:0:
104,146,199136,1,0,0:3:0:0:
273,233,199307,6,0,P|309:233|344:225,1,71.2500027179719,6|2,0:3|0:2,0:3:0:0:
311,35,199650,1,8,0:3:0:0:
369,210,199821,1,0,0:3:0:0:
397,208,199907,1,2,0:2:0:0:
425,206,199993,1,2,0:3:0:0:
435,42,200164,1,2,0:2:0:0:
499,245,200336,1,10,0:3:0:0:
350,20,200507,6,0,L|353:162,1,142.500005435944,6|2,0:3|0:2,0:3:0:0:
266,326,201021,2,0,P|261:291|268:256,1,71.2500027179719,8|0,0:3|0:3,0:3:0:0:
223,184,201279,1,2,0:2:0:0:
238,160,201364,2,0,L|234:79,1,71.2500027179719,2|2,0:3|0:2,0:3:0:0:
336,14,201707,1,10,0:3:0:0:
141,60,201879,1,0,0:3:0:0:
112,55,201964,1,0,0:3:0:0:
83,51,202050,6,0,L|85:130,1,71.2500027179719,6|2,0:2|0:2,0:3:0:0:
47,302,202393,1,8,0:3:0:0:
96,148,202564,1,0,0:3:0:0:
98,176,202650,1,2,0:2:0:0:
100,204,202736,1,2,0:3:0:0:
314,237,202907,1,2,0:2:0:0:
134,282,203079,1,10,0:3:0:0:
369,297,203250,6,0,P|395:232|362:172,1,142.500005435944,6|2,0:3|0:2,0:3:0:0:
377,0,203764,1,8,0:3:0:0:
333,168,203936,1,0,0:3:0:0:
304,164,204021,1,2,0:2:0:0:
275,160,204107,1,2,0:3:0:0:
238,0,204279,1,2,0:2:0:0:
246,156,204450,2,0,L|171:156,1,71.2500027179719,10|0,0:3|0:3,0:3:0:0:
19,184,204793,6,0,P|55:184|88:197,1,71.2500027179719,6|2,0:3|0:2,0:3:0:0:
285,235,205136,1,8,0:3:0:0:
107,219,205307,1,0,0:3:0:0:
108,247,205393,1,2,0:2:0:0:
109,274,205479,2,0,P|103:310|105:345,1,71.2500027179719,2|2,0:3|0:2,0:3:0:0:
303,304,205821,1,10,0:3:0:0:
190,216,205993,6,0,P|210:150|184:84,1,142.500005435944,6|2,0:3|0:2,0:3:0:0:
20,158,206507,1,12,0:3:0:0:
31,183,206593,1,0,0:3:0:0:
36,211,206679,1,2,0:2:0:0:
35,240,206764,1,0,0:3:0:0:
27,267,206850,1,6,0:3:0:0:
13,291,206936,1,0,0:3:0:0:
9,319,207021,1,2,0:2:0:0:
17,347,207107,1,0,0:3:0:0:
35,369,207193,1,14,0:3:0:0:
60,382,207279,1,2,0:2:0:0:
88,385,207364,1,4,0:3:0:0:
115,377,207450,1,2,0:2:0:0:
137,359,207536,6,0,L|208:364,1,71.2500027179719,6|2,0:2|0:2,0:3:0:0:
388,316,207879,2,0,L|317:311,1,71.2500027179719,8|0,0:3|0:3,0:3:0:0:
263,244,208136,1,2,0:2:0:0:
276,219,208221,2,0,P|279:183|276:148,1,71.2500027179719,2|2,0:3|0:2,0:3:0:0:
436,40,208564,1,10,0:3:0:0:
197,144,208736,6,0,L|189:0,1,142.500005435944,6|2,0:3|0:2,0:3:0:0:
10,56,209250,1,8,0:3:0:0:
132,195,209421,1,0,0:3:0:0:
129,223,209507,1,2,0:2:0:0:
126,251,209593,1,2,0:3:0:0:
277,347,209764,1,2,0:2:0:0:
153,374,209936,1,10,0:3:0:0:
249,223,210107,1,0,0:3:0:0:
40,335,210279,6,0,L|46:257,1,71.2500027179719,6|2,0:3|0:2,0:3:0:0:
35,50,210621,1,8,0:3:0:0:
55,237,210793,1,0,0:3:0:0:
54,208,210879,1,2,0:2:0:0:
53,179,210964,1,2,0:3:0:0:
113,0,211136,1,2,0:2:0:0:
139,190,211307,1,10,0:3:0:0:
200,7,211479,6,0,P|270:19|339:2,1,142.500005435944,6|2,0:3|0:2,0:3:0:0:
473,97,211993,2,0,L|386:84,1,71.2500027179719,8|0,0:3|0:3,0:3:0:0:
330,131,212250,1,2,0:2:0:0:
306,114,212336,2,0,L|227:117,1,71.2500027179719,2|2,0:3|0:2,0:3:0:0:
30,82,212679,1,10,0:3:0:0:
220,141,212850,1,0,0:3:0:0:
218,169,212936,1,2,0:2:0:0:
215,197,213021,6,0,L|220:268,1,71.2500027179719,6|2,0:2|0:2,0:3:0:0:
421,259,213364,1,8,0:3:0:0:
239,289,213536,1,0,0:3:0:0:
236,317,213621,1,2,0:2:0:0:
234,345,213707,1,2,0:3:0:0:
20,361,213879,1,2,0:2:0:0:
112,169,214050,1,10,0:3:0:0:
233,344,214221,6,0,P|305:345|376:341,1,142.500005435944,6|2,0:3|0:2,0:3:0:0:
392,113,214736,1,8,0:3:0:0:
441,284,214907,1,0,0:3:0:0:
443,255,214993,1,2,0:2:0:0:
445,226,215079,1,2,0:3:0:0:
447,197,215164,1,0,0:3:0:0:
449,168,215250,1,2,0:2:0:0:
314,0,215421,2,0,L|323:88,1,71.2500027179719,10|0,0:3|0:3,0:3:0:0:
131,203,215764,5,6,0:3:0:0:
338,101,215936,1,2,0:2:0:0:
229,305,216107,1,8,0:3:0:0:
197,77,216279,1,2,0:2:0:0:
358,243,216450,1,2,0:3:0:0:
118,180,216621,1,2,0:2:0:0:
362,109,216793,1,10,0:3:0:0:
205,309,216964,6,0,L|207:235,1,71.2500027179719,6|0,0:3|0:3,0:3:0:0:
304,49,217307,1,0,0:3:0:0:
127,211,217479,1,8,0:3:0:0:
385,173,217650,1,2,0:2:0:0:
119,90,217821,1,2,0:3:0:0:
392,293,217993,1,2,0:2:0:0:
229,11,218164,1,10,0:3:0:0:
282,372,218336,1,2,0:3:0:0:
278,88,218507,5,6,0:3:0:0:
313,295,218679,1,0,0:0:0:0:
310,266,218764,1,0,0:0:0:0:
307,237,218850,1,0,0:0:0:0:
186,36,219021,2,0,L|196:122,1,71.2500027179719,6|0,0:3|0:3,0:3:0:0:
193,364,219364,2,0,L|183:278,1,71.2500027179719,6|0,0:3|0:3,0:3:0:0:
358,127,219707,5,14,0:3:0:0:
256,192,219793,12,0,222621,0:0:0:0:
