osu file format v14

[General]
AudioFilename: audio.mp3
AudioLeadIn: 0
PreviewTime: 126107
Countdown: 1
SampleSet: Normal
StackLeniency: 0.7
Mode: 0
LetterboxInBreaks: 0
WidescreenStoryboard: 1

[Editor]
DistanceSpacing: 1.1
BeatDivisor: 2
GridSize: 4
TimelineZoom: 1.2

[Metadata]
Title:You Say Run
TitleUnicode:You Say Run
Artist:Yuki Hayashi
ArtistUnicode:林 ゆうき
Creator:Zare
Version:Normal
Source:僕のヒーローアカデミア
Tags:BNHA MHA Boku No Hero Academia My Academy Anime OST Official Soundtrack Instrumental Orchestral Symphonic Rock Akitoshi
BeatmapID:1258436
BeatmapSetID:487907

[Difficulty]
HPDrainRate:4
CircleSize:3
OverallDifficulty:4.5
ApproachRate:5.5
SliderMultiplier:0.7
SliderTickRate:1

[Events]
//Background and Video events
0,0,"BNHA.jpg",0,0
//Break Periods
2,126821,146068
//Storyboard Layer 0 (Background)
//Storyboard Layer 1 (Fail)
//Storyboard Layer 2 (Pass)
//Storyboard Layer 3 (Foreground)
//Storyboard Sound Samples

[TimingPoints]
449,342.857142857143,4,2,0,40,1,0
22391,-80,4,3,0,50,0,0
23763,-80,4,1,0,50,0,0
121134,-80,4,1,0,40,0,0
122849,324.324324324324,4,1,0,40,1,0
123497,342.857142857143,4,1,0,40,1,0
123879,342.857142857143,4,1,0,40,1,0
126621,-100,4,1,1,40,0,0
148564,-80,4,1,1,60,0,1
148736,-80,4,1,0,60,0,1
159536,-80,4,1,0,60,0,1
170507,-80,4,1,0,60,0,0
171879,-80,4,1,0,60,0,1
196564,-80,4,1,0,50,0,0
219707,-80,4,1,0,60,0,0
219793,-80,4,2,0,5,0,0

[Colours]
Combo1 : 255,46,9
Combo2 : 98,167,95
Combo3 : 154,154,152
Combo4 : 30,131,232

[HitObjects]
373,54,449,6,0,P|346:117|361:185,1,140,2|2,0:3|0:0,0:0:0:0:
347,267,1477,2,0,P|280:253|214:274,1,140,2|0,0:3|0:0,0:0:0:0:
139,314,2506,1,0,0:0:0:0:
144,230,2849,1,0,0:0:0:0:
187,156,3191,6,0,B|195:102|195:102|174:55,1,105,2|0,0:3|0:0,0:0:0:0:
156,35,3877,1,2,0:0:0:0:
233,2,4220,2,0,P|301:13|370:0,1,140,2|0,0:3|0:0,0:0:0:0:
444,38,5249,1,2,0:0:0:0:
376,87,5591,1,0,0:0:0:0:
453,120,5934,6,0,L|463:226,1,105,2|0,0:3|0:0,0:0:0:0:
471,255,6620,1,2,0:0:0:0:
396,293,6963,2,0,L|299:281,1,70,2|0,0:3|0:0,0:0:0:0:
254,241,7649,1,2,0:0:0:0:
195,300,7991,2,0,P|160:295|126:302,1,70,2|0,0:3|0:0,0:0:0:0:
90,224,8677,6,0,P|70:128|157:83,2,210,2|2|0,0:3|0:3|0:0,0:0:0:0:
142,163,11077,1,2,0:0:0:0:
192,230,11420,6,0,L|186:308,1,70,2|0,0:3|0:0,0:0:0:0:
263,335,12106,2,0,L|269:257,1,70,2|0,0:2|0:0,0:0:0:0:
352,261,12791,2,0,B|342:191|342:191|359:123,1,140,2|2,0:3|0:2,0:0:0:0:
374,41,13820,1,0,0:0:0:0:
294,67,14163,6,0,L|129:42,1,140,2|0,0:3|0:0,0:0:0:0:
124,123,15191,2,0,P|55:118|-1:158,1,140,2|0,0:3|0:0,0:0:0:0:
42,229,16220,1,2,0:3:0:0:
122,205,16563,1,2,0:0:0:0:
103,287,16906,6,0,L|258:306,1,140,2|0,0:3|0:0,0:0:0:0:
321,277,17934,2,0,P|353:288|388:284,1,70,2|0,0:3|0:0,0:0:0:0:
360,204,18620,1,0,0:0:0:0:
324,127,18963,1,0,0:0:0:0:
374,59,19306,1,2,0:0:0:0:
290,51,19649,6,0,P|256:42|221:40,2,70,2|0|0,0:3|0:0|0:0,0:0:0:0:
292,135,20677,2,0,P|331:236|234:186,1,280,2|2,0:2|0:0,0:0:0:0:
135,88,22391,5,6,0:3:0:0:
125,126,22563,2,0,L|132:220,1,87.5,4|6,0:3|0:3,0:0:0:0:
136,252,23077,2,0,P|194:279|258:270,1,131.25,6|6,0:3|0:3,0:0:0:0:
297,278,23763,6,0,L|424:272,1,87.5,6|8,0:2|0:3,0:0:0:0:
480,279,24449,2,0,P|489:236|490:192,1,87.5,2|10,0:3|0:3,0:0:0:0:
453,178,24963,2,0,B|444:112|444:112|458:49,1,131.25,6|8,0:3|0:3,0:0:0:0:
362,39,25820,1,2,0:3:0:0:
266,23,26163,1,8,0:3:0:0:
304,111,26506,6,0,L|308:198,1,87.5,6|8,0:3|0:3,0:0:0:0:
287,292,27191,1,2,0:3:0:0:
215,231,27534,1,10,0:3:0:0:
186,203,27706,2,0,P|142:198|99:202,1,87.5,6|0,0:3|0:3,0:0:0:0:
73,231,28220,1,8,0:3:0:0:
0,167,28563,1,2,0:3:0:0:
31,77,28906,1,8,0:3:0:0:
127,77,29249,6,0,L|214:82,1,87.5,6|8,0:3|0:3,0:0:0:0:
302,45,29934,2,0,P|310:88|298:130,1,87.5,2|10,0:3|0:3,0:0:0:0:
291,169,30449,2,0,L|299:267,1,87.5,6|0,0:3|0:3,0:0:0:0:
315,291,30963,1,8,0:3:0:0:
225,324,31306,2,0,L|136:336,1,87.5,2|8,0:3|0:3,0:0:0:0:
44,315,31991,5,6,0:3:0:0:
7,225,32334,2,0,B|6:180|6:180|18:140,1,87.5,8|2,0:3|0:3,0:0:0:0:
98,85,33020,1,10,0:3:0:0:
130,63,33191,2,0,P|172:70|219:64,1,87.5,6|0,0:3|0:3,0:0:0:0:
238,31,33706,2,0,L|329:36,2,87.5,8|2|8,0:3|0:3|0:3,0:0:0:0:
160,88,34734,6,0,P|151:131|152:175,1,87.5,6|8,0:2|0:3,0:0:0:0:
220,241,35420,2,0,P|263:251|301:272,1,87.5,2|10,0:3|0:3,0:0:0:0:
340,268,35934,2,0,L|428:265,1,87.5,6|0,0:3|0:3,0:0:0:0:
464,249,36449,1,8,0:3:0:0:
416,165,36791,1,2,0:3:0:0:
423,68,37134,1,8,0:3:0:0:
339,108,37477,6,0,L|218:88,1,87.5,6|8,0:3|0:3,0:0:0:0:
156,97,38163,2,0,P|110:90|49:112,1,87.5,2|10,0:3|0:3,0:0:0:0:
39,123,38677,2,0,B|31:193|31:193|35:253,1,131.25,6|8,0:3|0:3,0:0:0:0:
75,341,39534,2,0,L|166:347,1,87.5,2|10,0:3|0:3,0:0:0:0:
254,316,40220,6,0,P|297:325|340:317,1,87.5,6|8,0:3|0:3,0:0:0:0:
375,227,40906,1,2,0:3:0:0:
454,173,41249,1,10,0:3:0:0:
449,134,41420,2,0,P|392:105|329:118,1,131.25,6|8,0:3|0:3,0:0:0:0:
285,204,42277,1,2,0:3:0:0:
231,124,42620,1,8,0:3:0:0:
192,212,42963,6,0,P|148:219|105:213,1,87.5,2|8,0:3|0:3,0:0:0:0:
57,129,43649,2,0,L|1:141,2,43.75,2|2|10,0:3|0:2|0:3,0:0:0:0:
80,96,44163,2,0,P|121:82|165:78,1,87.5,6|2,0:3|0:2,0:0:0:0:
199,96,44677,1,8,0:3:0:0:
280,44,45020,2,0,L|281:0,2,43.75
306,73,45534,1,8,0:3:0:0:
402,68,45877,6,0,L|402:172,1,87.5,2|2,0:3|0:3,0:0:0:0:
442,243,46563,2,0,P|400:254|358:241,1,87.5,4|6,0:3|0:3,0:0:0:0:
327,217,47077,6,0,P|275:251|166:207,1,175,6|0,0:2|0:3,0:0:0:0:
107,148,48106,2,0,L|116:102,1,43.75,8|2,0:3|0:3,0:0:0:0:
129,68,48449,2,0,L|217:52,1,87.5,6|8,0:3|0:3,0:0:0:0:
302,12,49134,2,0,B|303:56|303:56|315:97,1,87.5,2|10,0:3|0:3,0:0:0:0:
383,166,49820,6,0,P|388:224|278:238,1,175,4|0,0:3|0:3,0:0:0:0:
256,235,50677,2,0,L|199:239,1,43.75,2|8,0:3|0:3,0:0:0:0:
178,257,51020,2,0,P|113:244|49:257,1,131.25,6|8,0:3|0:3,0:0:0:0:
14,167,51877,1,2,0:3:0:0:
16,70,52220,1,8,0:3:0:0:
49,81,52391,1,6,0:3:0:0:
82,90,52563,6,0,P|130:102|180:92,1,87.5,6|8,0:3|0:3,0:0:0:0:
253,52,53249,2,0,L|247:6,2,43.75,2|0|10,0:3|0:3|0:3,0:0:0:0:
286,73,53763,2,0,L|378:72,1,87.5,6|2,0:3|0:2,0:0:0:0:
411,65,54277,2,0,P|421:108|423:152,1,87.5,10|2,0:3|0:3,0:0:0:0:
489,222,54963,1,8,0:3:0:0:
434,298,55306,6,0,P|389:304|330:292,1,87.5,4|8,0:3|0:3,0:0:0:0:
251,299,55991,2,0,L|179:298,1,43.75,2|0,0:3|0:3,0:0:0:0:
169,308,56334,1,10,0:3:0:0:
130,318,56506,2,0,P|122:269|134:219,1,87.5,6|2,0:3|0:2,0:0:0:0:
149,198,57020,1,10,0:3:0:0:
167,163,57191,2,0,L|139:29,1,131.25,2|2,0:3|0:2,0:0:0:0:
235,19,58049,6,0,P|318:5|375:68,1,175,6|2,0:2|0:3,0:0:0:0:
368,107,58906,1,2,0:3:0:0:
362,146,59078,2,0,L|367:189,1,43.75,2|10,0:2|0:3,0:0:0:0:
366,228,59420,2,0,P|354:270|358:314,2,87.5,6|10|0,0:3|0:3|0:3,0:0:0:0:
450,181,60449,1,10,0:3:0:0:
429,147,60620,1,2,0:3:0:0:
410,112,60791,6,0,P|366:107|323:114,1,87.5,6|8,0:3|0:3,0:0:0:0:
228,130,61477,2,0,L|236:247,1,87.5,2|10,0:3|0:3,0:0:0:0:
210,249,61991,2,0,P|166:252|124:264,1,87.5,6|2,0:3|0:2,0:0:0:0:
91,287,62506,1,8,0:3:0:0:
37,207,62849,1,2,0:3:0:0:
64,115,63191,1,10,0:3:0:0:
92,23,63534,6,0,B|178:60|179:1|264:30,1,175,6|0,0:3|0:3,0:0:0:0:
300,41,64391,2,0,P|314:24|324:5,2,43.75,2|8|2,0:3|0:3|0:3,0:0:0:0:
316,75,64906,2,0,P|323:119|323:163,1,87.5,0|10,0:3|0:3,0:0:0:0:
414,193,65591,1,2,0:3:0:0:
392,226,65763,2,0,L|395:317,1,87.5,2|0,0:3|0:2,0:0:0:0:
381,350,66277,6,0,P|424:359|468:355,2,87.5,6|10|4,0:3|0:3|0:3,0:0:0:0:
343,336,67134,1,4,0:3:0:0:
305,347,67306,1,10,0:3:0:0:
265,359,67477,2,0,P|201:359|152:318,1,131.25,6|2,0:3|0:2,0:0:0:0:
235,269,68334,1,2,0:3:0:0:
151,221,68677,1,8,0:3:0:0:
69,273,69020,6,0,P|49:167|68:59,1,218.75,6|2,0:2|0:2,0:0:0:0:
106,49,70049,1,10,0:3:0:0:
145,49,70220,2,0,P|188:56|230:46,1,87.5,6|2,0:3|0:2,0:0:0:0:
325,33,70906,2,0,P|327:77|323:123,1,87.5,2|2,0:3|0:2,0:0:0:0:
290,155,71420,2,0,L|241:161,1,43.75,10|2,0:3|0:3,0:0:0:0:
209,175,71763,6,0,P|165:180|121:176,2,87.5,6|10|2,0:3|0:3|0:3,0:0:0:0:
241,197,72620,1,2,0:3:0:0:
318,253,72963,2,0,P|382:244|446:258,2,131.25,6|10|2,0:3|0:3|0:3,0:0:0:0:
285,275,74163,2,0,L|225:273,1,43.75,12|2,0:3|0:3,0:3:0:0:
207,293,74506,6,0,P|163:294|119:291,1,87.5,6|10,0:3|0:3,0:0:0:0:
30,327,75191,1,2,0:3:0:0:
46,232,75534,1,10,0:3:0:0:
22,199,75706,2,0,P|21:153|31:108,1,87.5,6|2,0:3|0:3,0:0:0:0:
68,24,76391,2,0,L|161:30,1,87.5,2|2,0:3|0:3,0:0:0:0:
182,59,76906,2,0,L|193:106,1,43.75,10|6,0:3|0:3,0:0:0:0:
180,139,77249,6,0,P|173:182|178:225,2,87.5,6|10|2,0:3|0:3|0:2,0:0:0:0:
191,101,78106,1,2,0:3:0:0:
276,144,78449,2,0,P|380:138|424:43,1,218.75,6|2,0:3|0:3,0:0:0:0:
340,15,79649,1,10,0:3:0:0:
255,60,79991,6,0,L|124:79,2,131.25,6|0|10,0:2|0:0|0:3,0:0:0:0:
289,40,81191,2,0,P|333:36|374:51,1,87.5,6|2,0:3|0:3,0:0:0:0:
374,138,81877,2,0,L|388:242,1,87.5,2|0,0:3|0:3,0:0:0:0:
372,262,82391,1,8,0:3:0:0:
335,350,82734,6,0,P|291:354|248:345,1,87.5,6|8,0:3|0:3,0:0:0:0:
153,341,83420,2,0,L|145:395,2,43.75,2|0|10,0:3|0:3|0:3,0:0:0:0:
129,309,83934,2,0,P|120:266|128:223,1,87.5,6|2,0:3|0:2,0:0:0:0:
153,193,84449,1,8,0:3:0:0:
71,142,84791,1,2,0:3:0:0:
63,103,84963,2,0,L|14:102,2,43.75,2|10|2,0:2|0:3|0:3,0:0:0:0:
81,68,85477,6,0,P|169:62|254:79,1,175,6|0,0:3|0:3,0:0:0:0:
346,52,86506,1,10,0:3:0:0:
359,89,86677,2,0,L|354:182,1,87.5,6|2,0:3|0:3,0:0:0:0:
450,181,87363,2,0,P|452:224|437:265,1,87.5,2|2,0:3|0:3,0:0:0:0:
415,298,87877,2,0,L|422:352,1,43.75,10|2,0:3|0:3,0:0:0:0:
393,369,88220,6,0,P|351:375|307:367,1,87.5,6|10,0:3|0:3,0:0:0:0:
246,291,88906,2,0,L|143:314,1,87.5,4|10,0:3|0:3,0:3:0:0:
139,341,89420,2,0,P|95:345|52:339,1,87.5,6|2,0:3|0:2,0:0:0:0:
41,301,89934,1,8,0:3:0:0:
15,206,90277,2,0,L|33:68,1,131.25,6|2,0:3|0:3,0:0:0:0:
58,47,90963,6,0,P|139:16|225:27,1,175,6|0,0:2|0:2,0:0:0:0:
289,98,91991,1,10,0:3:0:0:
316,125,92163,2,0,L|421:126,1,87.5,6|0,0:3|0:3,0:0:0:0:
437,105,92677,1,8,0:3:0:0:
467,196,93020,2,0,P|457:239|464:282,1,87.5,2|8,0:3|0:3,0:0:0:0:
388,341,93706,6,0,P|332:305|201:347,1,175,6|0,0:3|0:3,0:0:0:0:
139,355,94734,1,10,0:3:0:0:
111,327,94906,2,0,P|108:283|114:240,1,87.5,6|2,0:3|0:2,0:0:0:0:
107,201,95420,1,8,0:3:0:0:
13,177,95763,2,0,L|17:114,1,43.75,2|2,0:3|0:3,0:3:0:0:
34,98,96106,2,0,L|38:35,1,43.75,2|2,0:3|0:3,0:3:0:0:
61,23,96449,6,0,P|141:11|226:62,1,175,6|0,0:3|0:3,0:0:0:0:
314,26,97477,1,10,0:3:0:0:
317,65,97649,1,2,0:3:0:0:
322,102,97820,2,0,L|408:112,1,87.5,6|8,0:3|0:3,0:0:0:0:
443,130,98334,2,0,P|447:173|441:216,2,87.5,2|2|2,0:3|0:3|0:3,0:0:0:0:
408,112,99191,6,0,L|409:17,1,87.5,6|8,0:3|0:3,0:0:0:0:
312,30,99877,2,0,P|250:17|169:53,1,131.25,2|2,0:3|0:3,0:0:0:0:
193,77,100563,2,0,L|205:234,1,131.25,6|6,0:3|0:3,0:0:0:0:
177,237,101249,2,0,B|218:255|218:255|260:256,1,87.5,6|10,0:3|0:3,0:0:0:0:
326,326,101934,6,0,P|401:285|420:202,1,175,6|0,0:2|0:3,0:0:0:0:
327,175,102963,1,10,0:3:0:0:
292,155,103134,2,0,L|200:161,1,87.5,6|2,0:3|0:2,0:0:0:0:
168,145,103649,1,8,0:3:0:0:
85,96,103991,2,0,L|57:235,1,131.25,2|0,0:3|0:3,0:0:0:0:
33,254,104677,6,0,P|1:313|101:301,1,218.75,6|0,0:3|0:3,0:0:0:0:
138,290,105706,1,10,0:3:0:0:
176,280,105877,1,6,0:3:0:0:
258,328,106220,2,0,L|316:324,1,43.75,2|12,0:3|0:3,0:3:0:0:
336,306,106563,2,0,P|394:320|470:300,1,131.25,2|10,0:3|0:2,0:0:0:0:
467,264,107249,1,2,0:3:0:0:
469,224,107420,6,0,L|458:101,1,87.5,6|8,0:3|0:3,0:0:0:0:
364,135,108106,1,2,0:3:0:0:
336,162,108277,2,0,L|295:179,1,43.75,2|8,0:3|0:3,0:0:0:0:
267,206,108620,2,0,P|216:263|212:162,1,218.75,6|0,0:3|0:3,0:0:0:0:
175,73,109820,1,10,0:3:0:0:
202,45,109991,1,2,0:3:0:0:
230,19,110163,6,0,L|331:7,1,87.5,6|8,0:3|0:3,0:0:0:0:
410,34,110849,1,2,0:3:0:0:
406,73,111020,2,0,L|413:129,1,43.75,2|8,0:3|0:3,0:0:0:0:
416,155,111363,2,0,P|403:218|414:282,1,131.25,6|8,0:3|0:3,0:0:0:0:
419,322,112049,1,2,0:3:0:0:
329,352,112391,2,0,P|287:366|245:358,1,87.5,6|6,0:3|0:3,0:0:0:0:
215,331,112906,6,0,L|77:352,1,131.25,6|0,0:3|0:3,0:0:0:0:
47,340,113591,1,2,0:3:0:0:
84,251,113934,1,10,0:3:0:0:
53,225,114106,2,0,P|53:204|52:182,1,43.75,6|0,0:3|0:3,0:0:0:0:
34,144,114449,2,0,P|34:79|58:19,1,131.25,2|0,0:3|0:3,0:3:0:0:
97,21,115134,1,6,0:3:0:0:
135,28,115306,2,0,L|178:34,1,43.75,10|6,0:3|0:3,0:3:0:0:
213,52,115649,6,0,L|317:52,1,87.5,6|10,0:3|0:3,0:3:0:0:
394,65,116334,2,0,P|410:50|424:32,2,43.75,0|2|8,0:3|0:3|0:3,0:0:0:0:
372,98,116849,2,0,P|363:141|367:185,1,87.5,6|2,0:3|0:2,0:0:0:0:
383,219,117363,1,10,0:3:0:0:
366,313,117706,1,2,0:3:0:0:
348,348,117877,2,0,P|306:360|264:352,1,87.5,0|0,0:3|0:3,0:0:0:0:
244,318,118391,5,6,0:3:0:0:
149,335,118734,1,8,0:3:0:0:
186,246,119077,2,0,L|198:180,1,43.75,2|2,0:2|0:2,0:0:0:0:
213,168,119420,1,10,0:3:0:0:
234,135,119591,2,0,P|235:82|210:30,1,87.5,6|2,0:3|0:2,0:0:0:0:
187,32,120106,1,10,0:3:0:0:
150,16,120277,2,0,L|59:20,1,87.5,0|0,0:3|0:3,0:0:0:0:
28,40,120791,1,10,0:3:0:0:
58,131,121134,6,0,P|62:174|52:216,1,87.5,4|0,0:3|0:3,0:0:0:0:
25,247,121649,2,0,P|15:290|20:333,1,87.5,12|0,0:3|0:3,0:0:0:0:
47,360,122163,1,12,0:3:0:0:
141,339,122506,6,0,L|201:336,1,58.3333333333333,4|0,0:3|0:3,0:0:0:0:
216,322,122849,2,0,L|277:324,1,46.6666666666667,12|0,0:3|0:3,0:0:0:0:
282,317,123173,2,0,L|338:324,1,46.6666666666667,4|0,0:3|0:3,0:0:0:0:
345,313,123497,2,0,L|406:319,1,46.6666666666667,12|8,0:3|0:3,0:0:0:0:
217,237,125250,5,4,0:3:0:0:
245,210,125421,2,0,L|237:126,2,70,8|4|4,0:3|0:3|0:3,0:0:0:0:
279,227,126279,1,8,0:3:0:0:
313,244,126450,1,4,0:3:0:0:
347,259,126621,5,4,0:1:0:0:
375,51,147193,6,0,L|387:145,1,70,14|8,0:3|0:3,0:0:0:0:
361,151,147707,2,0,P|379:181|382:216,1,70,4|6,0:3|0:3,0:0:0:0:
352,239,148221,1,10,0:3:0:0:
357,277,148393,1,2,0:3:0:0:
363,315,148564,6,0,P|323:333|279:333,1,87.5,4|8,0:1|0:3,0:0:0:0:
254,302,149079,2,0,L|154:317,1,87.5,2|2,0:3|0:2,0:0:0:0:
132,297,149593,1,10,0:3:0:0:
36,282,149936,2,0,L|46:190,1,87.5,6|8,0:3|0:3,0:0:0:0:
27,159,150450,2,0,P|25:137|55:20,1,131.25,2|10,0:3|0:3,0:0:0:0:
89,27,151136,1,2,0:3:0:0:
128,23,151307,6,0,L|227:33,1,87.5,6|8,0:2|0:3,0:0:0:0:
240,61,151821,2,0,P|291:48|356:99,1,131.25,2|10,0:3|0:3,0:0:0:0:
345,129,152507,2,0,L|365:240,1,87.5,6|2,0:3|0:2,0:0:0:0:
381,248,153021,1,10,0:3:0:0:
352,365,153364,2,0,L|293:364,1,43.75,0|2,0:3|0:3,0:3:0:0:
291,328,153707,2,0,L|232:327,1,43.75,8|2,0:3|0:3,0:3:0:0:
230,291,154050,6,0,P|187:302|144:299,1,87.5,6|8,0:2|0:3,0:0:0:0:
106,288,154564,2,0,L|100:186,1,87.5,2|0,0:3|0:3,0:0:0:0:
93,161,155079,1,10,0:3:0:0:
84,122,155250,2,0,P|83:78|95:36,1,87.5,6|2,0:3|0:2,0:0:0:0:
129,23,155764,1,10,0:3:0:0:
165,8,155936,2,0,P|208:4|250:16,1,87.5,2|2,0:3|0:2,0:0:0:0:
272,48,156450,2,0,L|329:44,1,43.75,10|2,0:3|0:3,0:0:0:0:
351,29,156793,6,0,P|395:28|438:38,1,87.5,6|8,0:2|0:3,0:0:0:0:
411,130,157479,2,0,L|411:234,1,87.5,2|10,0:3|0:3,0:0:0:0:
383,246,157993,2,0,L|397:346,1,87.5,6|2,0:3|0:2,0:0:0:0:
380,369,158507,1,10,0:3:0:0:
283,364,158850,2,0,L|235:361,1,43.75,2|2,0:3|0:3,0:3:0:0:
206,339,159193,2,0,L|158:336,1,43.75,10|2,0:3|0:3,0:3:0:0:
124,325,159536,6,0,P|141:284|144:241,1,87.5,6|8,0:2|0:3,0:0:0:0:
129,205,160050,2,0,L|142:116,2,87.5,2|2|2,0:3|0:3|0:3,0:0:0:0:
148,240,160907,2,0,P|191:245|234:238,1,87.5,6|8,0:3|0:3,0:0:0:0:
273,234,161421,2,0,L|351:277,1,87.5,2|2,0:3|0:2,0:0:0:0:
385,292,161936,1,10,0:3:0:0:
417,270,162107,1,2,0:3:0:0:
447,245,162279,6,0,P|455:191|440:143,1,87.5,6|8,0:2|0:3,0:0:0:0:
409,148,162793,2,0,L|395:17,1,131.25,2|10,0:3|0:3,0:0:0:0:
355,17,163479,1,2,0:3:0:0:
315,16,163650,2,0,P|268:15|225:19,1,87.5,4|8,0:2|0:3,0:0:0:0:
136,51,164336,1,2,0:3:0:0:
139,90,164507,6,0,L|138:181,2,87.5,2|6|2,0:3|0:2|0:2,0:0:0:0:
136,51,165364,1,8,0:3:0:0:
41,69,165707,1,2,0:3:0:0:
21,103,165879,2,0,L|14:168,1,43.75,2|8,0:3|0:3,0:0:0:0:
18,185,166221,2,0,P|21:248|75:281,1,131.25,6|8,0:2|0:3,0:0:0:0:
112,269,166907,2,0,L|202:277,1,87.5,6|4,0:3|0:3,0:0:0:0:
232,297,167421,1,10,0:3:0:0:
265,318,167593,1,6,0:3:0:0:
298,339,167764,6,4,P|340:346|383:340,1,87.5,6|8,0:2|0:3,0:0:0:0:
415,314,168279,2,0,L|509:318,2,87.5,2|2|2,0:3|0:3|0:3,0:0:0:0:
385,288,169136,1,12,0:3:0:0:
296,327,169479,1,8,0:3:0:0:
205,294,169821,2,0,L|197:251,1,43.75,2|0,0:3|0:3,0:3:0:0:
177,217,170164,2,0,L|192:107,1,87.5,10|4,0:3|0:3,0:0:0:0:
198,30,171536,1,14,0:3:0:0:
237,34,171707,1,6,0:3:0:0:
276,40,171879,6,0,P|344:33|408:55,1,131.25,6|0,0:2|0:3,0:0:0:0:
422,86,172564,2,0,L|423:193,1,87.5,2|10,0:3|0:3,0:0:0:0:
444,207,173079,2,0,P|452:249|447:295,1,87.5,6|2,0:3|0:2,0:0:0:0:
432,329,173593,1,10,0:3:0:0:
338,352,173936,1,2,0:3:0:0:
301,337,174107,2,0,L|200:347,1,87.5,2|2,0:3|0:3,0:0:0:0:
174,347,174621,6,0,L|187:253,1,87.5,6|10,0:2|0:3,0:0:0:0:
197,222,175136,2,0,P|158:201|115:202,2,87.5,2|2|2,0:3|0:3|0:3,0:0:0:0:
233,206,175993,2,0,L|345:221,1,87.5,6|10,0:3|0:3,0:0:0:0:
344,248,176507,1,2,0:3:0:0:
435,279,176850,2,0,P|443:235|436:190,1,87.5,2|2,0:3|0:3,0:0:0:0:
420,156,177364,6,0,L|425:68,1,87.5,6|8,0:2|0:3,0:0:0:0:
340,22,178050,2,0,L|276:15,1,43.75,6|2,0:3|0:3,0:3:0:0:
263,38,178393,2,0,L|199:31,1,43.75,10|2,0:3|0:3,0:3:0:0:
182,48,178736,1,6,0:3:0:0:
121,123,179079,1,10,0:3:0:0:
137,217,179421,2,0,P|114:223|90:228,2,43.75,2|2|8,0:2|0:3|0:3,0:0:0:0:
173,232,179936,6,0,L|189:325,1,87.5,2|2,0:3|0:2,0:0:0:0:
225,331,180450,1,8,0:3:0:0:
321,326,180793,2,0,L|325:373,2,43.75,2|2|10,0:3|0:3|0:3,0:3:0:0:
345,294,181307,2,0,P|346:250|334:208,1,87.5,6|2,0:3|0:2,0:0:0:0:
421,166,181993,1,2,0:3:0:0:
419,128,182164,2,0,L|408:34,1,87.5,2|10,0:3|0:3,0:0:0:0:
312,30,182850,6,0,P|241:20|175:49,1,131.25,4|0,0:2|0:3,0:0:0:0:
156,66,183536,2,0,L|141:160,1,87.5,2|10,0:3|0:3,0:0:0:0:
123,187,184050,2,0,P|126:251|89:304,1,131.25,6|10,0:3|0:3,0:0:0:0:
1,265,184907,1,2,0:3:0:0:
18,230,185079,2,0,L|23:131,1,87.5,2|2,0:3|0:3,0:0:0:0:
11,104,185593,6,0,P|51:85|94:87,1,87.5,6|8,0:2|0:3,0:0:0:0:
122,113,186107,1,2,0:3:0:0:
204,63,186450,1,2,0:3:0:0:
239,78,186621,1,10,0:3:0:0:
273,98,186793,2,0,P|316:87|359:92,1,87.5,2|2,0:3|0:2,0:0:0:0:
451,67,187479,2,0,L|462:177,1,87.5,2|2,0:3|0:2,0:0:0:0:
433,183,187993,1,10,0:3:0:0:
426,221,188164,1,2,0:3:0:0:
433,259,188336,6,0,P|391:271|347:271,1,87.5,6|8,0:2|0:3,0:0:0:0:
309,260,188850,2,0,L|305:303,1,43.75,2|0,0:3|0:3,0:0:0:0:
284,337,189193,1,2,0:3:0:0:
191,363,189536,2,0,P|107:371|57:295,1,175,2|4,0:3|0:3,0:0:0:0:
78,270,190393,2,0,L|70:179,1,87.5,6|8,0:3|0:3,0:0:0:0:
45,88,191079,6,0,P|109:93|154:138,1,131.25,6|8,0:2|0:3,0:0:0:0:
172,172,191764,1,6,0:3:0:0:
192,206,191936,2,0,L|314:198,1,87.5,10|8,0:3|0:3,0:0:0:0:
305,170,192450,1,4,0:3:0:0:
395,203,192793,2,0,P|401:160|386:119,2,87.5,14|6|14,0:3|0:3|0:3,0:0:0:0:
373,296,193821,6,0,L|282:325,1,87.5,6|8,0:2|0:3,0:0:0:0:
262,351,194336,2,0,P|218:358|169:347,1,87.5,6|0,0:2|0:2,0:2:0:0:
145,325,194850,2,0,L|148:282,1,43.75,6|8,0:2|0:3,0:0:0:0:
168,247,195193,2,0,P|169:203|161:160,1,87.5,6|0,0:2|0:2,0:2:0:0:
132,133,195707,2,0,B|141:70|141:70|188:22,1,131.25,6|6,0:2|0:2,0:0:0:0:
263,81,196564,6,0,P|306:72|349:77,1,87.5,6|8,0:2|0:3,0:0:0:0:
444,60,197250,2,0,L|433:174,1,87.5,2|10,0:3|0:3,0:0:0:0:
406,173,197764,2,0,P|417:236|397:298,1,131.25,6|8,0:3|0:3,0:0:0:0:
309,338,198621,2,0,P|309:360|310:382,2,43.75,2|2|10,0:3|0:2|0:3,0:0:0:0:
271,325,199136,1,0,0:3:0:0:
233,314,199307,6,0,L|130:323,2,87.5,6|8|2,0:3|0:3|0:3,0:0:0:0:
235,274,200164,1,2,0:2:0:0:
237,234,200336,1,10,0:3:0:0:
237,194,200507,2,0,P|221:130|238:68,1,131.25,6|8,0:3|0:3,0:0:0:0:
149,29,201364,1,2,0:3:0:0:
55,53,201707,1,10,0:3:0:0:
47,148,202050,6,0,L|38:248,1,87.5,6|8,0:2|0:3,0:0:0:0:
130,265,202736,2,0,L|122:324,1,43.75,2|2,0:3|0:2,0:0:0:0:
157,329,203079,1,10,0:3:0:0:
190,349,203250,2,0,P|236:348|289:362,1,87.5,6|2,0:3|0:2,0:0:0:0:
312,341,203764,2,0,P|380:351|422:333,2,87.5,8|2|10,0:3|0:3|0:3,0:0:0:0:
329,245,204793,6,0,L|324:134,1,87.5,6|8,0:3|0:3,0:0:0:0:
228,149,205479,2,0,L|233:100,1,43.75,2|2,0:3|0:3,0:3:0:0:
243,67,205821,1,10,0:3:0:0:
255,29,205993,2,0,L|348:22,1,87.5,6|2,0:3|0:2,0:0:0:0:
379,10,206507,1,12,0:3:0:0:
443,81,206850,1,6,0:3:0:0:
461,175,207193,1,14,0:3:0:0:
400,249,207536,6,0,L|398:354,1,87.5,6|8,0:2|0:3,0:0:0:0:
307,368,208221,2,0,L|215:373,1,87.5,2|10,0:3|0:3,0:0:0:0:
201,337,208736,2,0,P|158:344|117:329,1,87.5,6|2,0:3|0:2,0:0:0:0:
107,291,209250,1,8,0:3:0:0:
179,227,209593,1,2,0:3:0:0:
169,188,209764,1,2,0:2:0:0:
160,149,209936,2,0,L|162:90,1,43.75,10|0,0:3|0:3,0:0:0:0:
172,67,210279,6,0,L|91:33,1,87.5,6|8,0:3|0:3,0:0:0:0:
54,46,210793,1,0,0:3:0:0:
20,136,211136,1,2,0:2:0:0:
26,174,211307,1,10,0:3:0:0:
36,212,211479,2,0,P|93:211|128:221,1,87.5,6|2,0:3|0:2,0:0:0:0:
156,238,211993,1,8,0:3:0:0:
251,248,212336,2,0,L|241:303,2,43.75,2|2|10,0:3|0:2|0:3,0:0:0:0:
283,224,212850,1,0,0:3:0:0:
315,202,213021,6,0,P|358:193|401:202,1,87.5,6|8,0:2|0:3,0:0:0:0:
493,227,213707,2,0,L|497:165,1,43.75,2|2,0:3|0:3,0:3:0:0:
490,143,214050,1,10,0:3:0:0:
463,113,214221,2,0,L|450:24,1,87.5,6|2,0:3|0:2,0:0:0:0:
416,4,214736,1,8,0:0:0:0:
319,8,215079,1,2,0:3:0:0:
288,33,215250,1,2,0:2:0:0:
257,58,215421,2,0,L|257:117,1,43.75,10|0,0:3|0:3,0:0:0:0:
266,140,215764,6,0,P|257:184|260:226,1,87.5,6|8,0:3|0:3,0:0:0:0:
298,314,216450,2,0,L|363:322,2,43.75,2|2|10,0:3|0:3|0:3,0:3:0:0:
258,314,216964,2,0,L|169:330,1,87.5,6|0,0:3|0:3,0:0:0:0:
133,318,217479,2,0,P|111:322|90:327,1,43.75,8|2,0:3|0:2,0:0:0:0:
51,317,217821,2,0,P|43:297|39:276,1,43.75
48,238,218164,2,0,L|46:183,1,43.75
34,156,218507,6,0,L|44:62,1,87.5,6|0,0:3|0:3,0:0:0:0:
65,36,219021,1,6,0:3:0:0:
157,10,219364,1,6,0:3:0:0:
240,57,219707,1,14,0:3:0:0:
256,192,219793,12,0,222621,0:0:0:0:
