osu file format v14

[General]
AudioFilename: audio.mp3
AudioLeadIn: 0
PreviewTime: 126107
Countdown: 1
SampleSet: Normal
StackLeniency: 0.7
Mode: 0
LetterboxInBreaks: 0
WidescreenStoryboard: 1

[Editor]
Bookmarks: 125426,181821
DistanceSpacing: 0.4
BeatDivisor: 4
GridSize: 4
TimelineZoom: 1.7

[Metadata]
Title:You Say Run
TitleUnicode:You Say Run
Artist:Yuki Hayashi
ArtistUnicode:林 ゆうき
Creator:Zare
Version:Hard
Source:僕のヒーローアカデミア
Tags:BNHA MHA Boku No Hero Academia My Academy Anime OST Official Soundtrack Instrumental Orchestral Symphonic Rock Akitoshi
BeatmapID:1259170
BeatmapSetID:487907

[Difficulty]
HPDrainRate:5
CircleSize:3.5
OverallDifficulty:6.8
ApproachRate:7.7
SliderMultiplier:1.4
SliderTickRate:1

[Events]
//Background and Video events
0,0,"BNHA.jpg",0,0
//Break Periods
2,126821,142284
//Storyboard Layer 0 (Background)
//Storyboard Layer 1 (Fail)
//Storyboard Layer 2 (Pass)
//Storyboard Layer 3 (Foreground)
//Storyboard Sound Samples

[TimingPoints]
449,342.857142857143,4,2,0,40,1,0
449,-133.333333333333,4,2,0,40,0,0
22391,-133.333333333333,4,3,0,50,0,0
23763,-100,4,1,0,50,0,0
121134,-100,4,1,0,40,0,0
122849,324.324324324324,4,1,0,40,1,0
123497,342.857142857143,4,1,0,40,1,0
123879,342.857142857143,4,1,0,40,1,0
126621,-100,4,1,1,50,0,0
143079,-100,4,1,0,5,0,0
147193,-100,4,1,0,50,0,0
148564,-100,4,1,1,60,0,1
148736,-100,4,1,0,60,0,1
170507,-100,4,1,0,60,0,0
171879,-100,4,1,0,60,0,1
196564,-100,4,1,0,50,0,0
219707,-100,4,1,0,60,0,0
219793,-100,4,2,0,5,0,0

[Colours]
Combo1 : 255,46,9
Combo2 : 98,167,95
Combo3 : 154,154,152
Combo4 : 30,131,232

[HitObjects]
336,91,449,5,2,0:3:0:0:
336,91,791,1,0,0:0:0:0:
276,151,963,1,0,0:0:0:0:
300,231,1134,2,0,P|302:255|295:282,1,52.5000020027161
229,335,1477,1,2,0:3:0:0:
62,351,1820,2,0,L|60:298,1,52.5000020027161,0|0,0:0|0:0,0:0:0:0:
94,221,2163,2,0,P|76:172|90:122,1,105.000004005432
151,65,2677,1,2,0:0:0:0:
235,69,2849,2,0,L|296:56,1,52.5000020027161
354,9,3191,6,0,P|436:65|426:164,1,210.000008010865,2|2,0:3|0:0,0:0:0:0:
422,259,4220,2,0,P|339:202|350:102,1,210.000008010865,2|2,0:3|0:0,0:0:0:0:
185,65,5249,1,2,0:0:0:0:
23,19,5591,1,0,0:0:0:0:
56,183,5934,6,0,B|62:245|46:291|47:287,1,105.000004005432,2|0,0:3|0:0,0:0:0:0:
91,359,6449,1,0,0:0:0:0:
172,339,6620,2,0,L|236:344,1,52.5000020027161,2|0,0:0|0:0,0:0:0:0:
304,370,6963,2,0,P|305:318|275:276,1,105.000004005432,2|0,0:3|0:0,0:0:0:0:
115,221,7649,1,2,0:0:0:0:
280,196,7991,2,0,B|285:163|285:163|273:137|273:137|297:88|267:32,1,157.500006008148,2|0,0:3|0:0,0:0:0:0:
353,19,8677,6,0,P|402:7|463:25,1,105.000004005432,2|0,0:3|0:0,0:0:0:0:
446,103,9191,1,0,0:0:0:0:
479,180,9363,2,0,L|473:238,1,52.5000020027161,2|0,0:0|0:0,0:0:0:0:
485,315,9706,2,0,B|434:339|385:310|385:310|338:286|283:314,1,210.000008010865,2|0,0:3|0:0,0:0:0:0:
117,338,10734,2,0,L|134:268,1,52.5000020027161,0|0,0:0|0:0,0:0:0:0:
111,204,11077,2,0,P|115:178|113:152,1,52.5000020027161,2|0,0:0|0:0,0:0:0:0:
36,117,11420,6,0,P|97:70|170:90,1,157.500006008148,2|0,0:3|0:0,0:0:0:0:
247,55,12106,2,0,B|269:108|228:153|228:153|241:175|237:203,1,157.500006008148,2|0,0:2|0:0,0:0:0:0:
154,193,12791,2,0,P|180:265|253:283,1,157.500006008148,2|0,0:3|0:0,0:0:0:0:
327,323,13477,2,0,B|361:308|361:308|396:316|396:316|430:284|472:285,1,157.500006008148,2|0,0:2|0:0,0:0:0:0:
439,207,14163,6,0,B|502:178|506:116|469:80|418:77|381:106|377:150|377:150|338:138|301:156,2,315.000012016297,2|2|2,0:3|0:3|0:3,0:0:0:0:
272,229,16563,1,2,0:0:0:0:
302,63,16906,6,0,P|209:99|126:41,1,210.000008010865,2|0,0:3|0:0,0:0:0:0:
36,183,17934,2,0,P|85:169|181:204,1,157.500006008148,2|0,0:3|0:0,0:0:0:0:
136,276,18620,1,0,0:0:0:0:
246,148,18963,1,0,0:0:0:0:
213,312,19306,1,2,0:0:0:0:
369,249,19649,6,0,P|424:243|477:256,2,105.000004005432,2|0|0,0:3|0:0|0:0,0:0:0:0:
224,334,20677,2,0,B|181:260|74:242|74:242|143:157|143:157|101:111|124:26|191:17,1,472.500018024445,2|0,0:2|0:0,0:0:0:0:
206,100,22391,5,6,0:3:0:0:
289,90,22563,1,4,0:3:0:0:
298,94,22649,1,0,0:3:0:0:
307,98,22734,1,8,0:3:0:0:
356,166,22906,1,6,0:3:0:0:
295,216,23077,1,0,0:0:0:0:
329,286,23249,2,0,L|310:355,1,52.5000020027161,6|10,0:3|0:3,0:0:0:0:
237,339,23591,1,6,0:3:0:0:
226,340,23677,1,10,0:3:0:0:
215,341,23763,6,0,L|141:344,1,70,6|0,0:2|0:3,0:0:0:0:
81,288,24106,1,8,0:3:0:0:
118,213,24277,1,2,0:2:0:0:
79,138,24449,2,0,P|44:132|10:138,2,70,2|0|10,0:3|0:3|0:3,0:0:0:0:
199,188,24963,6,0,P|264:198|337:158,1,140,6|0,0:3|0:3,0:0:0:0:
309,84,25477,2,0,L|336:18,1,70,8|0,0:3|0:2,0:0:0:0:
420,29,25820,1,2,0:3:0:0:
471,95,25991,1,0,0:2:0:0:
421,163,26163,1,8,0:3:0:0:
466,233,26334,1,2,0:2:0:0:
428,359,26506,6,0,P|361:348|328:289,1,140,6|8,0:3|0:3,0:0:0:0:
278,220,27020,1,2,0:2:0:0:
242,295,27191,2,0,L|164:305,1,70,2|0,0:3|0:3,0:0:0:0:
109,360,27534,1,10,0:3:0:0:
6,268,27706,6,0,B|-5:243|-5:243|10:224|10:224|-8:175|6:137,1,140,6|0,0:3|0:3,0:0:0:0:
70,83,28220,1,8,0:3:0:0:
148,52,28391,1,0,0:2:0:0:
162,51,28477,1,2,0:2:0:0:
176,50,28563,2,0,L|252:-3,2,70,2|0|8,0:3|0:3|0:3,0:0:0:0:
224,118,29077,1,2,0:2:0:0:
352,157,29249,6,0,P|397:154|428:157,2,70,6|0|8,0:3|0:3|0:3,0:0:0:0:
298,222,29763,1,2,0:2:0:0:
214,228,29934,2,0,L|61:206,1,140,2|10,0:3|0:3,0:0:0:0:
16,320,30449,6,0,P|49:259|46:190,1,140,6|0,0:3|0:3,0:0:0:0:
108,132,30963,2,0,L|98:38,1,70,8|0,0:3|0:2,0:0:0:0:
185,55,31306,1,2,0:3:0:0:
260,19,31477,1,0,0:3:0:0:
297,94,31649,1,8,0:3:0:0:
221,129,31820,1,2,0:2:0:0:
351,157,31991,6,0,P|379:95|352:33,2,140,6|8|2,0:3|0:3|0:3,0:0:0:0:
267,172,32849,1,4,0:3:0:0:
297,94,33020,1,10,0:3:0:0:
180,151,33191,6,0,L|165:300,1,140,6|0,0:3|0:3,0:0:0:0:
147,372,33706,1,8,0:3:0:0:
180,295,33877,1,4,0:3:0:0:
193,293,33963,1,2,0:2:0:0:
206,291,34049,2,0,L|285:296,1,70,2|4,0:3|0:3,0:0:0:0:
344,344,34391,2,0,L|428:335,1,70,8|2,0:3|0:3,0:0:0:0:
497,348,34734,5,6,0:2:0:0:
467,268,34906,1,0,0:3:0:0:
497,189,35077,1,8,0:3:0:0:
472,108,35249,1,2,0:2:0:0:
417,172,35420,2,0,P|383:171|348:168,1,70,2|0,0:3|0:3,0:0:0:0:
283,113,35763,1,10,0:3:0:0:
176,33,35934,6,0,P|153:98|162:166,1,140,6|0,0:3|0:3,0:0:0:0:
243,142,36449,1,8,0:3:0:0:
262,223,36620,1,0,0:2:0:0:
183,251,36791,2,0,L|178:333,1,70,2|0,0:3|0:3,0:0:0:0:
96,339,37134,2,0,L|100:269,1,70,8|2,0:3|0:2,0:0:0:0:
175,136,37477,6,0,P|141:132|106:135,2,70,6|0|8,0:3|0:3|0:3,0:0:0:0:
223,207,37991,2,0,P|284:236|353:210,1,140,0|0,0:2|0:3,0:0:0:0:
290,117,38506,1,10,0:3:0:0:
359,29,38677,2,0,P|298:0|229:26,1,140,0|0,0:2|0:3,0:0:0:0:
188,94,39191,1,8,0:3:0:0:
224,170,39363,1,0,0:2:0:0:
227,183,39449,1,2,0:2:0:0:
230,196,39534,1,2,0:3:0:0:
309,222,39706,1,0,0:3:0:0:
391,205,39877,2,0,L|397:133,1,70,10|0,0:3|0:2,0:0:0:0:
320,35,40220,6,0,B|298:16|298:16|271:28|271:28|234:9|191:23,1,140,6|8,0:3|0:3,0:0:0:0:
226,99,40734,1,2,0:2:0:0:
141,93,40906,2,0,P|106:97|71:94,1,70,2|2,0:3|0:2,0:0:0:0:
14,32,41249,1,10,0:3:0:0:
10,159,41420,6,0,L|-1:239,1,70,6|0,0:3|0:0,0:0:0:0:
51,295,41763,1,0,0:3:0:0:
134,282,41934,2,0,P|168:281|203:285,1,70,8|0,0:3|0:2,0:0:0:0:
274,330,42277,2,0,L|369:330,1,70,2|2,0:3|0:2,0:0:0:0:
413,241,42620,2,0,L|323:255,1,70,8|2,0:3|0:2,0:0:0:0:
202,204,42963,5,2,0:3:0:0:
284,190,43134,1,2,0:2:0:0:
230,124,43306,2,0,L|223:55,1,70,8|2,0:3|0:2,0:0:0:0:
148,15,43649,1,2,0:3:0:0:
65,31,43820,1,10,0:3:0:0:
18,101,43991,1,2,0:2:0:0:
70,219,44163,6,0,L|63:318,1,70,6|0,0:3|0:3,0:0:0:0:
149,301,44506,1,0,0:2:0:0:
187,374,44677,1,8,0:3:0:0:
104,363,44849,1,2,0:2:0:0:
231,304,45020,2,0,P|265:294|296:278,1,70,2|2,0:3|0:2,0:0:0:0:
296,194,45363,1,6,0:3:0:0:
339,71,45534,6,0,P|374:69|408:75,1,70,8|0,0:3|0:3,0:0:0:0:
477,124,45877,1,2,0:3:0:0:
474,137,45963,2,0,L|483:214,1,70,4|4,0:3|0:3,0:0:0:0:
488,217,46220,2,0,P|491:252|491:287,1,70,2|6,0:3|0:3,0:3:0:0:
406,288,46563,2,0,B|375:295|346:284|346:284|330:295|330:295|303:285|271:294,1,140,4|6,0:3|0:3,0:0:0:0:
199,345,47077,6,0,P|236:287|112:161,1,280,6|0,0:2|0:3,0:0:0:0:
58,223,47934,1,2,0:3:0:0:
34,142,48106,1,8,0:3:0:0:
89,79,48277,1,2,0:3:0:0:
173,85,48449,5,6,0:3:0:0:
328,21,48791,1,8,0:3:0:0:
305,187,49134,2,0,L|295:260,1,70,2|0,0:3|0:3,0:0:0:0:
241,320,49477,1,10,0:3:0:0:
323,332,49649,1,2,0:3:0:0:
377,268,49820,6,0,P|448:268|505:302,2,140,4|8|0,0:3|0:3|0:3,0:0:0:0:
307,219,50677,1,2,0:3:0:0:
223,232,50849,1,8,0:3:0:0:
178,303,51020,6,0,B|143:324|143:324|120:312|120:312|83:329|49:330,1,140,6|2,0:3|0:2,0:0:0:0:
33,247,51534,2,0,L|55:166,1,70,8|0,0:3|0:3,0:0:0:0:
127,143,51877,1,2,0:3:0:0:
112,60,52049,1,2,0:3:0:0:
186,21,52220,1,8,0:3:0:0:
247,77,52391,1,6,0:3:0:0:
207,150,52563,6,0,P|193:219|202:288,1,140,6|8,0:3|0:3,0:0:0:0:
128,329,53077,2,0,P|182:369|249:355,1,140,2|0,0:3|0:3,0:0:0:0:
284,279,53591,1,10,0:3:0:0:
367,267,53763,1,6,0:3:0:0:
414,198,53934,6,0,L|426:113,1,70,0|2,0:3|0:2,0:0:0:0:
376,58,54277,1,10,0:3:0:0:
296,30,54449,2,0,P|260:29|217:36,1,70,2|0,0:3|0:3,0:0:0:0:
142,39,54791,1,0,0:0:0:0:
85,101,54963,2,0,L|95:187,1,70,8|0,0:3|0:3,0:0:0:0:
154,228,55306,6,0,P|128:293|125:363,2,140,4|8|2,0:3|0:3|0:3,0:0:0:0:
231,196,56163,1,0,0:3:0:0:
227,279,56334,1,10,0:3:0:0:
301,240,56506,2,0,L|390:220,1,70,6|0,0:3|0:3,0:0:0:0:
452,213,56849,1,2,0:2:0:0:
424,292,57020,1,10,0:3:0:0:
403,147,57191,2,0,P|405:78|388:10,1,140,2|2,0:3|0:2,0:0:0:0:
308,40,57706,1,10,0:3:0:0:
224,46,57877,1,4,0:3:0:0:
213,37,57963,1,0,0:0:0:0:
202,28,58049,6,0,B|131:21|131:21|63:34,1,140,6|8,0:2|0:3,0:0:0:0:
135,178,58734,1,2,0:3:0:0:
143,261,58906,1,2,0:2:0:0:
118,341,59077,1,10,0:3:0:0:
199,364,59249,1,2,0:3:0:0:
224,284,59420,6,0,P|260:283|298:292,1,70,6|2,0:3|0:2,0:0:0:0:
350,351,59763,2,0,L|425:343,1,70,10|0,0:3|0:3,0:0:0:0:
499,366,60106,2,0,P|490:298|433:261,1,140,0|10,0:3|0:3,0:0:0:0:
361,218,60620,1,2,0:3:0:0:
435,180,60791,6,0,L|443:98,1,70,6|2,0:3|0:2,0:0:0:0:
358,96,61134,2,0,P|323:89|289:92,1,70,8|0,0:3|0:3,0:3:0:0:
204,91,61477,1,2,0:3:0:0:
246,164,61649,1,0,0:3:0:0:
207,238,61820,1,10,0:3:0:0:
127,268,61991,6,0,P|61:251|30:191,1,140,6|2,0:3|0:2,0:0:0:0:
114,185,62506,1,8,0:3:0:0:
59,121,62677,1,0,0:3:0:0:
62,107,62763,1,2,0:2:0:0:
66,93,62849,2,0,L|77:15,1,70,2|0,0:3|0:3,0:0:0:0:
158,24,63191,2,0,P|193:18|227:24,1,70,10|2,0:3|0:3,0:0:0:0:
292,78,63534,6,0,L|382:82,1,70,6|2,0:3|0:2,0:0:0:0:
442,56,63877,1,8,0:3:0:0:
381,212,64220,1,0,0:3:0:0:
410,290,64391,1,2,0:3:0:0:
326,277,64563,1,8,0:3:0:0:
295,198,64734,1,2,0:3:0:0:
211,188,64906,6,0,P|177:197|144:186,1,70,0|0,0:3|0:2,0:0:0:0:
97,116,65249,2,0,L|13:137,1,70,10|0,0:3|0:3,0:0:0:0:
33,216,65591,1,2,0:3:0:0:
81,283,65763,2,0,P|149:281|203:324,1,140,2|0,0:3|0:2,0:0:0:0:
286,310,66277,6,0,L|360:324,1,70,6|0,0:3|0:3,0:0:0:0:
434,350,66620,2,0,P|436:290|354:238,1,140,10|4,0:3|0:3,0:0:0:0:
375,155,67134,1,4,0:3:0:0:
304,201,67306,1,10,0:3:0:0:
252,66,67477,6,0,P|212:15|125:19,1,140,6|2,0:3|0:2,0:0:0:0:
171,89,67991,1,8,0:3:0:0:
99,133,68163,2,0,L|55:130,2,35,0|2|2,0:3|0:3|0:3,0:3:0:0:
46,213,68506,1,2,0:3:0:0:
5,286,68677,2,0,L|10:359,1,70,8|2,0:3|0:3,0:0:0:0:
150,374,69020,6,0,B|197:342|258:359|258:359|283:326|283:326|354:338|397:287,1,280,6|0,0:2|0:3,0:0:0:0:
328,238,69877,1,2,0:2:0:0:
404,201,70049,1,10,0:3:0:0:
334,153,70220,6,0,P|323:112|345:16,2,140,6|2|2,0:3|0:2|0:3,0:0:0:0:
170,233,71249,1,2,0:2:0:0:
88,252,71420,1,10,0:3:0:0:
146,311,71591,1,2,0:3:0:0:
116,173,71763,6,0,L|120:71,1,70,6|2,0:3|0:2,0:0:0:0:
197,72,72106,2,0,P|244:57|322:103,1,140,10|2,0:3|0:2,0:0:0:0:
402,111,72620,2,0,P|399:145|402:180,1,70,2|8,0:3|0:3,0:0:0:0:
458,294,72963,6,0,P|396:265|333:291,1,140,6|2,0:3|0:2,0:0:0:0:
262,335,73477,1,10,0:3:0:0:
249,329,73563,1,2,0:2:0:0:
236,323,73649,1,4,0:3:0:0:
199,247,73820,1,4,0:3:0:0:
118,266,73991,2,0,L|100:346,2,70,2|12|2,0:3|0:3|0:3,0:0:0:0:
87,142,74506,6,0,P|93:92|99:61,1,70,6|0,0:3|0:3,0:3:0:0:
167,27,74849,1,10,0:3:0:0:
335,27,75191,2,0,L|343:109,1,70,2|2,0:3|0:2,0:0:0:0:
282,156,75534,1,10,0:3:0:0:
387,224,75706,6,0,P|325:254|258:237,1,140,6|2,0:3|0:3,0:0:0:0:
197,176,76220,1,8,0:3:0:0:
181,258,76391,2,0,L|188:331,1,70,2|4,0:3|0:3,0:0:0:0:
113,368,76734,1,2,0:3:0:0:
45,317,76906,1,10,0:3:0:0:
57,234,77077,1,6,0:3:0:0:
61,220,77163,1,8,0:3:0:0:
62,206,77249,6,0,P|65:171|60:136,1,70,6|2,0:3|0:2,0:0:0:0:
47,53,77591,2,0,L|130:57,1,70,10|0,0:3|0:3,0:0:0:0:
166,124,77934,1,2,0:2:0:0:
199,46,78106,2,0,P|234:52|269:49,1,70,2|8,0:3|0:3,0:0:0:0:
388,7,78449,6,0,P|416:69|392:134,1,140,6|2,0:3|0:2,0:0:0:0:
347,204,78963,2,0,L|354:286,1,70,8|0,0:3|0:3,0:3:0:0:
431,303,79306,1,0,0:3:0:0:
365,355,79477,1,2,0:3:0:0:
286,325,79649,1,10,0:3:0:0:
276,241,79820,1,2,0:3:0:0:
380,148,79991,6,0,P|397:53|303:6,1,210,6|0,0:2|0:0,0:0:0:0:
322,87,80677,2,0,P|287:90|252:90,1,70,0|2,0:3|0:2,0:0:0:0:
169,74,81020,1,10,0:3:0:0:
143,153,81191,6,0,L|140:246,1,70,6|0,0:3|0:3,0:0:0:0:
69,268,81534,2,0,L|76:348,1,70,2|8,0:3|0:3,0:0:0:0:
155,359,81877,2,0,P|222:340|286:365,1,140,2|0,0:3|0:3,0:0:0:0:
368,379,82391,1,8,0:3:0:0:
343,298,82563,1,2,0:3:0:0:
482,311,82734,6,0,L|488:241,1,70,6|2,0:3|0:2,0:0:0:0:
435,175,83077,2,0,P|454:113|425:38,1,140,8|2,0:3|0:3,0:0:0:0:
353,79,83591,2,0,L|282:68,1,70,0|10,0:3|0:3,0:0:0:0:
213,21,83934,6,0,P|202:89|245:142,1,140,6|2,0:3|0:2,0:0:0:0:
293,212,84449,1,8,0:3:0:0:
244,279,84620,1,4,0:3:0:0:
245,292,84706,1,0,0:3:0:0:
246,305,84791,1,2,0:3:0:0:
174,350,84963,2,0,P|139:356|104:359,2,70,2|10|2,0:2|0:3|0:3,0:0:0:0:
159,212,85477,6,0,B|229:211|229:211|293:239,1,140,6|10,0:3|0:3,0:0:0:0:
439,155,86163,1,0,0:3:0:0:
333,26,86506,1,10,0:3:0:0:
267,77,86677,2,0,P|232:79|197:77,1,70,6|0,0:3|0:3,0:0:0:0:
134,133,87020,2,0,P|72:119|4:155,2,140,2|2|2,0:3|0:3|0:3,0:0:0:0:
210,167,87877,1,10,0:3:0:0:
142,217,88049,1,2,0:3:0:0:
274,219,88220,6,0,L|344:217,1,70,6|0,0:3|0:3,0:0:0:0:
399,153,88563,2,0,P|428:215|403:279,1,140,10|4,0:3|0:3,0:0:0:0:
321,299,89077,1,2,0:2:0:0:
343,217,89249,1,10,0:3:0:0:
380,357,89420,6,0,P|318:384|258:352,1,140,6|2,0:3|0:2,0:0:0:0:
183,313,89934,2,0,P|183:278|180:243,1,70,8|0,0:3|0:3,0:0:0:0:
105,202,90277,1,6,0:3:0:0:
135,123,90449,1,4,0:3:0:0:
146,115,90534,1,0,0:3:0:0:
158,107,90620,2,0,L|160:35,1,70,8|2,0:3|0:3,0:3:0:0:
265,38,90963,6,0,P|320:19|406:72,1,140,6|8,0:2|0:3,0:0:0:0:
370,132,91477,1,0,0:3:0:0:
388,214,91649,2,0,L|383:284,1,70,0|2,0:3|0:2,0:0:0:0:
303,310,91991,1,10,0:3:0:0:
238,363,92163,6,0,P|203:364|168:362,1,70,6|0,0:3|0:0,0:0:0:0:
83,359,92506,1,0,0:3:0:0:
46,283,92677,1,8,0:3:0:0:
90,211,92849,1,0,0:0:0:0:
91,197,92934,1,0,0:0:0:0:
94,183,93020,2,0,P|152:149|215:174,1,140,2|8,0:3|0:3,0:0:0:0:
333,330,93706,6,0,P|317:262|332:194,1,140,6|8,0:3|0:3,0:0:0:0:
415,189,94220,1,0,0:3:0:0:
473,128,94391,2,0,L|457:53,1,70,0|0,0:3|0:3,0:0:0:0:
383,23,94734,1,10,0:3:0:0:
306,57,94906,6,0,P|238:66|196:121,1,140,6|2,0:3|0:2,0:0:0:0:
186,204,95420,1,8,0:3:0:0:
122,149,95591,1,0,0:3:0:0:
108,152,95677,1,2,0:2:0:0:
94,155,95763,1,2,0:3:0:0:
16,187,95934,1,2,0:2:0:0:
4,270,96106,1,10,0:3:0:0:
68,323,96277,1,2,0:3:0:0:
145,289,96449,6,0,P|200:279|284:299,1,140,6|8,0:3|0:3,0:0:0:0:
331,364,96963,1,0,0:3:0:0:
413,350,97134,1,0,0:3:0:0:
491,201,97477,1,10,0:3:0:0:
409,220,97649,1,2,0:3:0:0:
436,142,97820,6,0,L|443:65,2,70,6|2|8,0:3|0:2|0:3,0:0:0:0:
409,220,98334,2,0,P|374:223|339:219,1,70,2|0,0:3|0:3,0:0:0:0:
293,148,98677,2,0,L|217:150,1,70,2|8,0:3|0:3,0:0:0:0:
145,115,99020,1,2,0:3:0:0:
74,160,99191,6,0,P|82:62|177:39,1,210,6|0,0:3|0:3,0:0:0:0:
145,115,99877,2,0,P|137:213|42:236,1,210,2|2,0:3|0:3,0:0:0:0:
37,320,100563,6,0,P|139:309|217:240,1,210,6|6,0:3|0:3,0:0:0:0:
139,207,101249,2,0,P|221:155|296:217,1,210,6|2,0:3|0:2,0:0:0:0:
348,333,101934,6,0,L|438:344,1,70,6|0,0:2|0:2,0:0:0:0:
476,281,102277,2,0,P|484:212|467:145,1,140,10|0,0:3|0:3,0:0:0:0:
430,68,102791,1,2,0:2:0:0:
347,52,102963,1,10,0:3:0:0:
279,101,103134,6,0,P|211:110|143:95,1,140,6|2,0:3|0:2,0:0:0:0:
58,106,103649,2,0,L|64:186,1,70,8|0,0:3|0:3,0:0:0:0:
36,255,103991,2,0,P|79:201|144:179,1,140,2|10,0:3|0:3,0:0:0:0:
200,115,104506,1,0,0:3:0:0:
200,242,104677,6,0,P|201:275|198:313,1,70,6|0,0:3|0:0,0:0:0:0:
275,346,105020,1,8,0:3:0:0:
355,323,105191,2,0,L|372:174,1,140,6|0,0:3|0:3,0:0:0:0:
448,148,105706,1,10,0:3:0:0:
379,99,105877,6,0,P|344:94|309:99,1,70,6|0,0:3|0:3,0:0:0:0:
223,105,106220,1,10,0:3:0:0:
260,30,106391,1,2,0:3:0:0:
272,182,106563,2,0,L|267:321,1,140,2|2,0:3|0:2,0:0:0:0:
185,343,107077,1,10,0:3:0:0:
103,323,107249,1,2,0:3:0:0:
98,310,107334,1,2,0:2:0:0:
92,297,107420,6,0,L|80:227,1,70,6|2,0:3|0:2,0:0:0:0:
145,174,107763,1,8,0:3:0:0:
66,143,107934,1,0,0:3:0:0:
135,95,108106,1,2,0:3:0:0:
211,128,108277,2,0,P|246:124|281:126,1,70,2|8,0:3|0:3,0:0:0:0:
397,77,108620,6,0,P|408:144|378:206,1,140,6|2,0:3|0:2,0:0:0:0:
310,256,109134,1,8,0:3:0:0:
322,339,109306,2,0,B|395:355|395:355|457:334,1,140,2|0,0:3|0:3,0:0:0:0:
424,256,109820,1,10,0:3:0:0:
450,176,109991,1,2,0:3:0:0:
384,58,110163,6,0,P|349:52|314:55,1,70,6|0,0:3|0:3,0:0:0:0:
255,115,110506,2,0,L|159:102,1,70,8|0,0:3|0:3,0:0:0:0:
112,64,110849,1,2,0:3:0:0:
109,146,111020,2,0,P|108:181|111:216,1,70,2|8,0:3|0:3,0:0:0:0:
47,271,111363,6,0,L|185:251,1,140,6|2,0:3|0:2,0:0:0:0:
237,317,111877,1,8,0:3:0:0:
314,351,112049,2,0,P|386:333|449:362,2,140,2|6|6,0:3|0:3|0:3,0:0:0:0:
316,211,112906,6,0,L|323:64,1,140,6|8,0:3|0:3,0:0:0:0:
159,43,113591,2,0,L|173:135,1,70,2|0,0:3|0:3,0:0:0:0:
244,74,113934,1,10,0:3:0:0:
323,49,114106,6,0,P|377:92|379:159,1,140,6|2,0:3|0:3,0:0:0:0:
304,128,114620,1,8,0:3:0:0:
210,267,114963,2,0,L|206:344,2,70,2|6|10,0:3|0:3|0:3,0:0:0:0:
233,186,115477,1,6,0:3:0:0:
108,196,115649,6,0,P|105:161|112:127,1,70,6|2,0:3|0:2,0:0:0:0:
201,37,115991,2,0,P|203:71|196:105,1,70,10|0,0:3|0:3,0:0:0:0:
233,186,116334,1,0,0:3:0:0:
255,267,116506,1,2,0:3:0:0:
332,298,116677,1,8,0:3:0:0:
405,256,116849,6,0,P|435:192|455:125,1,140,6|2,0:3|0:2,0:0:0:0:
401,60,117363,2,0,P|331:57|276:97,1,140,10|2,0:3|0:3,0:0:0:0:
278,185,117877,1,0,0:3:0:0:
198,212,118049,1,0,0:3:0:0:
135,151,118220,1,10,0:3:0:0:
183,296,118391,6,0,L|189:365,1,70,6|2,0:3|0:2,0:0:0:0:
331,333,118734,2,0,L|337:263,1,70,8|2,0:3|0:3,0:0:0:0:
338,178,119077,1,2,0:2:0:0:
414,143,119249,1,2,0:2:0:0:
412,226,119420,1,10,0:3:0:0:
345,89,119591,6,0,P|279:69|210:77,1,140,6|2,0:3|0:2,0:0:0:0:
168,3,120106,1,10,0:3:0:0:
113,66,120277,1,0,0:3:0:0:
100,71,120363,1,2,0:2:0:0:
87,75,120449,2,0,P|69:106|59:139,1,70,2|0,0:3|0:3,0:3:0:0:
42,221,120791,1,10,0:3:0:0:
17,301,120963,1,0,0:3:0:0:
99,286,121134,6,0,P|133:295|168:300,1,70,4|8,0:3|0:3,0:0:0:0:
204,224,121477,1,8,0:3:0:0:
196,307,121649,2,0,L|272:300,1,70,12|8,0:3|0:3,0:0:0:0:
287,219,121991,1,0,0:3:0:0:
290,303,122163,2,0,P|325:301|360:305,1,70,12|0,0:3|0:3,0:0:0:0:
443,316,122506,6,0,L|452:270,2,46.6666666666667,4|0|0,0:3|0:3|0:3,0:0:0:0:
453,236,122849,2,0,L|458:189,2,46.6666666666667,12|0|0,0:3|0:3|0:3,0:0:0:0:
445,160,123173,2,0,L|446:113,2,46.6666666666667,4|0|0,0:3|0:3|0:3,0:0:0:0:
430,86,123497,2,0,L|427:39,2,46.6666666666667,12|0|8,0:3|0:3|0:3,0:0:0:0:
278,53,125250,5,4,0:3:0:0:
278,53,125421,1,8,0:3:0:0:
312,133,125764,1,4,0:3:0:0:
312,133,126107,5,4,0:3:0:0:
228,121,126279,1,8,0:3:0:0:
278,53,126450,1,4,0:3:0:0:
258,199,126621,1,4,0:0:0:0:
256,192,143079,12,0,146850,0:0:0:0:
185,288,147193,6,0,P|247:320|317:317,1,140,14|8,0:3|0:3,0:0:0:0:
350,181,147707,2,0,P|288:149|218:152,1,140,4|6,0:3|0:3,0:0:0:0:
115,246,148221,1,10,0:3:0:0:
136,164,148393,1,2,0:3:0:0:
32,256,148564,6,0,P|29:291|32:326,1,70,4|0,0:1|0:2,0:0:0:0:
112,356,148907,1,8,0:3:0:0:
191,327,149079,2,0,L|273:335,1,70,2|0,0:3|0:3,0:0:0:0:
295,257,149421,2,0,L|213:249,1,70,2|10,0:2|0:3,0:0:0:0:
165,190,149764,1,0,0:3:0:0:
245,166,149936,6,0,P|255:97|241:28,1,140,6|8,0:3|0:3,0:0:0:0:
163,61,150450,2,0,P|100:37|39:66,1,140,2|2,0:3|0:2,0:0:0:0:
102,120,150964,1,10,0:3:0:0:
22,148,151136,1,2,0:3:0:0:
0,284,151307,6,0,P|35:277|72:286,1,70,6|0,0:2|0:2,0:0:0:0:
55,367,151650,1,8,0:3:0:0:
135,340,151821,2,0,B|206:355|206:355|271:339,1,140,2|2,0:3|0:2,0:0:0:0:
262,255,152336,1,10,0:3:0:0:
338,289,152507,6,0,L|492:296,1,140,6|2,0:3|0:2,0:0:0:0:
494,212,153021,1,10,0:3:0:0:
434,152,153193,2,0,P|430:117|438:83,1,70,0|0,0:3|0:3,0:0:0:0:
353,78,153536,1,2,0:3:0:0:
394,5,153707,1,10,0:3:0:0:
310,11,153879,1,2,0:3:0:0:
229,126,154050,6,0,L|229:195,1,70,6|0,0:2|0:2,0:0:0:0:
267,272,154393,1,8,0:3:0:0:
319,335,154564,2,0,P|262:299|196:314,1,140,2|0,0:3|0:3,0:0:0:0:
120,352,155079,1,10,0:3:0:0:
128,268,155250,6,0,B|140:197|140:197|128:130,1,140,6|2,0:3|0:2,0:0:0:0:
45,146,155764,1,10,0:3:0:0:
72,65,155936,2,0,P|138:48|196:83,1,140,2|2,0:3|0:2,0:0:0:0:
251,147,156450,1,10,0:3:0:0:
334,147,156621,1,2,0:3:0:0:
430,50,156793,6,0,L|418:121,1,70,6|0,0:2|0:2,0:0:0:0:
485,170,157136,1,8,0:3:0:0:
469,252,157307,1,0,0:3:0:0:
454,334,157479,2,0,P|384:341|314:337,1,140,2|10,0:3|0:3,0:0:0:0:
282,259,157993,6,0,L|189:271,1,70,6|0,0:3|0:3,0:0:0:0:
170,341,158336,1,2,0:2:0:0:
130,266,158507,2,0,P|96:275|63:267,1,70,10|0,0:3|0:3,0:0:0:0:
98,190,158850,1,2,0:3:0:0:
127,111,159021,1,2,0:2:0:0:
105,29,159193,1,10,0:3:0:0:
186,48,159364,1,2,0:3:0:0:
266,164,159536,6,0,P|300:167|335:165,1,70,6|0,0:2|0:2,0:0:0:0:
350,83,159879,1,8,0:3:0:0:
419,130,160050,2,0,L|425:199,1,70,2|0,0:3|0:3,0:0:0:0:
486,257,160393,2,0,P|423:282|361:253,1,140,2|2,0:3|0:3,0:0:0:0:
281,278,160907,6,0,B|213:265|213:265|146:288,1,140,6|8,0:3|0:3,0:0:0:0:
78,338,161421,2,0,P|62:272|100:216,1,140,2|2,0:3|0:2,0:0:0:0:
184,209,161936,1,10,0:3:0:0:
142,136,162107,1,2,0:3:0:0:
75,20,162279,6,0,L|149:31,1,70,6|0,0:2|0:2,0:0:0:0:
228,21,162621,1,8,0:3:0:0:
297,67,162793,2,0,P|363:48|422:88,1,140,2|2,0:3|0:2,0:0:0:0:
350,132,163307,1,10,0:3:0:0:
351,216,163479,1,2,0:3:0:0:
474,245,163650,6,0,B|445:320|445:320|429:382,1,140,4|8,0:2|0:3,0:0:0:0:
346,368,164164,1,2,0:2:0:0:
309,291,164336,1,2,0:3:0:0:
263,360,164507,2,0,P|228:363|193:358,1,70,2|8,0:3|0:3,0:0:0:0:
63,322,164850,6,0,L|136:199,1,140,6|2,0:2|0:2,0:0:0:0:
180,130,165364,1,8,0:3:0:0:
95,126,165536,1,2,0:2:0:0:
140,55,165707,1,2,0:3:0:0:
224,59,165879,2,0,P|258:64|293:62,1,70,2|8,0:3|0:3,0:0:0:0:
416,11,166221,6,0,P|377:66|391:133,1,140,6|4,0:2|0:3,0:0:0:0:
415,215,166736,1,8,0:3:0:0:
332,199,166907,2,0,P|297:195|262:197,2,70,6|2|0,0:3|0:2|0:0,0:0:0:0:
360,278,167421,1,10,0:3:0:0:
327,355,167593,1,6,0:3:0:0:
184,355,167764,6,0,L|106:368,1,70,6|0,0:2|0:2,0:0:0:0:
37,334,168107,1,8,0:3:0:0:
103,280,168279,2,0,P|106:246|105:211,1,70,2|0,0:3|0:3,0:0:0:0:
48,149,168621,2,0,B|53:111|53:111|48:79,1,70,2|8,0:3|0:3,0:0:0:0:
112,24,168964,1,2,0:3:0:0:
241,32,169136,6,0,B|209:102|255:108|230:168,1,140,6|8,0:2|0:3,0:0:0:0:
153,204,169650,1,2,0:3:0:0:
219,257,169821,2,0,L|300:267,1,70,2|0,0:3|0:3,0:0:0:0:
346,326,170164,2,0,P|380:320|414:328,1,70,10|0,0:3|0:3,0:0:0:0:
467,263,170507,5,4,0:3:0:0:
464,249,170593,1,0,0:3:0:0:
462,235,170679,2,0,L|470:163,1,70,8|10,0:3|0:3,0:0:0:0:
387,147,171021,1,4,0:3:0:0:
384,133,171107,1,0,0:3:0:0:
382,119,171193,2,0,L|390:47,1,70,8|2,0:3|0:3,0:0:0:0:
305,51,171536,1,14,0:3:0:0:
225,25,171707,1,6,0:3:0:0:
145,129,171879,6,0,L|70:118,1,70,6|0,0:2|0:2,0:0:0:0:
38,193,172221,2,0,P|46:228|58:260,1,70,8|0,0:3|0:0,0:0:0:0:
143,275,172564,2,0,P|208:252|272:277,1,140,2|10,0:3|0:3,0:0:0:0:
238,355,173079,6,0,B|308:379|309:330|374:356,1,140,6|2,0:3|0:2,0:0:0:0:
454,328,173593,2,0,L|441:255,1,70,10|0,0:3|0:3,0:0:0:0:
358,245,173936,1,2,0:3:0:0:
409,178,174107,2,0,P|416:143|411:109,1,70,2|8,0:3|0:3,0:0:0:0:
373,35,174450,1,2,0:3:0:0:
297,147,174621,6,0,P|229:158|168:125,1,140,6|10,0:2|0:3,0:0:0:0:
93,86,175136,2,0,B|57:80|57:80|23:86,1,70,2|0,0:3|0:3,0:0:0:0:
1,168,175479,1,2,0:3:0:0:
28,247,175650,1,8,0:3:0:0:
106,277,175821,1,2,0:3:0:0:
120,276,175907,1,2,0:2:0:0:
134,274,175993,6,0,P|168:270|203:273,1,70,6|2,0:3|0:2,0:0:0:0:
236,351,176336,1,10,0:3:0:0:
286,284,176507,2,0,L|359:282,1,70,2|0,0:3|0:3,0:0:0:0:
413,343,176850,2,0,L|387:201,1,140,2|2,0:3|0:3,0:0:0:0:
403,73,177364,6,0,P|340:66|252:105,1,140,6|8,0:2|0:3,0:0:0:0:
238,170,177879,1,0,0:3:0:0:
107,280,178221,2,0,L|115:364,2,70,2|8|2,0:3|0:3|0:3,0:0:0:0:
134,199,178736,6,0,P|135:164|129:129,1,70,6|2,0:3|0:2,0:0:0:0:
92,54,179079,2,0,L|165:39,1,70,10|0,0:3|0:3,0:0:0:0:
229,87,179421,1,2,0:2:0:0:
307,55,179593,1,2,0:3:0:0:
342,131,179764,1,8,0:3:0:0:
264,165,179936,1,2,0:3:0:0:
400,195,180107,6,0,L|409:284,1,70,6|2,0:2|0:2,0:0:0:0:
325,287,180450,2,0,P|290:280|256:285,1,70,8|2,0:3|0:3,0:0:0:0:
193,340,180793,1,0,0:3:0:0:
109,341,180964,1,2,0:2:0:0:
57,274,181136,1,10,0:3:0:0:
140,263,181307,6,0,B|166:198|166:198|150:129,1,140,6|2,0:3|0:2,0:0:0:0:
141,46,181821,1,8,0:3:0:0:
217,10,181993,1,2,0:3:0:0:
291,48,182164,2,0,L|364:42,1,70,2|4,0:3|0:3,0:0:0:0:
424,97,182507,1,10,0:3:0:0:
412,180,182679,1,6,0:3:0:0:
414,193,182764,1,2,0:2:0:0:
416,205,182850,6,0,P|417:240|414:275,1,70,4|0,0:2|0:2,0:0:0:0:
347,327,183193,1,8,0:3:0:0:
283,272,183364,1,0,0:3:0:0:
214,321,183536,2,0,P|145:311|77:327,1,140,2|10,0:3|0:3,0:0:0:0:
6,373,184050,2,0,P|50:320|46:252,1,140,6|2,0:3|0:2,0:0:0:0:
86,178,184564,2,0,L|79:100,1,70,10|0,0:3|0:3,0:0:0:0:
141,50,184907,1,2,0:3:0:0:
222,71,185079,2,0,P|222:140|213:210,1,140,2|2,0:3|0:3,0:0:0:0:
106,304,185593,6,0,P|170:281|228:318,1,140,6|8,0:2|0:3,0:0:0:0:
308,345,186107,2,0,L|409:354,1,70,2|0,0:3|0:3,0:0:0:0:
422,280,186450,1,2,0:3:0:0:
390,202,186621,1,10,0:3:0:0:
427,126,186793,1,2,0:3:0:0:
395,48,186964,6,0,P|343:65|263:37,1,140,6|8,0:3|0:3,0:0:0:0:
180,48,187479,2,0,B|186:124|186:124|168:185,1,140,2|2,0:3|0:2,0:0:0:0:
153,268,187993,1,10,0:3:0:0:
85,218,188164,1,2,0:3:0:0:
125,346,188336,6,0,P|192:341|233:286,1,140,6|8,0:2|0:3,0:0:0:0:
307,245,188850,2,0,L|324:316,1,70,2|0,0:3|0:3,0:0:0:0:
385,370,189193,2,0,P|419:374|452:365,1,70,2|8,0:3|0:3,0:0:0:0:
506,298,189536,1,2,0:3:0:0:
490,215,189707,6,0,P|489:180|493:145,1,70,6|2,0:3|0:3,0:0:0:0:
412,118,190050,1,8,0:3:0:0:
338,159,190221,1,4,0:3:0:0:
272,104,190393,2,0,P|276:69|271:34,2,70,6|2|8,0:3|0:2|0:3,0:0:0:0:
199,144,190907,1,6,0:3:0:0:
185,139,190993,1,2,0:2:0:0:
171,134,191079,6,0,L|99:141,1,70,6|0,0:2|0:2,0:0:0:0:
27,229,191421,2,0,P|62:226|96:234,1,70,12|8,0:3|0:3,0:0:0:0:
90,318,191764,1,6,0:3:0:0:
116,238,191936,2,0,L|214:231,1,70,10|12,0:3|0:3,0:0:0:0:
224,308,192279,1,8,0:3:0:0:
300,339,192450,6,0,P|335:333|368:322,1,70,4|0,0:3|0:3,0:0:0:0:
347,240,192793,2,0,L|354:166,1,70,14|0,0:3|0:3,0:0:0:0:
301,47,193136,2,0,L|294:121,1,70,6|0,0:3|0:3,0:0:0:0:
215,224,193479,2,0,L|222:150,1,70,14|0,0:3|0:3,0:0:0:0:
169,31,193821,6,0,L|162:105,1,70,6|0,0:2|0:2,0:0:0:0:
104,161,194164,1,8,0:3:0:0:
85,288,194336,2,0,L|154:281,1,70,6|0,0:2|0:2,0:0:0:0:
215,224,194679,1,0,0:3:0:0:
358,259,194850,2,0,L|288:265,1,70,6|0,0:2|0:2,0:0:0:0:
231,362,195193,5,6,0:2:0:0:
212,192,195364,2,0,P|227:125|217:56,1,140,8|6,0:3|0:2,0:0:0:0:
282,1,195879,1,4,0:3:0:0:
360,31,196050,1,8,0:3:0:0:
371,39,196136,1,0,0:3:0:0:
381,47,196221,1,6,0:2:0:0:
372,158,196393,1,2,0:3:0:0:
468,213,196564,6,0,L|473:285,1,70,6|2,0:2|0:2,0:0:0:0:
394,310,196907,2,0,L|390:236,1,70,8|2,0:3|0:2,0:0:0:0:
372,158,197250,1,2,0:3:0:0:
308,212,197421,1,0,0:0:0:0:
223,205,197593,1,10,0:3:0:0:
172,138,197764,6,0,P|185:68|216:6,1,140,6|2,0:3|0:2,0:0:0:0:
298,29,198279,2,0,P|333:26|381:37,1,70,8|0,0:3|0:3,0:0:0:0:
409,104,198621,2,0,L|483:92,2,70,2|2|10,0:3|0:2|0:3,0:0:0:0:
325,120,199136,1,0,0:3:0:0:
379,183,199307,6,0,P|379:252|389:322,1,140,6|8,0:3|0:3,0:0:0:0:
309,349,199821,1,0,0:3:0:0:
226,330,199993,2,0,P|191:336|156:334,1,70,2|2,0:3|0:2,0:0:0:0:
99,271,200336,1,10,0:3:0:0:
177,167,200507,6,0,B|200:99|200:99|183:32,1,140,6|2,0:3|0:2,0:0:0:0:
264,9,201021,2,0,L|283:77,1,70,8|0,0:3|0:3,0:0:0:0:
267,159,201364,1,2,0:3:0:0:
337,205,201536,1,2,0:2:0:0:
264,247,201707,2,0,P|263:281|257:316,1,70,10|0,0:3|0:3,0:0:0:0:
188,369,202050,6,0,P|252:348|312:381,1,140,6|8,0:2|0:3,0:0:0:0:
370,320,202564,1,0,0:3:0:0:
435,372,202736,2,0,P|475:373|508:368,2,70,2|2|10,0:3|0:2|0:3,0:0:0:0:
423,246,203250,6,0,L|423:95,1,140,6|2,0:3|0:2,0:0:0:0:
388,29,203764,2,0,L|314:18,1,70,8|0,0:3|0:3,0:0:0:0:
279,93,204107,1,2,0:3:0:0:
235,22,204279,1,2,0:2:0:0:
163,66,204450,1,10,0:3:0:0:
208,136,204621,1,0,0:3:0:0:
146,78,204793,6,0,P|111:73|76:77,1,70,6|2,0:3|0:2,0:0:0:0:
30,143,205136,1,8,0:3:0:0:
57,222,205307,1,0,0:3:0:0:
54,235,205393,1,2,0:2:0:0:
52,248,205479,2,0,L|49:337,1,70,2|2,0:3|0:2,0:0:0:0:
113,372,205821,1,10,0:3:0:0:
245,306,205993,6,0,P|306:338|370:314,1,140,6|2,0:3|0:2,0:0:0:0:
309,257,206507,1,12,0:3:0:0:
310,243,206593,1,0,0:3:0:0:
311,229,206679,2,0,L|307:184,4,35,2|0|6|0|2,0:2|0:3|0:3|0:3|0:2,0:0:0:0:
277,118,207193,1,14,0:3:0:0:
200,84,207364,1,4,0:3:0:0:
327,45,207536,6,0,P|361:36|396:40,1,70,6|2,0:2|0:2,0:0:0:0:
429,117,207879,2,0,P|395:125|360:121,1,70,8|0,0:3|0:3,0:0:0:0:
277,118,208221,1,2,0:3:0:0:
200,84,208393,1,2,0:2:0:0:
268,36,208564,1,10,0:3:0:0:
209,168,208736,6,0,P|230:233|209:299,1,140,6|2,0:3|0:2,0:0:0:0:
139,346,209250,1,8,0:3:0:0:
216,377,209421,1,0,0:3:0:0:
229,378,209507,1,2,0:2:0:0:
243,378,209593,2,0,L|334:370,2,70,2|2|10,0:3|0:2|0:3,0:0:0:0:
209,300,210107,1,0,0:3:0:0:
253,228,210279,6,0,L|252:136,1,70,6|2,0:3|0:2,0:0:0:0:
315,103,210621,1,8,0:3:0:0:
349,26,210793,1,0,0:3:0:0:
432,36,210964,1,2,0:3:0:0:
451,117,211136,1,2,0:2:0:0:
379,160,211307,1,10,0:3:0:0:
443,267,211479,6,0,B|370:280|370:280|319:322,1,140,6|2,0:3|0:2,0:0:0:0:
253,373,211993,2,0,P|218:378|185:368,1,70,8|0,0:3|0:3,0:0:0:0:
143,295,212336,2,0,L|60:297,2,70,2|2|10,0:3|0:2|0:3,0:0:0:0:
188,224,212850,1,0,0:3:0:0:
138,154,213021,6,0,P|135:120|137:85,1,70,6|2,0:3|0:2,0:0:0:0:
221,91,213364,2,0,L|295:84,1,70,8|0,0:3|0:3,0:0:0:0:
374,86,213707,1,2,0:3:0:0:
425,19,213879,1,2,0:2:0:0:
507,35,214050,1,10,0:3:0:0:
425,151,214221,6,0,P|421:221|428:291,1,140,6|2,0:3|0:2,0:0:0:0:
353,330,214736,2,0,L|280:341,1,70,8|0,0:3|0:3,0:0:0:0:
221,284,215079,2,0,P|218:250|222:215,2,70,2|2|10,0:3|0:2|0:3,0:0:0:0:
190,363,215593,1,0,0:3:0:0:
64,358,215764,6,0,L|76:274,1,70,6|2,0:2|0:2,0:0:0:0:
20,224,216107,2,0,P|28:189|29:154,1,70,8|2,0:3|0:2,0:0:0:0:
64,63,216450,1,2,0:3:0:0:
153,23,216621,1,2,0:2:0:0:
246,54,216793,1,10,0:3:0:0:
292,139,216964,6,0,L|280:223,1,70,6|0,0:3|0:3,0:0:0:0:
244,299,217307,1,0,0:3:0:0:
341,288,217479,2,0,P|375:292|410:289,1,70,8|2,0:3|0:2,0:0:0:0:
465,209,217821,1,2,0:3:0:0:
392,142,217993,1,2,0:2:0:0:
448,62,218164,1,10,0:3:0:0:
365,8,218336,1,2,0:3:0:0:
311,89,218507,6,0,L|165:85,1,140,6|0,0:3|0:3,0:0:0:0:
64,172,219021,2,0,P|98:162|133:160,1,70,6|0,0:3|0:3,0:0:0:0:
241,220,219364,2,0,P|207:230|173:232,1,70,6|0,0:3|0:3,0:0:0:0:
66,292,219707,5,14,0:3:0:0:
256,192,219793,12,0,222621,0:3:0:0:
