osu file format v14

[General]
AudioFilename: audio.mp3
AudioLeadIn: 0
PreviewTime: 126107
Countdown: 1
SampleSet: Soft
StackLeniency: 0.7
Mode: 0
LetterboxInBreaks: 0
WidescreenStoryboard: 1

[Editor]
DistanceSpacing: 1.7
BeatDivisor: 4
GridSize: 4
TimelineZoom: 1.5

[Metadata]
Title:You Say Run
TitleUnicode:You Say Run
Artist:Yuki Hayashi
ArtistUnicode:林 ゆうき
Creator:Zare
Version:Akitoshi's Insane
Source:僕のヒーローアカデミア
Tags:BNHA MHA Boku No Hero Academia My Academy Anime OST Official Soundtrack Instrumental Orchestral Symphonic Rock Akitoshi
BeatmapID:1256881
BeatmapSetID:487907

[Difficulty]
HPDrainRate:6
CircleSize:3.8
OverallDifficulty:7.5
ApproachRate:9
SliderMultiplier:1.5
SliderTickRate:1

[Events]
//Background and Video events
0,0,"BNHA.jpg",0,0
//Break Periods
//Storyboard Layer 0 (Background)
//Storyboard Layer 1 (Fail)
//Storyboard Layer 2 (Pass)
//Storyboard Layer 3 (Foreground)
//Storyboard Sound Samples

[TimingPoints]
449,342.857142857143,4,2,0,40,1,0
449,-133.333333333333,4,2,0,40,0,0
22391,-117.647058823529,4,3,0,50,0,0
23763,-105.263157894737,4,1,0,50,0,0
121134,-133.333333333333,4,1,0,40,0,0
122849,324.324324324324,4,1,0,40,1,0
122849,-133.333333333333,4,1,0,40,0,0
123497,342.857142857143,4,1,0,40,1,0
123497,-133.333333333333,4,1,0,40,0,0
123879,342.857142857143,4,1,0,40,1,0
125250,-117.647058823529,4,1,0,50,0,0
126621,-181.818181818181,4,2,1,50,0,0
126707,-181.818181818181,4,2,0,50,0,0
126793,-181.818181818181,4,2,0,50,0,0
135536,-133.333333333333,4,2,0,50,0,0
137593,-181.818181818181,4,2,0,50,0,0
137764,-181.818181818181,4,2,0,50,0,0
143079,-133.333333333333,4,2,0,50,0,0
147193,-105.263157894737,4,1,0,50,0,0
148564,-90.9090909090909,4,1,1,60,0,1
148736,-90.9090909090909,4,1,0,60,0,1
170507,-100,4,1,0,60,0,0
171879,-90.9090909090909,4,1,0,60,0,1
196564,-105.263157894737,4,1,0,50,0,0
219707,-200,4,1,0,60,0,0
219793,-200,4,2,0,5,0,0

[Colours]
Combo1 : 255,46,9
Combo2 : 98,167,95
Combo3 : 154,154,152
Combo4 : 30,131,232

[HitObjects]
54,284,449,6,0,B|91:276|91:276|128:292|128:292|169:265|240:275,1,168.750006437302,2|0,0:3|0:0,0:0:0:0:
304,279,1134,2,0,L|309:218,1,56.2500021457673,2|0,0:0|0:0,0:0:0:0:
384,174,1477,1,2,0:3:0:0:
384,174,2677,2,0,P|414:177|446:169,1,56.2500021457673,2|0,0:0|0:0,0:0:0:0:
407,87,3020,1,0,0:0:0:0:
289,125,3191,6,0,L|303:297,1,168.750006437302,2|0,0:3|0:0,0:0:0:0:
219,352,3877,2,0,P|179:361|147:356,1,56.2500021457673,2|0,0:0|0:0,0:0:0:0:
81,300,4220,1,2,0:3:0:0:
81,300,5249,2,0,B|70:242|70:242|90:132,1,168.750006437302,2|0,0:0|0:0,0:0:0:0:
173,77,5934,6,0,P|207:119|317:122,1,168.750006437302,2|0,0:3|0:0,0:0:0:0:
406,79,6620,2,0,P|346:24|265:33,1,168.750006437302,2|0,0:0|0:0,0:0:0:0:
314,123,7306,2,0,B|325:171|325:171|312:238|312:238|326:303,1,168.750006437302,0|0,0:0|0:0,0:0:0:0:
392,361,7991,2,0,P|350:321|233:355,1,168.750006437302,2|0,0:3|0:0,0:0:0:0:
150,366,8677,6,0,B|138:310|138:310|164:243|164:243|136:151|136:151|100:212,1,281.250010728836,2|0,0:3|0:0,0:0:0:0:
58,287,9706,2,0,B|105:302|105:302|167:285|167:285|257:348|333:293,1,281.250010728836,2|0,0:3|0:0,0:0:0:0:
401,235,10734,2,0,L|462:243,2,56.2500021457673,0|0|2,0:0|0:0|0:0,0:0:0:0:
238,112,11420,6,0,P|231:72|313:103,1,168.750006437302,2|0,0:3|0:0,0:0:0:0:
287,185,12106,2,0,B|241:198|241:198|102:173,1,168.750006437302,2|0,0:2|0:0,0:0:0:0:
36,123,12791,2,0,P|90:166|87:283,1,168.750006437302,2|0,0:3|0:0,0:0:0:0:
65,356,13477,2,0,P|108:302|225:305,1,168.750006437302,2|0,0:2|0:0,0:0:0:0:
311,321,14163,6,0,B|324:260|282:215|282:215|307:108|307:108|363:163,1,281.250010728836,2|0,0:3|0:0,0:0:0:0:
412,239,15191,2,0,P|334:190|202:296,1,281.250010728836,2|0,0:3|0:0,0:0:0:0:
133,381,16220,2,0,B|165:337|165:337|142:215,1,168.750006437302,2|0,0:3|0:0,0:0:0:0:
134,100,16906,6,0,P|167:73|336:125,1,225.000008583069,2|0,0:3|0:0,0:0:0:0:
417,342,17934,2,0,B|364:311|364:311|201:334,1,225.000008583069,2|0,0:3|0:0,0:0:0:0:
13,171,18963,1,0,0:0:0:0:
247,91,19306,1,2,0:0:0:0:
202,333,19649,1,2,0:3:0:0:
256,192,19734,12,0,22220,0:0:0:0:
120,138,22391,5,6,0:3:0:0:
199,246,22563,1,4,0:3:0:0:
217,253,22649,1,0,0:3:0:0:
236,256,22734,1,8,0:3:0:0:
255,256,22820,1,0,0:3:0:0:
273,251,22906,1,6,0:3:0:0:
352,143,23077,1,6,0:3:0:0:
364,128,23163,1,0,0:3:0:0:
380,117,23249,1,0,0:3:0:0:
398,112,23334,1,0,0:3:0:0:
416,115,23420,2,0,L|465:109,3,31.8750006079674,10|0|6|10,0:3|0:3|0:3|0:3,0:0:0:0:
468,89,23763,6,0,B|488:183|488:183|472:245,1,142.49999619484,6|8,0:2|0:3,0:0:0:0:
381,325,24277,1,2,0:2:0:0:
287,227,24449,2,0,P|245:222|194:237,1,71.2499980974198,2|0,0:3|0:3,0:0:0:0:
253,358,24791,1,10,0:3:0:0:
380,212,24963,6,0,B|384:169|384:169|364:118|364:118|371:55,1,142.49999619484,6|0,0:3|0:3,0:0:0:0:
252,4,25477,1,8,0:3:0:0:
158,80,25649,1,0,0:2:0:0:
158,80,25734,1,2,0:2:0:0:
158,80,25820,2,0,L|60:73,1,71.2499980974198,2|0,0:3|0:2,0:0:0:0:
45,204,26163,2,0,L|143:211,1,71.2499980974198,8|2,0:3|0:2,0:0:0:0:
293,225,26506,6,0,P|316:293|277:381,1,142.49999619484,6|8,0:3|0:3,0:0:0:0:
204,295,27020,1,2,0:2:0:0:
226,154,27191,2,0,P|260:133|319:129,1,71.2499980974198,2|0,0:3|0:3,0:0:0:0:
420,186,27534,1,10,0:3:0:0:
368,53,27706,6,0,P|305:20|237:34,1,142.49999619484,6|0,0:3|0:3,0:0:0:0:
129,128,28220,1,8,0:3:0:0:
298,134,28391,1,0,0:2:0:0:
298,134,28477,1,2,0:2:0:0:
298,134,28563,1,2,0:3:0:0:
237,33,28734,1,0,0:3:0:0:
207,193,28906,2,0,L|215:280,1,71.2499980974198,8|2,0:3|0:2,0:0:0:0:
311,358,29249,6,0,P|374:366|447:311,1,142.49999619484,6|8,0:3|0:3,0:0:0:0:
472,193,29763,1,2,0:2:0:0:
353,256,29934,1,2,0:3:0:0:
357,121,30106,1,0,0:3:0:0:
472,193,30277,1,10,0:3:0:0:
294,182,30449,6,0,P|270:127|323:39,1,142.49999619484,6|0,0:3|0:3,0:0:0:0:
453,16,30963,1,8,0:3:0:0:
364,128,31134,1,0,0:2:0:0:
364,128,31220,1,2,0:2:0:0:
364,128,31306,1,2,0:3:0:0:
506,93,31477,1,0,0:3:0:0:
341,30,31649,2,0,L|263:26,1,71.2499980974198,8|2,0:3|0:2,0:0:0:0:
127,75,31991,6,0,B|117:173|117:173|138:226,1,142.49999619484,6|8,0:3|0:3,0:0:0:0:
252,305,32506,1,0,0:2:0:0:
252,305,32591,1,2,0:2:0:0:
252,305,32677,2,0,L|334:295,1,71.2499980974198,2|4,0:3|0:3,0:0:0:0:
236,200,33020,1,10,0:3:0:0:
132,326,33191,6,0,P|71:310|25:241,1,142.49999619484,6|0,0:3|0:3,0:0:0:0:
24,104,33706,1,8,0:3:0:0:
156,51,33877,1,4,0:3:0:0:
156,51,33963,1,2,0:2:0:0:
156,51,34049,2,0,L|217:45,3,35.6249990487099,2|0|4|0,0:3|0:3|0:3|0:3,0:0:0:0:
221,65,34391,1,8,0:3:0:0:
244,91,34477,1,2,0:2:0:0:
255,124,34563,1,2,0:3:0:0:
258,159,34649,1,10,0:3:0:0:
246,192,34734,6,0,P|299:181|342:177,1,71.2499980974198,6|0,0:2|0:3,0:0:0:0:
228,290,35077,2,0,P|175:279|132:275,1,71.2499980974198,8|2,0:3|0:2,0:0:0:0:
22,263,35420,1,2,0:3:0:0:
122,174,35591,1,0,0:3:0:0:
80,359,35763,1,10,0:3:0:0:
26,153,35934,6,0,P|58:99|154:80,1,142.49999619484,6|0,0:3|0:3,0:0:0:0:
282,117,36449,1,8,0:3:0:0:
129,181,36620,1,0,0:2:0:0:
129,181,36706,1,2,0:2:0:0:
129,181,36791,1,2,0:3:0:0:
222,48,36963,1,0,0:3:0:0:
253,208,37134,2,0,P|289:212|337:196,1,71.2499980974198,8|2,0:3|0:2,0:0:0:0:
498,143,37477,6,0,L|504:228,1,71.2499980974198,6|0,0:3|0:3,0:0:0:0:
444,336,37820,2,0,B|412:321|412:321|314:333,1,106.87499714613,8|2,0:3|0:2,0:0:0:0:
340,329,38163,1,2,0:3:0:0:
235,315,38334,1,0,0:3:0:0:
179,223,38506,1,10,0:3:0:0:
314,228,38677,6,0,L|469:205,1,142.49999619484,6|0,0:3|0:3,0:0:0:0:
507,74,39191,1,8,0:3:0:0:
387,25,39363,1,0,0:2:0:0:
387,25,39449,1,2,0:2:0:0:
387,25,39534,2,0,P|347:23|309:32,1,71.2499980974198,2|0,0:3|0:3,0:0:0:0:
213,106,39877,1,10,0:3:0:0:
314,228,40049,5,0,0:2:0:0:
314,228,40134,1,2,0:2:0:0:
314,228,40220,2,0,L|309:305,1,71.2499980974198,6|2,0:3|0:2,0:0:0:0:
193,354,40563,2,0,L|179:255,1,71.2499980974198,8|0,0:3|0:0,0:0:0:0:
167,170,40906,1,2,0:3:0:0:
68,240,41077,1,2,0:2:0:0:
167,170,41249,1,10,0:3:0:0:
314,228,41420,6,0,P|388:239|457:187,1,142.49999619484,6|0,0:3|0:3,0:0:0:0:
490,55,41934,1,8,0:3:0:0:
373,148,42106,1,0,0:2:0:0:
373,148,42191,1,2,0:2:0:0:
373,148,42277,2,0,L|280:144,1,71.2499980974198,2|2,0:3|0:2,0:0:0:0:
197,46,42620,2,0,L|290:50,1,71.2499980974198,8|2,0:3|0:2,0:0:0:0:
425,54,42963,5,2,0:3:0:0:
301,144,43134,1,2,0:2:0:0:
454,173,43306,1,8,0:3:0:0:
330,263,43477,1,2,0:2:0:0:
346,71,43649,1,2,0:3:0:0:
417,250,43820,1,2,0:2:0:0:
226,226,43991,1,10,0:3:0:0:
400,348,44163,6,0,P|469:335|511:280,1,142.49999619484,6|2,0:3|0:2,0:0:0:0:
410,179,44677,2,0,L|418:266,1,71.2499980974198,8|0,0:3|0:2,0:0:0:0:
300,366,45020,1,2,0:3:0:0:
196,304,45191,1,2,0:2:0:0:
327,231,45363,1,6,0:3:0:0:
223,169,45534,1,8,0:3:0:0:
196,304,45706,5,0,0:3:0:0:
106,221,45877,1,2,0:3:0:0:
106,221,45963,1,4,0:3:0:0:
51,328,46134,1,4,0:3:0:0:
51,328,46220,1,2,0:3:0:0:
2,171,46391,6,0,L|7:116,3,35.6249990487099,6|0|4|4,0:3|0:3|0:3|0:3,0:0:0:0:
56,71,46734,1,8,0:3:0:0:
87,87,46820,1,2,0:2:0:0:
122,89,46906,1,6,0:3:0:0:
156,80,46991,1,2,0:3:0:0:
185,59,47077,6,0,L|327:69,1,142.49999619484,6|10,0:2|0:3,0:0:0:0:
398,167,47591,1,2,0:2:0:0:
298,236,47763,2,0,P|290:269|300:325,1,71.2499980974198,0|2,0:3|0:3,0:0:0:0:
410,276,48106,1,8,0:3:0:0:
311,154,48277,1,2,0:3:0:0:
193,258,48449,6,0,L|113:254,1,71.2499980974198,2|0,0:2|0:0,0:0:0:0:
10,166,48791,1,8,0:3:0:0:
110,63,48963,1,0,0:2:0:0:
110,63,49049,1,2,0:2:0:0:
110,63,49134,2,0,P|144:49|189:52,1,71.2499980974198,2|0,0:3|0:3,0:0:0:0:
304,149,49477,2,0,L|298:276,1,106.87499714613,10|0,0:3|0:0,0:0:0:0:
300,273,49820,6,0,P|345:299|440:279,1,142.49999619484,4|8,0:3|0:3,0:0:0:0:
493,156,50334,1,0,0:3:0:0:
493,156,50420,1,2,0:2:0:0:
493,156,50506,2,0,L|480:72,1,71.2499980974198,0|2,0:3|0:3,0:0:0:0:
355,19,50849,1,8,0:3:0:0:
231,137,51020,6,0,P|157:126|77:122,1,142.49999619484,6|2,0:3|0:2,0:0:0:0:
235,31,51534,1,8,0:3:0:0:
352,111,51706,1,0,0:3:0:0:
352,111,51791,1,2,0:2:0:0:
352,111,51877,2,0,P|359:147|361:200,1,71.2499980974198,2|2,0:3|0:3,0:0:0:0:
466,278,52220,2,0,P|469:223|480:155,1,106.87499714613,8|0,0:3|0:0,0:0:0:0:
478,153,52563,6,0,P|427:158|349:108,1,142.49999619484,6|8,0:3|0:3,0:0:0:0:
228,38,53077,1,2,0:3:0:0:
228,38,53163,1,2,0:2:0:0:
228,38,53249,2,0,L|129:47,1,71.2499980974198,0|0,0:3|0:3,0:0:0:0:
15,61,53591,1,10,0:3:0:0:
117,161,53763,6,0,B|126:220|106:256|106:256|121:316,1,142.49999619484,6|2,0:3|0:2,0:0:0:0:
242,368,54277,1,10,0:3:0:0:
367,302,54449,1,0,0:3:0:0:
367,302,54534,1,2,0:2:0:0:
367,302,54620,2,0,P|411:295|452:303,1,71.2499980974198,2|0,0:3|0:3,0:0:0:0:
508,200,54963,2,0,L|493:60,1,106.87499714613,8|0,0:3|0:0,0:0:0:0:
493,76,55306,6,0,P|437:100|350:74,1,142.49999619484,4|8,0:3|0:3,0:0:0:0:
257,14,55820,1,0,0:3:0:0:
185,111,55991,2,0,L|194:203,1,71.2499980974198,2|0,0:3|0:3,0:0:0:0:
202,303,56334,1,10,0:3:0:0:
325,196,56506,6,0,P|268:169|183:187,1,142.49999619484,6|2,0:3|0:2,0:0:0:0:
85,278,57020,1,10,0:3:0:0:
247,298,57191,2,0,B|289:291|289:291|349:303|349:303|419:287,1,142.49999619484,2|2,0:3|0:2,0:0:0:0:
484,162,57706,1,10,0:3:0:0:
497,128,57791,1,8,0:3:0:0:
498,92,57877,1,4,0:3:0:0:
486,58,57963,1,6,0:3:0:0:
458,35,58049,6,0,B|408:48|408:48|355:14|291:36,1,142.49999619484,6|8,0:2|0:3,0:0:0:0:
343,141,58563,1,0,0:3:0:0:
343,141,58649,1,2,0:2:0:0:
343,141,58734,2,0,L|354:226,1,71.2499980974198,2|2,0:3|0:2,0:0:0:0:
369,353,59077,1,10,0:3:0:0:
443,276,59249,1,2,0:3:0:0:
279,289,59420,6,0,P|252:248|261:156,1,142.49999619484,6|10,0:3|0:3,0:0:0:0:
331,34,59934,1,0,0:3:0:0:
331,34,60020,1,2,0:2:0:0:
331,34,60106,2,0,L|238:27,1,71.2499980974198,0|0,0:3|0:3,0:0:0:0:
118,10,60449,1,10,0:3:0:0:
172,110,60620,1,2,0:3:0:0:
29,104,60791,6,0,L|38:250,1,142.49999619484,6|8,0:3|0:3,0:0:0:0:
139,347,61306,1,0,0:3:0:0:
139,347,61391,1,2,0:2:0:0:
139,347,61477,2,0,P|181:349|226:336,1,71.2499980974198,2|0,0:3|0:3,0:0:0:0:
323,257,61820,1,10,0:3:0:0:
196,192,61991,6,0,B|179:144|179:144|194:42,1,142.49999619484,6|2,0:3|0:2,0:0:0:0:
329,14,62506,1,8,0:3:0:0:
447,94,62677,1,0,0:3:0:0:
447,94,62763,1,2,0:2:0:0:
447,94,62849,1,2,0:3:0:0:
318,157,63020,1,0,0:3:0:0:
435,236,63191,2,0,P|473:236|507:225,1,71.2499980974198,10|2,0:3|0:3,0:0:0:0:
318,157,63534,6,0,L|155:164,1,142.49999619484,6|8,0:3|0:3,0:0:0:0:
33,176,64049,1,0,0:3:0:0:
33,176,64134,1,2,0:2:0:0:
33,176,64220,1,0,0:3:0:0:
88,76,64391,1,2,0:3:0:0:
106,253,64563,1,8,0:3:0:0:
249,160,64734,6,0,P|303:152|387:211,1,142.49999619484,2|2,0:3|0:2,0:0:0:0:
443,320,65249,1,10,0:3:0:0:
508,192,65420,1,0,0:3:0:0:
508,192,65506,1,2,0:2:0:0:
508,192,65591,2,0,L|493:100,1,71.2499980974198,2|2,0:3|0:3,0:0:0:0:
377,41,65934,2,0,P|321:50|260:44,1,106.87499714613,8|2,0:3|0:2,0:0:0:0:
253,44,66277,6,0,L|260:207,1,142.49999619484,6|10,0:3|0:3,0:0:0:0:
266,293,66791,1,4,0:3:0:0:
351,228,66963,1,4,0:3:0:0:
173,242,67134,1,4,0:3:0:0:
173,242,67220,1,2,0:2:0:0:
173,242,67306,1,10,0:3:0:0:
295,372,67477,6,0,L|449:358,1,142.49999619484,6|2,0:3|0:2,0:0:0:0:
506,234,67991,1,8,0:3:0:0:
418,120,68163,1,0,0:3:0:0:
418,120,68249,1,2,0:2:0:0:
418,120,68334,2,0,L|413:76,3,35.6249990487099,2|0|2|0,0:3|0:0|0:3|0:0,0:0:0:0:
393,55,68677,1,8,0:3:0:0:
362,74,68763,1,0,0:0:0:0:
328,83,68849,1,2,0:3:0:0:
292,81,68934,1,0,0:0:0:0:
258,69,69020,5,6,0:2:0:0:
150,269,69363,1,10,0:3:0:0:
370,214,69706,1,0,0:3:0:0:
264,170,69877,1,2,0:2:0:0:
279,282,70049,1,10,0:3:0:0:
449,263,70220,6,0,P|461:202|413:131,1,142.49999619484,6|2,0:3|0:2,0:0:0:0:
324,75,70734,1,10,0:3:0:0:
264,170,70906,2,0,P|191:166|102:159,1,142.49999619484,2|2,0:3|0:2,0:0:0:0:
8,143,71420,1,10,0:3:0:0:
43,273,71591,5,2,0:3:0:0:
43,273,71677,1,2,0:2:0:0:
43,273,71763,1,6,0:3:0:0:
157,76,72106,1,10,0:3:0:0:
272,272,72449,1,2,0:2:0:0:
184,345,72620,1,2,0:3:0:0:
164,233,72791,1,8,0:3:0:0:
274,363,72963,6,0,L|447:340,1,142.49999619484,6|2,0:3|0:2,0:0:0:0:
503,250,73477,1,10,0:3:0:0:
503,250,73563,1,2,0:2:0:0:
503,250,73649,1,4,0:3:0:0:
425,147,73820,1,4,0:3:0:0:
307,197,73991,1,2,0:3:0:0:
289,209,74077,1,0,0:3:0:0:
270,218,74163,1,12,0:3:0:0:
249,222,74249,1,2,0:2:0:0:
227,221,74334,1,2,0:3:0:0:
206,215,74420,1,2,0:2:0:0:
187,203,74506,5,6,0:3:0:0:
337,31,74849,1,10,0:3:0:0:
410,247,75191,1,2,0:3:0:0:
187,203,75534,1,10,0:3:0:0:
296,134,75706,6,0,L|381:128,1,71.2499980974198,6|0,0:3|0:3,0:0:0:0:
268,232,76049,2,0,L|332:287,1,71.2499980974198,2|8,0:3|0:3,0:0:0:0:
178,283,76391,2,0,L|183:368,1,71.2499980974198,2|4,0:3|0:3,0:0:0:0:
182,354,76649,1,0,0:0:0:0:
182,354,76734,1,2,0:3:0:0:
54,371,76906,1,10,0:3:0:0:
47,243,77077,1,6,0:3:0:0:
47,243,77163,1,8,0:3:0:0:
47,243,77249,6,0,P|63:174|129:127,1,142.49999619484,6|10,0:3|0:3,0:0:0:0:
343,63,77934,1,2,0:2:0:0:
326,175,78106,1,2,0:3:0:0:
432,133,78277,1,8,0:3:0:0:
255,114,78449,6,0,P|234:168|276:255,1,142.49999619484,6|2,0:3|0:2,0:0:0:0:
388,325,78963,1,8,0:3:0:0:
326,175,79134,1,0,0:3:0:0:
326,175,79220,1,0,0:0:0:0:
326,175,79306,2,0,L|420:168,1,71.2499980974198,0|2,0:3|0:3,0:0:0:0:
388,325,79649,2,0,L|294:332,1,71.2499980974198,10|2,0:3|0:3,0:0:0:0:
98,310,79991,6,0,P|89:273|99:222,1,71.2499980974198,6|0,0:2|0:2,0:0:0:0:
242,113,80334,2,0,B|271:147|271:147|263:250,1,142.49999619484,10|0,0:3|0:3,0:0:0:0:
256,358,80849,1,2,0:2:0:0:
358,306,81020,1,10,0:3:0:0:
180,307,81191,6,0,B|156:275|161:239|161:239|128:256|82:237,1,142.49999619484,6|2,0:3|0:3,0:0:0:0:
10,152,81706,1,8,0:3:0:0:
91,61,81877,2,0,L|184:55,1,71.2499980974198,2|2,0:3|0:2,0:0:0:0:
126,164,82220,1,0,0:3:0:0:
249,93,82391,2,0,P|256:56|247:16,1,71.2499980974198,8|2,0:3|0:3,0:0:0:0:
208,182,82734,6,0,L|377:164,2,142.49999619484,6|8|2,0:3|0:3|0:3,0:0:0:0:
115,260,83591,1,0,0:3:0:0:
182,361,83763,2,0,P|215:365|260:355,1,71.2499980974198,10|6,0:3|0:3,0:0:0:0:
361,309,84106,6,0,L|348:158,1,142.49999619484,0|8,0:3|0:3,0:0:0:0:
290,59,84620,1,4,0:3:0:0:
189,125,84791,1,2,0:3:0:0:
166,142,84877,1,0,0:3:0:0:
139,151,84963,1,2,0:2:0:0:
110,151,85049,1,0,0:3:0:0:
82,144,85134,2,0,L|27:150,3,35.6249990487099,10|0|2|0,0:3|0:3|0:3|0:3,0:0:0:0:
33,173,85477,6,0,P|14:108|42:34,2,142.49999619484,6|10|0,0:3|0:3|0:3,0:0:0:0:
113,253,86334,1,2,0:2:0:0:
226,253,86506,1,10,0:3:0:0:
306,172,86677,6,0,B|380:159|380:159|464:185,1,142.49999619484,6|2,0:3|0:3,0:0:0:0:
373,268,87191,1,8,0:3:0:0:
259,257,87363,2,0,P|213:196|233:110,1,142.49999619484,2|2,0:3|0:3,0:0:0:0:
295,48,87877,1,10,0:3:0:0:
306,172,88049,1,2,0:3:0:0:
185,40,88220,6,0,B|136:32|136:32|39:46,1,142.49999619484,6|10,0:3|0:3,0:0:0:0:
8,153,88734,1,0,0:3:0:0:
110,201,88906,2,0,P|124:236|121:288,1,71.2499980974198,4|2,0:3|0:2,0:0:0:0:
11,258,89249,1,10,0:3:0:0:
106,373,89420,6,0,P|161:369|230:281,1,142.49999619484,6|2,0:3|0:2,0:0:0:0:
285,182,89934,2,0,L|384:193,1,71.2499980974198,8|0,0:3|0:3,0:0:0:0:
498,202,90277,1,6,0:3:0:0:
450,83,90449,1,4,0:3:0:0:
421,61,90534,1,0,0:3:0:0:
386,51,90620,1,8,0:3:0:0:
350,49,90706,1,2,0:2:0:0:
315,56,90791,1,2,0:3:0:0:
285,75,90877,1,8,0:3:0:0:
259,100,90963,6,0,L|108:87,2,142.49999619484,6|8|0,0:2|0:3|0:3,0:0:0:0:
338,181,91820,1,2,0:2:0:0:
306,290,91991,1,10,0:3:0:0:
206,347,92163,6,0,B|161:334|107:355|107:355|63:329,1,142.49999619484,6|0,0:3|0:3,0:0:0:0:
10,237,92677,2,0,L|26:122,1,106.87499714613,8|2,0:3|0:2,0:0:0:0:
30,114,93020,2,0,P|68:125|109:121,1,71.2499980974198,2|0,0:3|0:3,0:0:0:0:
228,61,93363,2,0,P|190:50|149:54,1,71.2499980974198,8|0,0:3|0:3,0:0:0:0:
249,160,93706,6,0,L|347:152,1,71.2499980974198,6|0,0:3|0:0,0:0:0:0:
462,139,94049,2,0,B|484:171|484:171|477:266,1,106.87499714613,8|2,0:3|0:2,0:0:0:0:
476,256,94391,2,0,P|442:279|402:280,1,71.2499980974198,0|0,0:3|0:3,0:0:0:0:
301,255,94734,1,10,0:3:0:0:
372,148,94906,6,0,B|383:94|383:94|359:5,1,142.49999619484,6|2,0:3|0:2,0:0:0:0:
216,9,95420,2,0,P|196:42|195:84,1,71.2499980974198,8|0,0:3|0:3,0:0:0:0:
219,192,95763,1,2,0:3:0:0:
219,192,95849,1,0,0:0:0:0:
219,192,95934,1,2,0:2:0:0:
84,147,96106,1,10,0:3:0:0:
127,283,96277,5,2,0:3:0:0:
127,283,96363,1,0,0:0:0:0:
127,283,96449,2,0,P|174:314|275:308,1,142.49999619484,6|8,0:3|0:3,0:0:0:0:
376,234,96963,1,0,0:3:0:0:
376,234,97049,1,2,0:2:0:0:
376,234,97134,2,0,L|364:158,1,71.2499980974198,0|2,0:3|0:2,0:0:0:0:
273,219,97477,1,10,0:3:0:0:
362,338,97649,1,2,0:3:0:0:
461,225,97820,6,0,L|449:149,1,71.2499980974198,6|2,0:3|0:2,0:0:0:0:
357,36,98163,1,8,0:3:0:0:
236,124,98334,1,0,0:0:0:0:
236,124,98420,1,0,0:3:0:0:
236,124,98506,2,0,P|184:133|139:120,1,71.2499980974198,0|2,0:3|0:3,0:0:0:0:
68,224,98849,2,0,P|120:215|165:228,1,71.2499980974198,8|2,0:3|0:3,0:0:0:0:
266,279,99191,5,6,0:3:0:0:
111,320,99363,1,2,0:2:0:0:
262,382,99534,2,0,L|384:371,1,106.87499714613,8|2,0:3|0:2,0:0:0:0:
386,372,99877,1,2,0:3:0:0:
454,289,100049,1,2,0:2:0:0:
395,198,100220,2,0,P|387:145|387:80,1,106.87499714613,8|0,0:3|0:0,0:0:0:0:
389,74,100563,6,0,L|297:66,1,71.2499980974198,6|2,0:3|0:2,0:0:0:0:
176,58,100906,1,8,0:3:0:0:
248,181,101077,1,6,0:3:0:0:
248,181,101163,1,2,0:2:0:0:
248,181,101249,2,0,P|262:239|256:279,1,71.2499980974198,6|8,0:3|0:3,0:0:0:0:
170,360,101591,1,10,0:3:0:0:
142,366,101677,1,0,0:0:0:0:
113,367,101763,1,2,0:2:0:0:
85,360,101849,1,0,0:0:0:0:
61,343,101934,6,0,L|66:200,1,142.49999619484,6|10,0:2|0:3,0:0:0:0:
148,111,102449,1,0,0:3:0:0:
248,181,102620,2,0,P|284:187|338:168,1,71.2499980974198,0|2,0:3|0:2,0:0:0:0:
281,63,102963,1,10,0:3:0:0:
411,118,103134,6,0,P|429:176|397:259,1,142.49999619484,6|2,0:3|0:2,0:0:0:0:
278,320,103649,2,0,L|159:312,1,106.87499714613,8|2,0:3|0:2,0:0:0:0:
153,312,103991,2,0,P|142:274|144:239,1,71.2499980974198,2|2,0:3|0:2,0:0:0:0:
243,140,104334,2,0,P|254:178|252:213,1,71.2499980974198,10|0,0:3|0:3,0:0:0:0:
139,100,104677,6,0,L|144:9,1,71.2499980974198,6|0,0:3|0:0,0:0:0:0:
243,140,105020,1,8,0:3:0:0:
94,188,105191,2,0,P|53:148|47:65,1,142.49999619484,6|0,0:3|0:3,0:0:0:0:
143,26,105706,1,10,0:3:0:0:
243,140,105877,6,0,L|233:299,1,142.49999619484,6|2,0:3|0:3,0:0:0:0:
353,235,106391,1,10,0:3:0:0:
322,80,106563,2,0,P|267:44|182:61,1,142.49999619484,2|2,0:3|0:2,0:0:0:0:
67,146,107077,1,10,0:3:0:0:
160,271,107249,5,2,0:3:0:0:
160,271,107334,1,2,0:2:0:0:
160,271,107420,2,0,L|156:367,1,71.2499980974198,6|2,0:3|0:2,0:0:0:0:
271,255,107763,2,0,L|275:159,1,71.2499980974198,8|0,0:3|0:3,0:0:0:0:
161,169,108106,1,2,0:3:0:0:
236,338,108277,2,0,P|269:346|320:332,1,71.2499980974198,2|8,0:3|0:3,0:0:0:0:
452,226,108620,6,0,B|462:126|462:126|430:75,1,142.49999619484,6|2,0:3|0:2,0:0:0:0:
325,4,109134,1,8,0:3:0:0:
202,76,109306,1,2,0:3:0:0:
202,76,109391,1,2,0:2:0:0:
202,76,109477,2,0,L|101:73,1,71.2499980974198,0|0,0:3|0:3,0:0:0:0:
5,143,109820,1,10,0:3:0:0:
122,222,109991,5,2,0:3:0:0:
122,222,110077,1,2,0:2:0:0:
122,222,110163,2,0,P|135:260|131:318,1,71.2499980974198,6|0,0:3|0:3,0:0:0:0:
263,354,110506,2,0,B|296:338|296:338|384:341,1,106.87499714613,8|2,0:3|0:2,0:0:0:0:
383,343,110849,1,2,0:3:0:0:
467,255,111020,2,0,P|475:219|466:181,1,71.2499980974198,2|8,0:3|0:3,0:0:0:0:
276,226,111363,6,0,B|335:253|386:219|386:219|353:191,1,142.49999619484,6|2,0:3|0:2,0:0:0:0:
255,110,111877,1,8,0:3:0:0:
139,192,112049,2,0,L|148:278,1,71.2499980974198,2|0,0:3|0:3,0:0:0:0:
249,362,112391,1,6,0:3:0:0:
365,278,112563,1,8,0:3:0:0:
391,267,112649,1,0,0:3:0:0:
419,263,112734,1,6,0:3:0:0:
447,267,112820,1,2,0:2:0:0:
473,278,112906,6,0,L|462:127,1,142.49999619484,6|8,0:3|0:3,0:0:0:0:
347,50,113420,1,0,0:3:0:0:
347,50,113506,1,2,0:2:0:0:
347,50,113591,2,0,P|287:80|195:58,1,142.49999619484,2|10,0:3|0:3,0:0:0:0:
70,28,114106,6,0,L|-5:36,1,71.2499980974198,6|0,0:3|0:3,0:0:0:0:
86,139,114449,1,2,0:3:0:0:
222,140,114620,2,0,L|214:69,1,71.2499980974198,8|0,0:3|0:3,0:0:0:0:
86,139,114963,1,2,0:3:0:0:
175,249,115134,1,6,0:3:0:0:
206,266,115220,1,0,0:3:0:0:
240,272,115306,1,10,0:3:0:0:
275,271,115391,1,0,0:3:0:0:
308,258,115477,1,6,0:3:0:0:
337,237,115563,1,2,0:2:0:0:
354,206,115649,6,0,P|424:179|504:212,2,142.49999619484,6|10|0,0:3|0:3|0:3,0:0:0:0:
424,287,116506,1,2,0:3:0:0:
350,364,116677,1,8,0:3:0:0:
258,309,116849,6,0,B|212:295|212:295|104:308,1,142.49999619484,6|2,0:3|0:2,0:0:0:0:
24,197,117363,2,0,P|15:164|22:116,1,71.2499980974198,10|0,0:3|0:3,0:0:0:0:
122,31,117706,1,2,0:3:0:0:
240,110,117877,2,0,L|330:99,1,71.2499980974198,0|10,0:3|0:3,0:0:0:0:
182,210,118220,5,0,0:3:0:0:
182,210,118306,1,0,0:0:0:0:
182,210,118391,2,0,L|92:199,1,71.2499980974198,6|2,0:3|0:2,0:0:0:0:
240,110,118734,1,8,0:3:0:0:
268,263,118906,1,2,0:3:0:0:
397,161,119077,1,2,0:2:0:0:
425,314,119249,1,2,0:2:0:0:
268,263,119420,1,10,0:3:0:0:
456,228,119591,6,0,P|478:197|485:161,1,71.2499980974198,6|0,0:3|0:3,0:0:0:0:
417,38,119934,1,2,0:2:0:0:
301,120,120106,2,0,L|208:111,1,71.2499980974198,10|0,0:3|0:3,0:0:0:0:
88,95,120449,1,2,0:3:0:0:
172,8,120620,1,0,0:3:0:0:
154,184,120791,2,0,L|163:269,1,71.2499980974198,10|0,0:3|0:3,0:0:0:0:
230,113,121134,5,4,0:3:0:0:
58,182,121306,1,8,0:3:0:0:
58,182,121477,1,8,0:3:0:0:
161,254,121649,5,12,0:3:0:0:
48,306,121820,1,8,0:3:0:0:
48,306,121991,1,0,0:3:0:0:
58,182,122163,2,0,L|51:91,1,84.3750032186509,12|0,0:3|0:3,0:0:0:0:
77,83,122506,6,0,L|72:31,2,37.5000014305115,4|0|0,0:3|0:3|0:3,0:0:0:0:
159,116,122849,2,0,L|153:169,2,37.5000014305115,12|0|0,0:3|0:3|0:3,0:0:0:0:
234,80,123173,2,0,L|228:26,2,37.5000014305115,4|0|0,0:3|0:3|0:3,0:0:0:0:
301,121,123497,2,0,L|296:169,2,37.5000014305115,12|0|8,0:3|0:3|0:3,0:0:0:0:
210,107,125250,5,4,0:3:0:0:
294,211,125421,2,0,L|448:189,2,127.50000243187,8|4|4,0:3|0:3|0:3,0:0:0:0:
211,260,126279,1,8,0:3:0:0:
215,355,126450,1,4,0:3:0:0:
294,211,126621,6,0,P|216:163|122:296,1,288.750008811951,4|0,0:1|0:0,0:0:0:0:
212,259,127993,6,0,B|217:205|217:205|200:167|200:167|222:131|222:131|217:66|217:66|255:109|308:101,1,288.750008811951,2|0,0:0|0:0,0:0:0:0:
295,2,129364,6,0,B|320:180|320:180|386:126,1,247.500007553101,2|0,0:0|0:0,0:0:0:0:
463,98,130564,6,0,P|429:96|482:238,1,288.750008811951,2|0,0:0|0:0,0:0:0:0:
493,341,131936,6,0,B|442:333|391:357|391:357|339:359|290:324|290:324|256:356|205:356,1,288.750008811951,2|0,0:0|0:0,0:0:0:0:
218,256,133307,6,0,B|273:217|336:234|369:261|369:261|329:194|349:136|349:136|301:153,1,330.000010070801,2|0,0:0|0:0,0:0:0:0:
216,164,134850,6,0,P|191:140|189:54,1,123.75000377655,2|0,0:0|0:0,0:0:0:0:
85,25,135536,2,0,P|88:87|48:134,1,112.500004291535,2|0,0:0|0:0,0:0:0:0:
11,221,136050,2,0,L|36:353,1,112.500004291535,2|0,0:0|0:0,0:0:0:0:
131,372,136564,2,0,L|142:305,1,56.2500021457673,2|0,0:0|0:0,0:0:0:0:
174,239,136907,5,0,0:0:0:0:
252,208,137079,1,0,0:0:0:0:
334,226,137250,1,0,0:0:0:0:
382,295,137421,1,0,0:0:0:0:
288,327,137593,6,0,P|295:247|472:249,1,288.750008811951,6|0,0:0|0:0,0:0:0:0:
382,295,138964,6,0,B|369:244|369:244|391:183|391:183|354:154|342:100|358:58|398:25,1,288.750008811951,2|0,0:0|0:0,0:0:0:0:
454,107,140336,6,0,B|399:145|337:130|337:130|288:101|221:121|221:121|239:101|244:81,1,288.750008811951,2|0,0:0|0:0,0:0:0:0:
149,50,141707,6,0,B|105:64|42:40|42:40|80:87|60:130|60:130|96:157|91:211,1,288.750008811951,2|2,0:0|0:0,0:0:0:0:
65,294,143079,5,4,0:0:0:0:
256,192,143164,12,0,147021,0:0:0:0:
196,170,147193,5,14,0:3:0:0:
271,291,147364,1,4,0:3:0:0:
302,306,147450,1,0,0:3:0:0:
336,314,147536,1,8,0:3:0:0:
371,312,147621,1,0,0:3:0:0:
405,304,147707,1,4,0:3:0:0:
433,281,147793,1,0,0:3:0:0:
453,251,147879,6,0,L|448:201,3,35.6249990487099,2|0|6|0,0:3|0:3|0:3|0:3,0:0:0:0:
438,130,148221,1,10,0:3:0:0:
404,140,148307,1,2,0:2:0:0:
368,135,148393,1,2,0:3:0:0:
338,114,148479,1,2,0:2:0:0:
314,79,148564,6,0,P|294:124|165:152,1,165.000005035401,4|8,0:1|0:3,0:0:0:0:
27,137,149079,2,0,L|23:237,1,82.5000025177003,2|0,0:3|0:3,0:0:0:0:
19,360,149421,1,2,0:2:0:0:
170,295,149593,2,0,P|208:284|272:308,1,82.5000025177003,10|0,0:3|0:3,0:0:0:0:
400,359,149936,6,0,B|427:316|427:316|399:168,1,165.000005035401,6|8,0:3|0:3,0:0:0:0:
288,87,150450,2,0,P|236:79|199:86,1,82.5000025177003,2|0,0:3|0:0,0:0:0:0:
241,211,150793,1,2,0:2:0:0:
414,115,150964,2,0,B|421:73|421:73|404:19,1,82.5000025177003,10|2,0:3|0:3,0:0:0:0:
331,225,151307,6,0,L|495:208,1,165.000005035401,6|8,0:2|0:3,0:0:0:0:
331,122,151821,2,0,L|419:113,1,82.5000025177003,2|0,0:3|0:3,0:0:0:0:
331,225,152164,1,2,0:2:0:0:
249,72,152336,1,10,0:3:0:0:
137,203,152507,6,0,B|152:252|152:252|138:373,1,165.000005035401,6|2,0:3|0:2,0:0:0:0:
28,264,153021,1,10,0:3:0:0:
91,112,153193,1,0,0:3:0:0:
91,112,153279,1,2,0:2:0:0:
91,112,153364,2,0,P|131:102|178:109,1,82.5000025177003,0|2,0:3|0:3,0:0:0:0:
276,233,153707,1,10,0:3:0:0:
313,249,153793,1,0,0:0:0:0:
354,251,153879,1,2,0:3:0:0:
393,239,153964,1,2,0:2:0:0:
419,208,154050,6,0,L|407:35,1,165.000005035401,6|8,0:2|0:3,0:0:0:0:
251,18,154564,1,2,0:3:0:0:
251,18,154650,1,2,0:2:0:0:
251,18,154736,2,0,P|207:38|166:41,1,82.5000025177003,0|0,0:3|0:3,0:0:0:0:
18,16,155079,1,10,0:3:0:0:
77,186,155250,6,0,B|126:176|126:176|193:196|193:196|253:185,1,165.000005035401,6|2,0:3|0:2,0:0:0:0:
401,158,155764,1,10,0:3:0:0:
309,294,155936,2,0,P|256:334|157:326,1,165.000005035401,2|2,0:3|0:2,0:0:0:0:
77,186,156450,1,10,0:3:0:0:
15,293,156621,1,2,0:3:0:0:
214,215,156793,6,0,L|204:103,1,82.5000025177003,6|0,0:2|0:2,0:0:0:0:
309,294,157136,2,0,L|319:406,1,82.5000025177003,8|0,0:3|0:3,0:0:0:0:
394,202,157479,2,0,L|384:90,1,82.5000025177003,2|2,0:3|0:2,0:0:0:0:
309,294,157821,1,10,0:3:0:0:
485,173,157993,6,0,P|499:118|424:14,1,165.000005035401,6|2,0:3|0:2,0:0:0:0:
304,129,158507,2,0,L|391:119,1,82.5000025177003,10|0,0:3|0:3,0:0:0:0:
229,65,158850,1,2,0:3:0:0:
278,222,159021,1,2,0:2:0:0:
143,127,159193,1,10,0:3:0:0:
192,284,159364,1,2,0:3:0:0:
229,65,159536,6,0,P|184:29|64:57,1,165.000005035401,6|8,0:2|0:3,0:0:0:0:
226,189,160050,2,0,L|338:176,1,82.5000025177003,2|0,0:3|0:3,0:0:0:0:
473,167,160393,1,2,0:3:0:0:
346,276,160564,1,8,0:3:0:0:
387,113,160736,1,2,0:3:0:0:
450,268,160907,6,0,P|426:347|323:376,1,165.000005035401,6|8,0:3|0:3,0:0:0:0:
207,304,161421,1,2,0:3:0:0:
207,304,161507,1,2,0:2:0:0:
207,304,161593,2,0,L|214:195,1,82.5000025177003,0|2,0:3|0:2,0:0:0:0:
92,107,161936,2,0,L|85:216,1,82.5000025177003,10|2,0:3|0:3,0:0:0:0:
164,43,162279,5,6,0:2:0:0:
4,82,162450,1,0,0:2:0:0:
182,148,162621,1,8,0:3:0:0:
6,192,162793,2,0,P|24:240|148:242,1,165.000005035401,2|2,0:3|0:2,0:0:0:0:
249,83,163307,1,10,0:3:0:0:
86,189,163479,1,2,0:3:0:0:
297,224,163650,6,0,L|473:210,2,165.000005035401,4|8|2,0:2|0:3|0:3,0:0:0:0:
206,342,164507,1,2,0:3:0:0:
206,342,164679,1,8,0:3:0:0:
48,252,164850,6,0,B|31:145|31:145|71:77,1,165.000005035401,6|2,0:2|0:2,0:0:0:0:
212,29,165364,2,0,P|227:68|223:118,1,82.5000025177003,8|2,0:3|0:2,0:0:0:0:
133,244,165707,1,2,0:3:0:0:
59,96,165879,1,2,0:3:0:0:
225,108,166050,1,8,0:3:0:0:
41,204,166221,6,0,P|34:248|110:342,1,165.000005035401,6|4,0:2|0:3,0:0:0:0:
121,345,166650,1,2,0:2:0:0:
141,347,166736,1,8,0:3:0:0:
264,281,166907,1,6,0:3:0:0:
264,281,166993,1,2,0:2:0:0:
264,281,167079,2,0,L|256:221,3,41.2500012588501,4|0|4|2,0:3|0:3|0:3|0:2,0:0:0:0:
247,158,167421,1,10,0:3:0:0:
275,128,167507,1,2,0:2:0:0:
315,117,167593,1,6,0:3:0:0:
355,126,167679,1,6,0:3:0:0:
386,153,167764,6,0,B|507:142|507:142|460:101,1,165.000005035401,6|8,0:2|0:3,0:0:0:0:
345,22,168279,1,2,0:3:0:0:
345,22,168364,1,0,0:0:0:0:
345,22,168450,2,0,P|299:17|244:27,1,82.5000025177003,0|2,0:3|0:3,0:0:0:0:
159,150,168793,2,0,L|170:279,1,123.75000377655,8|0,0:3|2:0,0:0:0:0:
166,356,169136,6,0,P|91:372|9:336,2,165.000005035401,6|8|2,0:2|0:3|0:3,0:0:0:0:
271,275,169993,1,0,0:3:0:0:
159,150,170164,2,0,L|64:155,1,82.5000025177003,10|0,0:3|0:3,0:0:0:0:
206,40,170507,5,4,0:3:0:0:
206,40,170593,1,0,0:3:0:0:
206,40,170679,1,8,0:3:0:0:
297,158,170850,1,10,0:3:0:0:
357,21,171021,5,4,0:3:0:0:
357,21,171107,1,0,0:3:0:0:
357,21,171193,1,8,0:3:0:0:
448,139,171364,1,2,0:3:0:0:
297,158,171536,5,14,0:3:0:0:
277,190,171621,1,0,0:3:0:0:
270,226,171707,1,6,0:3:0:0:
277,262,171793,1,2,0:2:0:0:
298,297,171879,6,0,P|258:282|134:299,1,165.000005035401,6|8,0:2|0:3,0:0:0:0:
28,368,172393,1,0,0:3:0:0:
0,213,172564,2,0,L|7:122,1,82.5000025177003,2|2,0:3|0:2,0:0:0:0:
139,48,172907,1,10,0:3:0:0:
262,145,173079,6,0,B|310:156|310:156|436:128,1,165.000005035401,6|2,0:3|0:2,0:0:0:0:
309,50,173593,1,10,0:3:0:0:
382,252,173764,1,0,0:3:0:0:
382,252,173850,1,0,0:0:0:0:
382,252,173936,1,2,0:3:0:0:
506,98,174107,2,0,P|480:61|434:42,1,82.5000025177003,2|8,0:3|0:3,0:0:0:0:
309,50,174450,1,2,0:3:0:0:
205,189,174621,6,0,L|223:368,1,165.000005035401,6|10,0:2|0:3,0:0:0:0:
304,172,175136,2,0,P|262:107|158:99,1,165.000005035401,2|2,0:3|0:3,0:0:0:0:
43,183,175650,1,8,0:3:0:0:
137,318,175821,1,2,0:3:0:0:
137,318,175907,1,2,0:2:0:0:
137,318,175993,6,0,L|308:296,1,165.000005035401,6|10,0:3|0:3,0:0:0:0:
432,170,176507,2,0,P|438:130|422:76,1,82.5000025177003,2|0,0:3|0:3,0:0:0:0:
296,136,176850,1,2,0:3:0:0:
406,270,177021,2,0,P|447:272|502:247,1,82.5000025177003,8|2,0:3|0:3,0:0:0:0:
296,136,177364,6,0,B|247:122|247:122|100:138,2,165.000005035401,6|8|2,0:2|0:3|0:2,0:0:0:0:
230,241,178221,1,2,0:3:0:0:
109,266,178393,1,8,0:3:0:0:
6,195,178564,1,2,0:3:0:0:
132,134,178736,6,0,P|138:93|130:52,1,82.5000025177003,6|2,0:3|0:2,0:0:0:0:
6,194,179079,2,0,P|0:235|8:276,1,82.5000025177003,10|0,0:3|0:3,0:0:0:0:
108,362,179421,1,2,0:2:0:0:
131,232,179593,1,2,0:3:0:0:
211,376,179764,1,8,0:3:0:0:
234,246,179936,1,2,0:3:0:0:
56,283,180107,6,0,P|41:223|115:141,1,165.000005035401,6|8,0:2|0:3,0:0:0:0:
271,200,180621,2,0,P|226:242|118:219,1,165.000005035401,2|0,0:2|0:0,0:0:0:0:
188,155,181136,1,10,0:3:0:0:
327,270,181307,6,0,B|378:293|441:256|441:256|421:299,1,165.000005035401,6|2,0:3|0:2,0:0:0:0:
238,287,181821,1,8,0:3:0:0:
371,164,181993,1,2,0:3:0:0:
336,368,182164,1,2,0:3:0:0:
255,169,182336,1,4,0:3:0:0:
223,142,182421,1,0,0:3:0:0:
183,130,182507,1,10,0:3:0:0:
141,131,182593,1,0,0:2:0:0:
102,144,182679,1,6,0:3:0:0:
71,172,182764,1,2,0:2:0:0:
44,203,182850,6,0,L|34:92,1,82.5000025177003,4|0,0:2|0:2,0:0:0:0:
215,59,183193,2,0,L|225:170,1,82.5000025177003,8|0,0:3|0:3,0:0:0:0:
244,313,183536,1,2,0:3:0:0:
342,170,183707,1,4,0:3:0:0:
342,170,183793,1,0,0:3:0:0:
342,170,183879,1,10,0:3:0:0:
162,230,184050,6,0,P|76:239|10:178,1,165.000005035401,6|2,0:3|0:2,0:0:0:0:
108,24,184564,1,10,0:3:0:0:
242,118,184736,1,0,0:3:0:0:
242,118,184821,1,2,0:2:0:0:
242,118,184907,1,2,0:3:0:0:
77,104,185079,2,0,P|38:72|22:26,1,82.5000025177003,2|8,0:3|0:3,0:0:0:0:
198,31,185421,1,2,0:3:0:0:
162,230,185593,6,0,L|346:210,1,165.000005035401,6|8,0:2|0:3,0:0:0:0:
501,101,186107,2,0,P|475:68|370:124,1,165.000005035401,2|2,0:3|0:3,0:0:0:0:
326,212,186621,1,10,0:3:0:0:
180,134,186793,5,2,0:3:0:0:
180,134,186879,1,2,0:2:0:0:
180,134,186964,2,0,L|59:128,1,82.5000025177003,6|2,0:3|0:2,0:0:0:0:
231,33,187307,1,8,0:3:0:0:
247,239,187479,2,0,L|57:229,1,165.000005035401,2|2,0:3|0:2,0:0:0:0:
180,134,187993,1,10,0:3:0:0:
335,191,188164,5,2,0:3:0:0:
335,191,188250,1,0,0:0:0:0:
335,191,188336,2,0,P|347:235|332:290,1,82.5000025177003,6|0,0:2|0:2,0:0:0:0:
193,344,188679,1,8,0:3:0:0:
82,230,188850,1,2,0:3:0:0:
82,230,188936,1,2,0:2:0:0:
82,230,189021,2,0,L|-5:240,1,82.5000025177003,0|2,0:3|0:3,0:0:0:0:
132,140,189364,1,8,0:3:0:0:
74,328,189536,1,2,0:3:0:0:
30,135,189707,6,0,P|49:79|163:41,2,165.000005035401,6|8|6,0:3|0:3|0:3,0:0:0:0:
39,309,190564,1,2,0:2:0:0:
74,328,190650,1,0,0:3:0:0:
114,336,190736,1,8,0:3:0:0:
155,335,190821,1,2,0:2:0:0:
193,321,190907,1,6,0:3:0:0:
225,295,190993,1,2,0:2:0:0:
251,262,191079,6,0,P|291:272|349:260,1,82.5000025177003,6|0,0:2|0:2,0:0:0:0:
442,113,191421,1,12,0:3:0:0:
442,302,191593,1,8,0:3:0:0:
331,149,191764,1,6,0:3:0:0:
511,207,191936,1,10,0:3:0:0:
331,267,192107,1,12,0:3:0:0:
442,113,192279,1,8,0:3:0:0:
331,267,192450,6,0,L|242:262,1,82.5000025177003,4|0,0:3|0:3,0:0:0:0:
41,245,192793,1,14,0:3:0:0:
197,382,192964,1,0,0:3:0:0:
150,175,193136,1,6,0:3:0:0:
68,372,193307,1,0,0:3:0:0:
248,262,193479,1,14,0:3:0:0:
41,245,193650,1,0,0:3:0:0:
263,153,193821,6,0,B|266:112|266:112|259:65,1,82.5000025177003,6|0,0:2|0:2,0:0:0:0:
142,72,194164,1,8,0:3:0:0:
248,262,194336,2,0,P|291:260|339:233,1,82.5000025177003,6|0,0:2|0:2,0:0:0:0:
263,153,194679,1,0,0:3:0:0:
422,272,194850,2,0,P|425:232|404:181,1,82.5000025177003,6|0,0:2|0:2,0:0:0:0:
259,71,195193,5,6,0:2:0:0:
326,243,195364,1,8,0:3:0:0:
356,71,195536,1,12,0:3:0:0:
184,138,195707,1,6,0:2:0:0:
326,243,195879,5,4,0:3:0:0:
364,257,195964,1,0,0:3:0:0:
405,258,196050,1,8,0:3:0:0:
444,245,196136,1,0,0:3:0:0:
477,221,196221,1,6,0:2:0:0:
499,186,196307,1,2,0:2:0:0:
509,146,196393,1,2,0:3:0:0:
505,106,196479,1,2,0:2:0:0:
488,68,196564,6,0,B|452:81|452:81|352:73,1,106.87499714613,6|0,0:2|0:0,0:0:0:0:
366,73,196907,2,0,P|342:112|337:141,1,71.2499980974198,8|2,0:3|0:2,0:0:0:0:
338,279,197250,1,2,0:3:0:0:
258,160,197421,1,0,0:3:0:0:
392,206,197593,1,10,0:3:0:0:
236,260,197764,6,0,B|137:270|137:270|93:239,1,142.49999619484,6|2,0:3|0:2,0:0:0:0:
8,136,198279,1,8,0:3:0:0:
119,47,198450,1,0,0:3:0:0:
119,47,198536,1,2,0:2:0:0:
119,47,198621,2,0,P|155:40|199:45,1,71.2499980974198,2|2,0:3|0:2,0:0:0:0:
258,160,198964,2,0,P|222:167|178:162,1,71.2499980974198,10|0,0:3|0:3,0:0:0:0:
337,82,199307,6,0,L|349:246,1,142.49999619484,6|8,0:3|0:3,0:0:0:0:
360,360,199821,1,0,0:3:0:0:
262,266,199993,1,2,0:3:0:0:
262,266,200164,1,2,0:2:0:0:
439,260,200336,1,10,0:3:0:0:
270,352,200507,6,0,P|211:336|178:253,1,142.49999619484,6|2,0:3|0:2,0:0:0:0:
212,112,201021,1,8,0:3:0:0:
83,172,201193,1,0,0:3:0:0:
83,172,201279,1,2,0:2:0:0:
83,172,201364,2,0,L|10:167,1,71.2499980974198,2|2,0:3|0:2,0:0:0:0:
116,70,201707,1,10,0:3:0:0:
240,207,201879,5,0,0:3:0:0:
240,207,201964,1,0,0:3:0:0:
240,207,202050,2,0,P|291:214|360:176,1,106.87499714613,6|0,0:3|0:0,0:0:0:0:
355,183,202393,2,0,L|453:187,1,71.2499980974198,8|0,0:3|0:3,0:0:0:0:
496,61,202736,2,0,L|398:57,1,71.2499980974198,2|2,0:3|0:2,0:0:0:0:
281,55,203079,1,10,0:3:0:0:
240,207,203250,6,0,P|268:263|347:301,1,142.49999619484,6|2,0:3|0:2,0:0:0:0:
355,183,203764,1,8,0:3:0:0:
228,117,203936,1,0,0:3:0:0:
228,117,204021,1,2,0:2:0:0:
228,117,204107,2,0,L|138:122,1,71.2499980974198,2|2,0:3|0:2,0:0:0:0:
14,134,204450,1,10,0:3:0:0:
109,28,204621,1,0,0:3:0:0:
87,197,204793,6,0,P|130:221|229:195,1,142.49999619484,6|8,0:3|0:3,0:0:0:0:
311,116,205307,1,0,0:3:0:0:
385,220,205479,2,0,L|383:302,1,71.2499980974198,2|2,0:3|0:2,0:0:0:0:
480,167,205821,1,10,0:3:0:0:
301,236,205993,6,0,P|284:291|325:371,1,142.49999619484,6|2,0:3|0:2,0:0:0:0:
474,354,206507,1,12,0:3:0:0:
491,322,206593,1,0,0:3:0:0:
491,286,206679,1,2,0:2:0:0:
481,251,206764,1,0,0:3:0:0:
465,219,206850,2,0,L|461:177,3,35.6249990487099,6|0|2|0,0:3|0:3|0:2|0:3,0:0:0:0:
402,137,207193,2,0,L|398:95,3,35.6249990487099,14|2|4|2,0:3|0:2|0:3|0:2,0:0:0:0:
334,62,207536,6,0,P|287:88|189:81,1,142.49999619484,6|8,0:3|0:3,0:0:0:0:
83,30,208050,1,0,0:3:0:0:
17,140,208221,2,0,L|23:232,1,71.2499980974198,2|2,0:3|0:2,0:0:0:0:
30,339,208564,1,10,0:3:0:0:
154,244,208736,6,0,B|204:231|204:231|312:239,1,142.49999619484,6|2,0:3|0:2,0:0:0:0:
436,251,209250,1,8,0:3:0:0:
487,117,209421,1,0,0:3:0:0:
487,117,209507,1,2,0:2:0:0:
487,117,209593,2,0,P|493:75|485:32,1,71.2499980974198,2|2,0:3|0:2,0:0:0:0:
346,46,209936,2,0,P|340:88|348:131,1,71.2499980974198,10|0,0:3|0:3,0:0:0:0:
436,251,210279,6,0,L|428:333,1,71.2499980974198,6|2,0:3|0:2,0:0:0:0:
289,351,210621,2,0,L|281:269,1,71.2499980974198,8|0,0:3|0:3,0:0:0:0:
267,137,210964,1,2,0:3:0:0:
267,137,211136,1,2,0:2:0:0:
359,244,211307,1,10,0:3:0:0:
205,209,211479,6,0,B|160:196|160:196|56:211,1,142.49999619484,6|2,0:3|0:2,0:0:0:0:
150,315,211993,1,8,0:3:0:0:
281,258,212164,1,0,0:3:0:0:
281,258,212250,1,2,0:2:0:0:
281,258,212336,2,0,P|293:224|289:181,1,71.2499980974198,2|2,0:3|0:2,0:0:0:0:
218,66,212679,1,10,0:3:0:0:
380,86,212850,5,0,0:3:0:0:
380,86,212936,1,2,0:2:0:0:
380,86,213021,2,0,L|478:78,1,71.2499980974198,6|2,0:3|0:2,0:0:0:0:
490,217,213364,2,0,L|392:225,1,71.2499980974198,8|0,0:3|0:3,0:0:0:0:
281,258,213707,1,2,0:3:0:0:
381,359,213879,1,2,0:2:0:0:
419,223,214050,1,10,0:3:0:0:
290,347,214221,6,0,P|225:328|193:245,1,142.49999619484,6|2,0:3|0:2,0:0:0:0:
206,108,214736,1,8,0:3:0:0:
94,196,214907,1,0,0:3:0:0:
94,196,214993,1,2,0:2:0:0:
94,196,215079,2,0,P|54:190|20:189,1,71.2499980974198,2|2,0:3|0:2,0:0:0:0:
192,265,215421,2,0,P|232:259|266:258,1,71.2499980974198,10|0,0:3|0:3,0:0:0:0:
433,308,215764,5,6,0:3:0:0:
282,343,215936,1,2,0:2:0:0:
412,221,216107,1,8,0:3:0:0:
262,257,216279,1,2,0:2:0:0:
367,369,216450,1,2,0:3:0:0:
327,194,216621,1,2,0:2:0:0:
433,308,216793,1,10,0:3:0:0:
406,131,216964,6,0,P|354:97|256:121,1,142.49999619484,6|0,0:3|0:3,0:0:0:0:
163,203,217479,2,0,L|82:194,1,71.2499980974198,8|2,0:3|0:2,0:0:0:0:
192,83,217821,1,2,0:3:0:0:
280,236,217993,1,2,0:2:0:0:
280,236,218079,1,0,0:0:0:0:
280,236,218164,2,0,P|293:270|288:318,1,71.2499980974198,10|2,0:3|0:3,0:0:0:0:
100,370,218507,5,6,0:3:0:0:
202,293,218679,1,0,0:0:0:0:
202,293,218764,1,0,0:0:0:0:
202,293,218850,1,0,0:0:0:0:
46,240,219021,2,0,L|49:162,1,71.2499980974198,6|0,0:3|0:3,0:0:0:0:
156,45,219364,2,0,L|159:123,1,71.2499980974198,6|0,0:3|0:3,0:0:0:0:
202,293,219707,5,14,0:3:0:0:
256,192,219793,12,0,222621,0:0:0:0:
