osu file format v14

[General]
AudioFilename: audio.mp3
AudioLeadIn: 0
PreviewTime: 126107
Countdown: 1
SampleSet: Soft
StackLeniency: 0.7
Mode: 0
LetterboxInBreaks: 0
WidescreenStoryboard: 1

[Editor]
DistanceSpacing: 1.2
BeatDivisor: 4
GridSize: 4
TimelineZoom: 0.6999998

[Metadata]
Title:You Say Run
TitleUnicode:You Say Run
Artist:Yuki Hayashi
ArtistUnicode:林 ゆうき
Creator:Zare
Version:Easy
Source:僕のヒーローアカデミア
Tags:BNHA MHA Boku No Hero Academia My Academy Anime OST Official Soundtrack Instrumental Orchestral Symphonic Rock Akitoshi
BeatmapID:1252036
BeatmapSetID:487907

[Difficulty]
HPDrainRate:3
CircleSize:2.5
OverallDifficulty:3
ApproachRate:3.5
SliderMultiplier:0.55
SliderTickRate:1

[Events]
//Background and Video events
0,0,"BNHA.jpg",0,0
//Break Periods
2,126821,145813
//Storyboard Layer 0 (Background)
//Storyboard Layer 1 (Fail)
//Storyboard Layer 2 (Pass)
//Storyboard Layer 3 (Foreground)
//Storyboard Sound Samples

[TimingPoints]
449,342.857142857143,4,2,0,40,1,0
22391,-80,4,3,0,50,0,0
23763,-80,4,1,0,50,0,0
121134,-80,4,1,0,40,0,0
122849,324.324324324324,4,1,0,40,1,0
123497,342.857142857143,4,1,0,40,1,0
123879,342.857142857143,4,1,0,40,1,0
125250,-80,4,1,0,50,0,0
126621,-80,4,1,1,50,0,0
143079,-80,4,1,0,5,0,0
147193,-80,4,1,0,50,0,0
148564,-80,4,1,1,60,0,1
148736,-80,4,1,0,60,0,1
159536,-80,4,1,0,60,0,1
170507,-80,4,1,0,60,0,0
171879,-80,4,1,0,60,0,1
196564,-80,4,1,0,50,0,0
219707,-80,4,1,0,60,0,0
219793,-80,4,2,0,5,0,0

[Colours]
Combo1 : 255,46,9
Combo2 : 98,167,95
Combo3 : 154,154,152
Combo4 : 30,131,232

[HitObjects]
426,64,449,6,0,P|404:115|407:169,1,110,2|2,0:3|0:0,0:0:0:0:
370,242,1477,2,0,B|317:247|280:224|280:224|248:249|248:249|210:232|163:248,1,220,2|0,0:3|0:0,0:0:0:0:
87,218,3191,6,0,P|109:168|103:114,1,110,2|2,0:3|0:0,0:0:0:0:
49,51,4220,2,0,P|126:35|182:91,1,165,2|2,0:3|0:0,0:0:0:0:
237,152,5591,1,0,0:0:0:0:
316,175,5934,6,0,L|304:284,1,110,2|2,0:3|0:0,0:0:0:0:
250,347,6963,2,0,B|182:305|182:305|127:327|127:327|59:283,1,220,2|0,0:3|0:0,0:0:0:0:
100,211,8677,6,0,L|71:48,1,165,2|2,0:3|0:3,0:0:0:0:
181,146,10734,2,0,L|181:201,1,55,0|2,0:0|0:0,0:0:0:0:
151,276,11420,6,0,P|230:265|261:193,1,165,2|0,0:3|0:0,0:0:0:0:
328,147,12791,2,0,B|303:69|303:69|230:28,1,165,2|0,0:3|0:0,0:0:0:0:
193,103,14163,6,0,L|25:89,2,165,2|2|2,0:3|0:3|0:3,0:0:0:0:
275,112,16563,1,2,0:0:0:0:
332,171,16906,6,0,B|349:250|349:250|319:328,2,165,2|2|0,0:3|0:3|0:0,0:0:0:0:
275,110,19306,1,2,0:0:0:0:
194,131,19649,6,0,P|141:139|103:178,1,110,2|0,0:3|0:0,0:0:0:0:
178,213,20677,2,0,P|232:216|286:205,2,110,2|0|2,0:2|0:0|0:0,0:0:0:0:
101,181,22391,6,0,L|85:251,1,68.75,6|8,0:3|0:3,0:0:0:0:
129,318,23077,2,0,L|204:312,1,68.75,6|10,0:3|0:3,0:0:0:0:
247,246,23763,5,6,0:2:0:0:
281,320,24106,2,0,P|363:331|413:266,2,171.875,8|6|2,0:3|0:3|0:3,0:0:0:0:
382,189,26506,5,6,0:3:0:0:
363,109,26849,2,0,B|280:91|280:91|194:105,2,171.875,8|6|2,0:3|0:3|0:3,0:0:0:0:
331,271,29249,6,0,L|260:281,1,68.75,6|8,0:3|0:3,0:0:0:0:
190,236,29934,2,0,P|139:229|88:239,2,103.125,2|6|8,0:3|0:3|0:3,0:0:0:0:
264,201,31306,2,0,P|287:225|319:238,1,68.75,2|8,0:3|0:3,0:0:0:0:
335,157,31991,6,0,L|342:87,1,68.75,6|8,0:3|0:3,0:0:0:0:
281,31,32677,2,0,P|229:28|178:38,2,103.125,2|6|8,0:3|0:3|0:3,0:0:0:0:
267,112,34049,2,0,L|275:195,1,68.75,2|8,0:3|0:3,0:0:0:0:
206,228,34734,5,6,0:2:0:0:
370,215,35420,2,0,B|423:220|423:220|472:207,2,103.125,2|6|8,0:3|0:3|0:3,0:0:0:0:
307,161,36791,1,2,0:3:0:0:
242,212,37134,1,8,0:3:0:0:
227,130,37477,6,0,L|209:63,1,68.75,6|8,0:3|0:3,0:0:0:0:
128,82,38163,2,0,L|97:180,2,103.125,2|6|8,0:3|0:3|0:3,0:0:0:0:
190,28,39534,2,0,P|224:37|254:54,1,68.75,4|2,0:3|0:3,0:0:0:0:
260,136,40220,6,0,B|240:202|240:202|256:267|256:267|199:258|153:282,2,240.625,6|6|8,0:3|0:3|0:3,0:0:0:0:
248,54,42963,6,0,L|326:22,1,68.75,2|8,0:3|0:3,0:0:0:0:
369,86,43649,2,0,P|388:133|390:184,2,103.125,2|6|8,0:3|0:3|0:3,0:0:0:0:
287,97,45020,1,2,0:3:0:0:
210,65,45363,1,6,0:3:0:0:
219,146,45706,6,0,L|235:260,2,103.125,0|2|8,0:3|0:3|0:3,0:0:0:0:
137,155,47077,6,0,P|61:80|173:86,1,275,6|6,0:2|0:3,0:0:0:0:
248,107,48791,2,0,L|323:98,2,68.75,8|2|10,0:3|0:3|0:3,0:0:0:0:
229,187,49820,5,4,0:3:0:0:
260,263,50163,2,0,P|344:273|426:249,2,171.875,8|6|2,0:3|0:3|0:3,0:0:0:0:
213,104,52563,6,0,L|124:112,1,68.75,6|8,0:3|0:3,0:0:0:0:
87,171,53249,2,0,P|87:223|74:273,2,103.125,0|6|10,0:3|0:3|0:3,0:0:0:0:
146,113,54620,2,0,L|218:117,1,68.75,2|8,0:3|0:3,0:0:0:0:
270,177,55306,6,0,L|359:174,1,68.75,4|8,0:3|0:3,0:0:0:0:
418,151,55991,2,0,L|440:49,1,103.125,2|6,0:3|0:3,0:0:0:0:
359,32,56849,1,2,0:2:0:0:
296,86,57191,2,0,P|293:130|321:199,1,103.125,2|10,0:3|0:3,0:0:0:0:
335,264,58049,6,0,L|481:243,1,137.5,6|2,0:2|0:3,0:0:0:0:
491,164,59077,1,10,0:3:0:0:
474,81,59420,2,0,P|440:82|407:90,1,68.75,6|8,0:3|0:3,0:3:0:0:
325,76,60106,2,0,L|222:48,2,103.125,0|2|8,0:3|0:3|0:3,0:0:0:0:
365,148,61477,6,0,L|483:147,2,103.125,2|6|8,0:3|0:3|0:3,0:0:0:0:
313,212,62849,2,0,P|306:245|304:279,2,68.75,2|10|6,0:3|0:3|0:3,0:3:0:0:
231,198,63877,2,0,L|224:129,1,68.75,8|0,0:3|0:3,0:0:0:0:
186,56,64563,1,0,0:0:0:0:
261,21,64906,6,0,P|333:12|401:39,1,137.5,0|2,0:3|0:3,0:0:0:0:
432,106,65934,1,8,0:3:0:0:
350,104,66277,2,0,L|354:172,1,68.75,6|10,0:3|0:3,0:0:0:0:
304,238,66963,2,0,P|260:265|209:265,2,103.125,4|4|8,0:3|0:3|0:3,0:0:0:0:
467,218,68677,1,8,0:3:0:0:
446,137,69020,6,0,L|468:26,1,103.125,6|0,0:2|0:0,0:0:0:0:
385,17,69877,1,2,0:2:0:0:
345,89,70220,2,0,P|311:96|277:94,1,68.75,6|2,0:3|0:2,0:0:0:0:
212,42,70906,2,0,P|193:90|204:139,1,103.125,2|10,0:3|0:3,0:0:0:0:
228,219,71763,6,0,P|228:302|81:333,2,240.625,6|6|12,0:3|0:3|0:3,0:0:0:0:
157,177,74506,6,0,P|167:144|168:110,1,68.75,6|10,0:3|0:3,0:0:0:0:
240,68,75191,2,0,L|352:57,2,103.125,2|6|8,0:3|0:3|0:3,0:0:0:0:
180,125,76563,1,4,0:3:0:0:
188,206,76906,1,10,0:3:0:0:
262,242,77249,5,6,0:3:0:0:
338,211,77591,2,0,L|368:32,2,171.875,10|6|0,0:3|0:3|0:3,0:0:0:0:
349,292,79649,1,10,0:3:0:0:
272,261,79991,6,0,P|223:279|68:181,2,240.625,6|6|8,0:2|0:3|0:3,0:0:0:0:
304,184,82734,6,0,B|426:193|426:193|502:98,2,240.625,6|6|10,0:3|0:3|0:3,0:0:0:0:
238,133,85477,6,0,P|199:242|273:331,2,240.625,6|6|10,0:3|0:3|0:3,0:0:0:0:
300,79,88220,6,0,L|391:86,1,68.75,6|10,0:3|0:3,0:0:0:0:
449,67,88906,2,0,L|470:170,2,103.125,4|6|8,0:3|0:3|0:3,0:0:0:0:
368,84,90277,2,0,L|300:79,1,68.75,6|8,0:3|0:3,0:0:0:0:
224,108,90963,6,0,B|174:224|272:224|223:341,2,240.625,6|6|8,0:2|0:3|0:3,0:0:0:0:
306,118,93706,6,0,P|242:28|145:81,2,240.625,6|6|10,0:3|0:3|0:3,0:0:0:0:
281,196,96449,6,0,L|133:218,1,137.5,6|0,0:3|0:3,0:0:0:0:
81,163,97477,1,10,0:3:0:0:
66,246,97820,2,0,P|62:298|67:349,2,103.125,6|2|8,0:3|0:3|0:3,0:0:0:0:
127,190,99191,6,0,P|119:120|147:50,2,137.5,6|2|6,0:3|0:3|0:3,0:0:0:0:
204,219,100906,1,8,0:3:0:0:
264,275,101249,2,0,L|346:281,1,68.75,6|10,0:3|0:3,0:0:0:0:
400,232,101934,6,0,B|461:117|348:118|404:2,2,240.625,6|6|10,0:2|0:3|0:3,0:0:0:0:
318,247,104677,6,0,P|259:223|106:293,2,240.625,6|6|10,0:3|0:3|0:3,0:0:0:0:
385,294,107420,6,0,L|457:298,1,68.75,6|8,0:3|0:3,0:0:0:0:
443,215,108106,2,0,P|439:163|456:115,2,103.125,2|6|8,0:3|0:3|0:3,0:0:0:0:
371,256,109477,1,0,0:3:0:0:
332,182,109820,1,10,0:3:0:0:
282,247,110163,6,0,B|272:308|272:308|214:329|214:329|159:305|100:330,2,240.625,6|6|8,0:3|0:3|0:3,0:0:0:0:
363,256,112906,6,0,P|381:191|359:77,1,171.875,6|0,0:3|0:3,0:0:0:0:
288,119,114106,2,0,L|260:19,1,103.125,6|8,0:3|0:3,0:0:0:0:
180,40,114963,1,2,0:3:0:0:
193,121,115306,1,10,0:3:0:0:
114,94,115649,6,0,P|24:154|130:175,1,275,6|0,0:3|0:3,0:0:0:0:
212,179,117363,1,10,0:3:0:0:
267,240,117706,2,0,P|302:240|336:245,1,68.75,2|10,0:3|0:3,0:0:0:0:
416,222,118391,6,0,L|416:149,1,68.75,6|8,0:3|0:3,0:0:0:0:
346,109,119077,2,0,P|304:80|253:79,2,103.125,2|6|10,0:2|0:3|0:3,0:0:0:0:
399,172,120449,2,0,L|385:244,1,68.75,2|10,0:3|0:3,0:0:0:0:
315,281,121134,6,0,L|192:260,2,103.125,4|12|12,0:3|0:3|0:3,0:0:0:0:
386,240,122506,5,4,0:3:0:0:
399,156,122849,1,12,0:3:0:0:
360,81,123173,1,4,0:3:0:0:
284,44,123497,1,12,0:3:0:0:
188,239,125250,6,0,L|168:344,2,103.125,4|4|8,0:3|0:3|0:3,0:0:0:0:
256,192,126621,5,4,0:0:0:0:
415,39,147193,6,0,L|394:244,1,206.25,14|10,0:3|0:3,0:0:0:0:
313,263,148564,6,0,P|262:252|211:250,2,103.125,4|2|10,0:1|0:3|0:3,0:0:0:0:
367,200,149936,2,0,P|382:103|304:44,1,206.25,6|10,0:3|0:3,0:0:0:0:
251,108,151307,6,0,L|148:115,1,103.125,6|2,0:2|0:3,0:0:0:0:
65,107,152164,1,2,0:2:0:0:
100,181,152507,2,0,P|100:232|85:281,1,103.125,6|10,0:3|0:3,0:0:0:0:
241,334,153707,1,10,0:3:0:0:
302,279,154050,6,0,P|290:184|224:253,2,240.625,6|6|10,0:2|0:3|0:3,0:0:0:0:
364,333,156793,6,0,P|407:226|350:125,2,240.625,6|6|10,0:2|0:3|0:3,0:0:0:0:
292,292,159536,6,0,L|176:291,2,103.125,6|2|8,0:2|0:3|0:3,0:0:0:0:
343,228,160907,2,0,B|392:213|392:213|443:213,2,103.125,6|2|10,0:3|0:3|0:3,0:0:0:0:
285,168,162279,6,0,P|233:177|183:173,2,103.125,6|2|10,0:2|0:3|0:3,0:0:0:0:
294,85,163650,2,0,L|270:18,1,68.75,4|8,0:2|0:3,0:0:0:0:
194,51,164336,2,0,P|143:43|92:53,2,103.125,2|6|8,0:3|0:2|0:3,0:0:0:0:
235,122,165707,6,0,L|348:113,2,103.125,2|6|8,0:3|0:2|0:3,0:0:0:0:
156,149,167079,1,4,0:3:0:0:
215,205,167421,1,10,0:3:0:0:
151,257,167764,6,0,P|273:263|266:141,2,275,6|6|4,0:2|0:2|0:3,0:0:0:0:
152,258,171879,6,0,L|83:266,1,68.75,6|8,0:2|0:3,0:0:0:0:
67,184,172564,2,0,P|51:136|59:86,2,103.125,2|6|10,0:3|0:3|0:3,0:0:0:0:
144,156,173936,1,2,0:3:0:0:
225,167,174279,1,8,0:3:0:0:
274,233,174621,6,0,L|295:356,2,103.125,6|2|8,0:2|0:3|0:3,0:0:0:0:
315,161,175993,2,0,P|365:150|416:156,2,103.125,6|2|8,0:3|0:3|0:3,0:0:0:0:
269,92,177364,6,0,B|210:58|210:58|144:79|144:79|83:40|12:60,2,275,6|6|6,0:2|0:3|0:2,0:0:0:0:
351,97,180450,1,8,0:3:0:0:
407,156,180793,2,0,L|419:284,2,103.125,0|6|8,0:3|0:3|0:3,0:0:0:0:
399,72,182164,1,2,0:3:0:0:
331,118,182507,1,10,0:3:0:0:
257,80,182850,6,0,L|171:88,1,68.75,4|8,0:2|0:3,0:0:0:0:
116,127,183536,2,0,P|122:177|108:226,2,103.125,2|6|10,0:3|0:3|0:3,0:0:0:0:
127,45,184907,1,2,0:3:0:0:
194,93,185250,1,8,0:3:0:0:
265,52,185593,6,0,B|348:40|348:40|432:65,1,171.875,6|2,0:2|0:3,0:0:0:0:
416,146,186793,2,0,L|421:214,1,68.75,2|2,0:3|0:2,0:0:0:0:
378,285,187479,2,0,P|328:297|276:297,1,103.125,2|10,0:3|0:3,0:0:0:0:
199,325,188336,6,0,P|173:211|229:108,2,240.625,6|2|8,0:2|0:3|0:3,0:0:0:0:
277,299,191079,6,0,B|363:284|363:284|437:322,2,171.875,6|10|14,0:2|0:3|0:3,0:0:0:0:
199,271,193136,1,6,0:3:0:0:
263,219,193479,1,14,0:3:0:0:
185,189,193821,6,0,L|139:96,2,103.125,6|6|6,0:2|0:2|0:2,0:0:0:0:
263,219,195193,2,0,P|247:298|264:375,1,137.5,6|4,0:2|0:3,0:0:0:0:
337,364,196221,1,6,0:2:0:0:
414,336,196564,6,0,L|431:93,2,240.625,6|6|10,0:2|0:3|0:3,0:0:0:0:
330,332,199307,6,0,P|213:313|98:345,2,240.625,6|6|10,0:3|0:3|0:3,0:0:0:0:
413,334,202050,5,6,0:2:0:0:
481,288,202393,2,0,P|500:206|481:121,2,171.875,8|6|2,0:3|0:3|0:3,0:0:0:0:
404,317,204450,1,10,0:3:0:0:
328,284,204793,5,6,0:3:0:0:
333,201,205136,2,0,P|342:115|324:31,2,171.875,8|6|6,0:3|0:3|0:3,0:0:0:0:
256,230,207193,1,14,0:3:0:0:
179,201,207536,6,0,P|169:115|187:31,1,171.875,6|2,0:2|0:2,0:0:0:0:
261,67,208736,2,0,P|311:74|359:58,1,103.125,6|8,0:3|0:3,0:0:0:0:
436,88,209593,1,2,0:3:0:0:
415,167,209936,1,10,0:3:0:0:
494,146,210279,6,0,P|444:243|340:198,2,240.625,6|6|10,0:3|0:3|0:3,0:0:0:0:
424,104,213021,6,0,L|439:28,1,68.75,6|8,0:2|0:3,0:0:0:0:
360,6,213707,2,0,P|308:8|257:17,2,103.125,2|6|8,0:3|0:3|0:3,0:0:0:0:
392,82,215079,2,0,L|394:152,1,68.75,2|10,0:3|0:3,0:0:0:0:
356,224,215764,6,0,B|288:240|288:240|195:200|195:200|127:217,2,240.625,6|6|10,0:3|0:3|0:3,0:0:0:0:
408,160,218507,6,0,P|418:113|405:39,1,103.125,6|6,0:3|0:3,0:0:0:0:
337,22,219364,1,6,0:3:0:0:
271,72,219707,1,14,0:3:0:0:
256,192,219879,12,0,222621,0:0:0:0:
