osu file format v14

[General]
AudioFilename: HERO A.mp3
AudioLeadIn: 0
PreviewTime: 65455
Countdown: 1
SampleSet: Normal
StackLeniency: 0.7
Mode: 0
LetterboxInBreaks: 0
WidescreenStoryboard: 0

[Editor]
Bookmarks: 34955,49455,52455,82955
DistanceSpacing: 1
BeatDivisor: 4
GridSize: 4
TimelineZoom: 2.2

[Metadata]
Title:HERO A
TitleUnicode:HERO A
Artist:Yuki Hayashi
ArtistUnicode:林 ゆうき
Creator:Kaneki_Uchiha
Version:Insane
Source:僕のヒーローアカデミア
Tags:MyHeroAcademia Dubstep Anime Rock
BeatmapID:1163519
BeatmapSetID:549466

[Difficulty]
HPDrainRate:5
CircleSize:4.5
OverallDifficulty:6
ApproachRate:8
SliderMultiplier:1.8
SliderTickRate:1

[Events]
//Background and Video events
0,0,"MyHeroAcademia.png",0,0
//Break Periods
2,49655,62705
//Storyboard Layer 0 (Background)
//Storyboard Layer 1 (Fail)
//Storyboard Layer 2 (Pass)
//Storyboard Layer 3 (Foreground)
//Storyboard Sound Samples

[TimingPoints]
1455,500,4,1,1,70,1,0
17450,-76.9230769230769,4,1,1,80,0,1
49450,-100,4,1,1,70,0,0
65450,-166.666666666667,4,1,1,70,0,0
67950,-76.9230769230769,4,1,1,70,0,0
68450,-166.666666666667,4,1,1,70,0,0
70450,-76.9230769230769,4,1,1,70,0,0
70950,-125,4,1,1,70,0,0
71950,-76.9230769230769,4,1,1,70,0,0
72200,-100,4,1,1,70,0,0
73450,-166.666666666667,4,1,1,70,0,0
75950,-76.9230769230769,4,1,1,70,0,0
76450,-166.666666666667,4,1,1,70,0,0
78450,-76.9230769230769,4,1,1,70,0,0
78950,-125,4,1,1,70,0,0
79950,-76.9230769230769,4,1,1,70,0,0
80200,-100,4,1,1,70,0,0
81450,-166.666666666667,4,1,1,70,0,0
81825,-100,4,1,1,70,0,0
83450,-125,4,1,1,70,0,0
83950,-76.9230769230769,4,1,1,70,0,0
84450,-100,4,1,1,70,0,0
97450,-133.333333333333,4,1,1,60,0,0
121450,-76.9230769230769,4,1,1,80,0,1
169450,-100,4,1,1,70,0,0

[Colours]
Combo1 : 255,0,0
Combo2 : 0,128,128
Combo3 : 255,255,255
Combo4 : 0,128,255

[HitObjects]
100,88,450,5,8,0:0:0:0:
100,88,575,1,8,0:0:0:0:
100,88,700,1,8,0:0:0:0:
100,88,825,1,8,0:0:0:0:
100,88,950,2,0,P|116:128|120:144,1,45,8|2,0:0|0:0,0:0:0:0:
200,316,1450,2,0,P|144:280|120:248,1,90,2|0,0:0|0:0,0:0:0:0:
240,188,1955,5,8,0:0:0:0:
260,208,2080,1,0,0:0:0:0:
340,316,2330,1,0,0:0:0:0:
356,296,2455,2,0,P|392:264|456:268,1,90,2|0,0:0|0:0,0:0:0:0:
376,136,2955,1,8,0:0:0:0:
388,112,3080,1,0,0:0:0:0:
256,52,3330,1,0,0:0:0:0:
232,60,3455,2,0,P|180:72|144:56,1,90,2|0,0:0|0:0,0:0:0:0:
184,188,3955,5,8,0:0:0:0:
160,180,4080,2,0,P|116:156|96:120,1,90
68,124,4455,2,0,P|64:172|32:208,1,90,2|0,0:0|0:0,0:0:0:0:
104,324,4955,1,8,0:0:0:0:
80,316,5080,1,0,0:0:0:0:
208,276,5330,1,0,0:0:0:0:
232,288,5455,2,0,P|280:304|320:296,1,90,2|0,0:0|0:0,0:0:0:0:
448,256,5955,6,0,P|400:228|352:232,1,90,8|0,0:0|0:0,0:0:0:0:
484,296,6455,1,2,0:0:0:0:
464,164,6705,1,0,0:0:0:0:
440,136,6830,1,0,0:0:0:0:
404,116,6955,1,8,0:0:0:0:
368,108,7080,1,0,0:0:0:0:
332,112,7205,2,0,P|280:108|252:76,1,90
224,60,7580,2,0,P|200:32|184:24,1,45,2|2,0:0|0:0,0:0:0:0:
96,120,7955,5,8,0:0:0:0:
84,144,8080,1,0,0:0:0:0:
164,256,8330,1,0,0:0:0:0:
136,264,8455,2,0,P|112:276|88:280,2,45,0|2|2,0:0|0:0|0:0,0:0:0:0:
240,352,8955,2,0,B|328:372|288:212|404:264,1,180,8|4,0:0|0:0,0:0:0:0:
464,348,9705,1,0,0:0:0:0:
488,216,9955,5,8,0:0:0:0:
456,196,10080,2,0,P|408:180|364:184,1,90
332,188,10455,1,2,0:0:0:0:
200,168,10705,1,0,0:0:0:0:
228,148,10830,1,0,0:0:0:0:
260,132,10955,2,0,P|304:112|364:104,1,90,8|0,0:0|0:0,0:0:0:0:
480,104,11455,2,0,P|440:60|408:44,1,90,2|0,0:0|0:0,0:0:0:0:
280,44,11955,5,8,0:0:0:0:
248,56,12080,1,0,0:0:0:0:
120,120,12330,1,0,0:0:0:0:
88,100,12455,2,0,P|56:80|40:76,2,45,0|2|2,0:0|0:0|0:0,0:0:0:0:
108,232,12955,1,8,0:0:0:0:
144,244,13080,2,0,P|172:252|192:264,2,45,2|0|0,0:0|0:0|0:0,0:0:0:0:
108,232,13455,2,0,P|56:204|32:168,1,90,2|0,0:0|0:0,0:0:0:0:
80,308,13955,6,0,P|112:340|160:352,1,90,8|0,0:0|0:0,0:0:0:0:
248,256,14455,2,0,P|288:280|336:276,1,90,2|0,0:0|0:0,0:0:0:0:
224,360,14955,1,8,0:0:0:0:
424,328,15330,2,0,P|444:304|448:288,1,45
416,232,15580,2,0,P|432:208|448:192,1,45,8|2,0:0|0:0,0:0:0:0:
424,60,15955,6,0,P|468:72|484:80,2,45,8|0|0,0:0|0:0|0:0,0:0:0:0:
388,56,16330,1,0,0:0:0:0:
352,60,16455,1,8,0:0:0:0:
324,84,16580,1,8,0:0:0:0:
308,116,16705,1,8,0:0:0:0:
276,148,16830,1,8,0:0:0:0:
232,156,16955,1,8,0:0:0:0:
192,140,17080,1,8,0:0:0:0:
168,104,17205,1,8,0:0:0:0:
20,196,17455,6,0,P|40:256|80:288,1,116.999994644165,4|0,0:0|0:0,0:0:0:0:
164,316,17830,1,0,0:0:0:0:
140,232,17955,2,0,P|204:232|240:272,1,116.999994644165,8|0,0:0|0:0,0:0:0:0:
164,316,18330,2,0,P|144:344|120:356,2,58.4999973220826,0|2|0,0:0|0:0|0:0,0:0:0:0:
140,232,18705,2,0,P|112:184|128:108,1,116.999994644165,0|8,0:0|0:0,0:0:0:0:
276,48,19205,2,0,P|320:64|348:60,1,58.4999973220826
416,40,19455,6,0,P|456:64|440:128,1,116.999994644165
356,132,19830,2,0,P|336:172|336:200,1,58.4999973220826,0|8,0:0|0:0,0:0:0:0:
420,204,20080,2,0,P|432:248|420:268,1,58.4999973220826
340,276,20330,2,0,P|360:320|384:328,2,58.4999973220826,0|2|0,0:0|0:0|0:0,0:0:0:0:
264,232,20705,2,0,P|236:292|184:312,1,116.999994644165,2|8,0:0|0:0,0:0:0:0:
104,312,21080,1,0,0:0:0:0:
104,312,21205,1,0,0:0:0:0:
104,312,21330,1,0,0:0:0:0:
80,232,21455,6,0,P|108:164|84:128,1,116.999994644165,2|0,0:0|0:0,0:0:0:0:
0,136,21830,2,0,P|-4:172|12:204,1,58.4999973220826,0|8,0:0|0:0,0:0:0:0:
80,232,22080,1,0,0:0:0:0:
168,228,22205,2,0,P|180:164|228:128,1,116.999994644165,0|2,0:0|0:0,0:0:0:0:
160,68,22580,2,0,P|124:64|96:52,2,58.4999973220826
248,48,22955,2,0,P|304:76|372:72,1,116.999994644165,8|0,0:0|0:0,0:0:0:0:
440,48,23330,1,0,0:0:0:0:
440,48,23455,5,2,0:0:0:0:
340,192,23705,2,0,P|368:176|392:168,1,58.4999973220826
365,256,23955,2,0,P|400:236|424:232,1,58.4999973220826,8|0,0:0|0:0,0:0:0:0:
436,320,24205,2,0,P|376:352|324:344,1,116.999994644165,2|2,0:0|0:0,0:0:0:0:
365,256,24580,2,0,P|400:236|424:232,2,58.4999973220826,0|2|0,0:0|0:0|0:0,0:0:0:0:
284,292,24955,2,0,P|216:300|172:328,1,116.999994644165,8|0,0:0|0:0,0:0:0:0:
92,320,25330,1,0,0:0:0:0:
136,244,25455,6,0,P|76:228|20:248,1,116.999994644165,2|0,0:0|0:0,0:0:0:0:
92,320,25830,1,0,0:0:0:0:
136,244,25955,2,0,P|136:184|128:168,1,58.4999973220826,8|0,0:0|0:0,0:0:0:0:
56,156,26205,2,0,P|72:96|64:40,1,116.999994644165,0|2,0:0|0:0,0:0:0:0:
148,72,26580,1,0,0:0:0:0:
148,72,26705,1,0,0:0:0:0:
148,72,26830,1,0,0:0:0:0:
216,128,26955,2,0,P|288:124|320:92,1,116.999994644165,8|0,0:0|0:0,0:0:0:0:
252,40,27330,1,0,0:0:0:0:
336,12,27455,6,0,P|396:24|408:36,2,58.4999973220826,2|0|0,0:0|0:0|0:0,0:0:0:0:
252,40,27830,1,2,0:0:0:0:
320,96,27955,2,0,P|372:128|384:184,1,116.999994644165,8|0,0:0|0:0,0:0:0:0:
468,148,28330,2,0,P|456:180|464:216,1,58.4999973220826,8|2,0:0|0:0,0:0:0:0:
384,252,28580,2,0,P|400:280|436:300,1,58.4999973220826,0|2,0:0|0:0,0:0:0:0:
508,308,28830,1,0,0:0:0:0:
436,360,28955,2,0,P|376:376|308:348,1,116.999994644165,8|0,0:0|0:0,0:0:0:0:
308,276,29330,1,0,0:0:0:0:
228,312,29455,6,0,P|152:304|104:332,1,116.999994644165,2|0,0:0|0:0,0:0:0:0:
184,380,29830,1,0,0:0:0:0:
228,312,29955,2,0,P|244:280|244:256,2,58.4999973220826,8|0|0,0:0|0:0|0:0,0:0:0:0:
72,232,30455,1,2,0:0:0:0:
160,220,30580,2,0,P|140:192|136:156,1,58.4999973220826
72,232,30830,1,2,0:0:0:0:
44,148,30955,2,0,P|88:96|140:88,1,116.999994644165,8|0,0:0|0:0,0:0:0:0:
216,116,31330,6,0,P|256:92|267:68,1,58.4999973220826,0|2,0:0|0:0,0:0:0:0:
192,32,31580,2,0,P|160:12|128:12,2,58.4999973220826,0|2|2,0:0|0:0|0:0,0:0:0:0:
216,116,31955,1,8,0:0:0:0:
216,116,32080,1,0,0:0:0:0:
216,116,32205,1,0,0:0:0:0:
272,184,32330,2,0,P|296:184|332:168,1,58.4999973220826,0|2,0:0|0:0,0:0:0:0:
332,84,32580,2,0,P|352:64|388:52,2,58.4999973220826,8|2|0,0:0|0:0|0:0,0:0:0:0:
408,132,32955,1,8,0:0:0:0:
432,172,33080,1,8,0:0:0:0:
440,216,33205,1,8,0:0:0:0:
432,260,33330,1,8,0:0:0:0:
400,296,33455,6,0,P|320:308|288:336,1,116.999994644165,12|0,0:0|0:0,0:0:0:0:
244,256,33830,1,0,0:0:0:0:
208,336,33955,2,0,P|180:320|144:312,1,58.4999973220826,8|0,0:0|0:0,0:0:0:0:
244,256,34205,1,2,0:0:0:0:
160,236,34330,2,0,P|88:248|64:296,1,116.999994644165,12|8,0:0|0:0,0:0:0:0:
24,204,34705,1,2,0:0:0:0:
24,204,34830,1,2,0:0:0:0:
24,204,34955,2,0,P|68:160|128:156,1,116.999994644165,8|0,0:0|0:0,0:0:0:0:
160,236,35330,1,0,0:0:0:0:
220,300,35455,6,0,P|192:316|160:320,2,58.4999973220826,2|0|0,0:0|0:0|0:0,0:0:0:0:
292,248,35830,1,2,0:0:0:0:
364,296,35955,2,0,P|416:308|476:280,1,116.999994644165,8|2,0:0|0:0,0:0:0:0:
416,216,36330,1,0,0:0:0:0:
416,216,36455,1,2,0:0:0:0:
416,216,36580,1,8,0:0:0:0:
452,136,36705,2,0,P|484:156|492:176,1,58.4999973220826,2|0,0:0|0:0,0:0:0:0:
416,128,36955,2,0,P|364:120|332:60,1,116.999994644165,8|0,0:0|0:0,0:0:0:0:
156,68,37455,6,0,P|212:80|256:120,1,116.999994644165,2|0,0:0|0:0,0:0:0:0:
180,160,37830,2,0,P|216:184|248:184,2,58.4999973220826,0|8|0,0:0|0:0|0:0,0:0:0:0:
96,140,38205,2,0,P|72:160|64:188,1,58.4999973220826,2|0,0:0|0:0,0:0:0:0:
132,240,38455,2,0,P|116:264|72:276,1,58.4999973220826,0|8,0:0|0:0,0:0:0:0:
132,348,38705,1,2,0:0:0:0:
132,348,38830,1,2,0:0:0:0:
132,348,38955,2,0,P|192:304|232:308,1,116.999994644165,8|0,0:0|0:0,0:0:0:0:
280,232,39330,1,0,0:0:0:0:
316,312,39455,6,0,P|372:332|432:292,1,116.999994644165,2|0,0:0|0:0,0:0:0:0:
280,232,39830,1,2,0:0:0:0:
280,232,39955,1,8,0:0:0:0:
280,232,40080,1,2,0:0:0:0:
364,208,40205,2,0,P|400:212|428:224,2,58.4999973220826,2|8|0,0:0|0:0|0:0,0:0:0:0:
296,152,40580,2,0,P|312:128|344:112,1,58.4999973220826,8|2,0:0|0:0,0:0:0:0:
420,144,40830,1,8,0:0:0:0:
416,96,40955,1,8,0:0:0:0:
396,52,41080,1,8,0:0:0:0:
356,28,41205,1,8,0:0:0:0:
308,20,41330,1,8,0:0:0:0:
264,32,41455,6,0,P|220:56|152:52,1,116.999994644165,4|0,0:0|0:0,0:0:0:0:
92,116,41830,2,0,P|68:92|64:68,2,58.4999973220826,2|8|0,0:0|0:0|0:0,0:0:0:0:
176,144,42205,1,2,0:0:0:0:
112,204,42330,2,0,P|116:232|96:264,1,58.4999973220826,8|0,0:0|0:0,0:0:0:0:
24,296,42580,1,8,0:0:0:0:
88,356,42705,2,0,P|136:360|188:320,1,116.999994644165,2|8,0:0|0:0,0:0:0:0:
24,296,43080,1,0,0:0:0:0:
24,296,43205,1,0,0:0:0:0:
24,296,43330,1,0,0:0:0:0:
104,256,43455,6,0,P|148:224|208:232,1,116.999994644165,2|0,0:0|0:0,0:0:0:0:
264,296,43830,2,0,P|296:316|312:336,1,58.4999973220826,2|8,0:0|0:0,0:0:0:0:
348,252,44080,2,0,P|384:264|412:260,1,58.4999973220826,8|2,0:0|0:0,0:0:0:0:
356,92,44455,2,0,P|376:116|408:128,2,58.4999973220826,2|8|2,0:0|0:0|0:0,0:0:0:0:
288,32,44830,1,2,0:0:0:0:
352,92,44955,2,0,P|308:116|236:104,1,116.999994644165,8|8,0:0|0:0,0:0:0:0:
288,32,45330,1,0,0:0:0:0:
204,52,45455,6,0,P|144:48|96:80,1,116.999994644165,2|0,0:0|0:0,0:0:0:0:
140,156,45830,2,0,P|96:164|64:156,2,58.4999973220826,2|8|0,0:0|0:0|0:0,0:0:0:0:
228,168,46205,1,8,0:0:0:0:
228,168,46330,1,8,0:0:0:0:
228,168,46455,1,2,0:0:0:0:
176,236,46580,2,0,P|136:244|116:256,2,58.4999973220826,8|8|2,0:0|0:0|0:0,0:0:0:0:
220,312,46955,1,8,0:0:0:0:
180,336,47080,1,8,0:0:0:0:
132,344,47205,1,8,0:0:0:0:
88,328,47330,1,8,0:0:0:0:
52,296,47455,6,0,P|52:224|84:212,1,116.999994644165,12|0,0:0|0:0,0:0:0:0:
176,236,47830,1,2,0:0:0:0:
252,276,47955,2,0,P|296:244|280:188,1,116.999994644165,8|2,0:0|0:0,0:0:0:0:
176,236,48330,1,0,0:0:0:0:
252,276,48455,2,0,P|264:308|256:340,1,58.4999973220826,8|0,0:0|0:0,0:0:0:0:
340,292,48705,2,0,P|364:304|384:336,1,58.4999973220826,8|0,0:0|0:0,0:0:0:0:
424,252,48955,2,0,P|456:268|480:296,1,58.4999973220826,8|0,0:0|0:0,0:0:0:0:
484,196,49205,2,0,P|460:152|400:128,1,116.999994644165,8|4,0:0|0:0,0:0:0:0:
256,192,63455,12,0,64955,0:0:0:0:
88,88,65455,6,0,P|116:88|148:76,1,53.9999983520508,2|0,0:0|0:0,0:0:0:0:
208,196,65955,2,0,P|180:212|152:220,1,53.9999983520508,8|0,0:0|0:0,0:0:0:0:
24,228,66455,1,2,0:0:0:0:
132,308,66705,1,0,0:0:0:0:
132,308,66830,2,0,L|96:336,1,26.9999991760254,0|8,0:0|0:0,0:0:0:0:
176,340,67080,2,0,P|208:340|236:328,1,53.9999983520508
216,264,67455,2,0,P|252:248|296:248,1,80.9999975280763,2|0,0:0|0:0,0:0:0:0:
428,304,67955,6,0,P|400:320|360:328,1,58.4999973220826,8|0,0:0|0:0,0:0:0:0:
432,192,68205,2,0,P|404:220|372:232,1,58.4999973220826
300,164,68455,6,0,P|296:132|308:96,1,53.9999983520508,2|0,0:0|0:0,0:0:0:0:
360,76,68830,2,0,L|388:84,2,26.9999991760254,0|8|2,0:0|0:0|0:0,0:0:0:0:
300,44,69205,2,0,P|264:40|240:48,1,53.9999983520508,0|2,0:0|0:0,0:0:0:0:
116,76,69705,1,0,0:0:0:0:
216,168,69955,2,0,P|192:188|164:200,1,53.9999983520508,8|0,0:0|0:0,0:0:0:0:
116,76,70455,6,0,P|76:88|52:112,1,58.4999973220826,2|0,0:0|0:0,0:0:0:0:
56,244,70705,2,0,P|92:256|116:252,1,58.4999973220826,0|2,0:0|0:0,0:0:0:0:
236,288,70955,6,0,P|208:312|168:328,1,72,8|0,0:0|0:0,0:0:0:0:
260,208,71455,2,0,P|296:236|312:260,1,72,2|2,0:0|0:0,0:0:0:0:
324,292,71830,1,0,0:0:0:0:
324,292,71955,6,0,P|344:336|360:352,1,58.4999973220826,8|0,0:0|0:0,0:0:0:0:
488,348,72205,6,0,P|488:320|480:292,1,45,2|2,0:0|0:0,0:0:0:0:
396,200,72580,2,0,P|396:220|408:244,2,45,8|2|2,0:0|0:0|0:0,0:0:0:0:
396,156,72955,1,8,0:0:0:0:
408,112,73080,1,8,0:0:0:0:
396,68,73205,1,8,0:0:0:0:
356,52,73330,1,8,0:0:0:0:
328,56,73455,6,0,P|292:76|276:96,1,53.9999983520508,2|0,0:0|0:0,0:0:0:0:
148,96,73955,2,0,P|164:128|184:144,2,53.9999983520508,8|0|2,0:0|0:0|0:0,0:0:0:0:
68,208,74705,1,0,0:0:0:0:
68,208,74830,1,0,0:0:0:0:
68,208,74955,1,8,0:0:0:0:
120,252,75080,2,0,P|124:264|120:308,1,53.9999983520508,2|0,0:0|0:0,0:0:0:0:
188,320,75455,2,0,P|192:272|216:240,1,80.9999975280763,2|2,0:0|0:0,0:0:0:0:
356,260,75955,6,0,P|324:276|312:296,1,58.4999973220826,8|0,0:0|0:0,0:0:0:0:
456,256,76205,2,0,P|460:280|488:304,2,58.4999973220826,0|8|0,0:0|0:0|0:0,0:0:0:0:
456,188,76580,6,0,P|464:156|456:128,1,53.9999983520508,2|2,0:0|0:0,0:0:0:0:
428,76,76955,1,8,0:0:0:0:
428,76,77080,2,0,P|404:96|396:136,1,53.9999983520508,8|2,0:0|0:0,0:0:0:0:
360,172,77455,1,2,0:0:0:0:
176,88,77830,1,2,0:0:0:0:
176,88,77955,1,8,0:0:0:0:
176,88,78080,2,0,P|156:120|128:136,1,53.9999983520508,8|0,0:0|0:0,0:0:0:0:
40,232,78455,6,0,P|68:256|96:260,1,58.4999973220826,2|0,0:0|0:0,0:0:0:0:
88,116,78705,2,0,P|68:156|68:180,1,58.4999973220826,0|2,0:0|0:0,0:0:0:0:
168,248,78955,5,8,0:0:0:0:
168,248,79080,2,0,B|224:248|224:300|264:300,1,108,8|2,0:0|0:0,0:0:0:0:
384,232,79705,2,0,P|420:248|428:248,1,36,2|2,0:0|0:0,0:0:0:0:
356,348,79955,6,0,P|396:356|432:348,2,58.4999973220826,8|0|0,0:0|0:0|0:0,0:0:0:0:
320,324,80330,5,8,0:0:0:0:
300,284,80455,1,8,0:0:0:0:
300,240,80580,1,2,0:0:0:0:
324,200,80705,1,8,0:0:0:0:
360,176,80830,1,2,0:0:0:0:
400,152,80955,1,8,0:0:0:0:
432,120,81080,2,0,P|448:80|424:36,1,90,2|0,0:0|0:0,0:0:0:0:
388,28,81455,6,0,P|356:48|312:44,1,80.9999975280763,2|0,0:0|0:0,0:0:0:0:
248,48,81955,5,8,0:0:0:0:
248,48,82080,2,0,P|268:96|316:112,1,90
304,180,82455,2,0,P|352:188|388:224,1,90,2|0,0:0|0:0,0:0:0:0:
440,180,82830,2,0,P|428:156|408:136,2,45,2|8|8,0:0|0:0|0:0,0:0:0:0:
448,224,83205,1,0,0:0:0:0:
440,268,83330,1,0,0:0:0:0:
416,300,83455,6,0,P|360:328|320:304,1,108,2|2,0:0|0:0,0:0:0:0:
316,192,83955,6,0,B|284:192|244:168,1,58.4999973220826,8|0,0:0|0:0,0:0:0:0:
323,308,84205,2,0,P|283:312|260:324,1,58.4999973220826,2|8,0:0|0:0,0:0:0:0:
132,324,84455,5,0,0:0:0:0:
132,324,84580,2,0,P|144:296|144:268,1,45,2|0,0:0|0:0,0:0:0:0:
180,224,84830,2,0,P|208:236|228:252,2,45,8|0|2,0:0|0:0|0:0,0:0:0:0:
136,216,85205,1,8,0:0:0:0:
92,228,85330,1,8,0:0:0:0:
64,264,85455,5,2,0:0:0:0:
64,264,85580,2,0,P|24:228|28:184,1,90,8|2,0:0|0:0,0:0:0:0:
120,140,88080,2,8,L|144:128,2,22.5
