osu file format v14

[General]
AudioFilename: audio.mp3
AudioLeadIn: 0
PreviewTime: -1
Countdown: 0
SampleSet: Normal
StackLeniency: 0.8
Mode: 0
LetterboxInBreaks: 0
SkinPreference:- YUGEN -
WidescreenStoryboard: 0

[Editor]
Bookmarks: 35363
DistanceSpacing: 0.8
BeatDivisor: 4
GridSize: 4
TimelineZoom: 1

[Metadata]
Title:Team Tomodachi
TitleUnicode:Team Tomodachi
Artist:Yuki Chiba
ArtistUnicode:Yuki Chiba
Creator:eros_dj
Version:eros_dj first try
Source:
Tags:Japan Rap
BeatmapID:4566497
BeatmapSetID:2164833

[Difficulty]
HPDrainRate:5
CircleSize:5
OverallDifficulty:6
ApproachRate:8.5
SliderMultiplier:1.2
SliderTickRate:1

[Events]
//Background and Video events
0,0,"maxresdefault.jpg",0,0
//Break Periods
//Storyboard Layer 0 (Background)
//Storyboard Layer 1 (Fail)
//Storyboard Layer 2 (Pass)
//Storyboard Layer 3 (Foreground)
//Storyboard Layer 4 (Overlay)
//Storyboard Sound Samples

[TimingPoints]
21,410.958904109589,4,1,0,100,1,0

[HitObjects]
256,192,1277,5,0,0:0:0:0:
256,192,1378,1,0,0:0:0:0:
256,192,1489,1,0,0:0:0:0:
192,156,1820,2,0,P|252:126|314:165,1,120
139,129,3307,5,0,0:0:0:0:
154,275,3528,5,8,0:0:0:0:
403,83,3735,1,8,0:0:0:0:
218,64,3933,1,8,0:0:0:0:
344,256,4132,1,8,0:0:0:0:
311,108,4523,5,4,0:0:0:0:
254,190,4934,5,0,0:0:0:0:
354,246,5139,2,0,L|301:288,1,60,8|8,0:0|0:0,0:0:0:0:
162,142,5587,2,0,L|215:100,1,60,8|8,0:0|0:0,0:0:0:0:
347,81,6224,5,4,0:0:0:0:
155,213,6641,5,0,0:0:0:0:
275,242,6743,1,0,0:0:0:0:
234,130,6844,1,0,0:0:0:0:
208,265,6947,1,0,0:0:0:0:
169,150,7054,1,0,0:0:0:0:
284,178,7157,2,0,L|273:131,1,30,0|4,0:0|0:0,0:0:0:0:
356,133,7463,1,8,0:0:0:0:
68,286,7843,1,4,0:0:0:0:
281,81,8279,6,0,P|341:106|349:157,1,120,0|8,0:0|0:0,0:0:0:0:
267,231,8890,6,0,P|207:206|199:155,1,120,8|0,0:0|0:0,0:0:0:0:
198,156,9404,1,0,0:0:0:0:
198,156,9522,2,0,P|216:98|267:77,1,120,0|8,0:0|0:0,0:0:0:0:
138,191,10134,5,0,0:0:0:0:
360,279,10335,1,0,0:0:0:0:
138,127,10536,1,0,0:0:0:0:
360,279,10739,1,0,0:0:0:0:
192,93,10947,1,4,0:0:0:0:
177,90,11563,5,0,0:0:0:0:
321,274,11772,1,0,0:0:0:0:
116,283,11979,1,0,0:0:0:0:
116,283,12041,1,0,0:0:0:0:
116,283,12098,1,0,0:0:0:0:
186,277,12190,1,0,0:0:0:0:
121,202,12400,2,0,P|166:173|220:205,1,120
113,92,13224,5,0,0:0:0:0:
416,300,13427,1,0,0:0:0:0:
116,279,13632,1,0,0:0:0:0:
328,92,13839,1,0,0:0:0:0:
245,253,14044,1,0,0:0:0:0:
166,161,14249,1,0,0:0:0:0:
347,196,14453,1,0,0:0:0:0:
224,76,14654,1,0,0:0:0:0:
216,269,14853,2,0,B|308:268|308:268|258:193,1,180
226,191,15518,2,0,B|225:98|225:98|150:148,1,180
256,192,16496,5,0,0:0:0:0:
159,99,16910,5,0,0:0:0:0:
361,279,17109,1,0,0:0:0:0:
347,93,17309,1,0,0:0:0:0:
165,275,17511,1,0,0:0:0:0:
243,170,17716,1,0,0:0:0:0:
286,199,17823,1,0,0:0:0:0:
323,231,17922,1,0,0:0:0:0:
191,81,18132,5,0,0:0:0:0:
246,280,18339,1,0,0:0:0:0:
285,90,18546,1,0,0:0:0:0:
329,275,18752,1,0,0:0:0:0:
285,90,18956,1,0,0:0:0:0:
246,280,19163,1,0,0:0:0:0:
192,80,19366,1,0,0:0:0:0:
256,192,19800,12,0,21005,0:0:0:0:
316,121,21424,5,0,0:0:0:0:
129,209,21631,1,0,0:0:0:0:
323,215,21838,1,0,0:0:0:0:
148,290,22044,1,0,0:0:0:0:
323,215,22248,1,0,0:0:0:0:
163,180,22455,1,0,0:0:0:0:
241,152,22546,1,0,0:0:0:0:
317,121,22658,1,0,0:0:0:0:
328,187,23078,2,0,P|315:270|216:298,2,180
142,227,24678,2,0,P|155:144|254:116,2,180
256,291,26365,5,8,0:0:0:0:
256,92,26570,1,8,0:0:0:0:
156,191,26778,1,8,0:0:0:0:
353,192,26986,1,8,0:0:0:0:
314,192,27088,1,0,0:0:0:0:
278,198,27192,1,0,0:0:0:0:
196,104,27397,5,0,0:0:0:0:
312,285,27602,1,8,0:0:0:0:
99,273,27808,1,0,0:0:0:0:
358,84,28019,2,0,L|396:130,1,60,0|8,0:0|0:0,0:0:0:0:
162,298,28427,2,0,L|124:252,1,60
241,170,28838,2,0,L|279:216,2,60,0|0|4,0:0|0:0|0:0,0:0:0:0:
215,168,29646,5,0,0:0:0:0:
301,120,30061,1,0,0:0:0:0:
317,144,30163,1,0,0:0:0:0:
324,173,30266,1,0,0:0:0:0:
322,203,30369,1,0,0:0:0:0:
310,230,30471,1,0,0:0:0:0:
290,252,30574,1,0,0:0:0:0:
263,266,30677,1,0,0:0:0:0:
234,271,30780,1,0,0:0:0:0:
204,265,30882,1,0,0:0:0:0:
394,286,31088,1,0,0:0:0:0:
258,192,31292,5,0,0:0:0:0:
258,192,31493,1,0,0:0:0:0:
172,240,31707,1,8,0:0:0:0:
156,216,31809,1,0,0:0:0:0:
149,187,31912,1,0,0:0:0:0:
151,157,32015,1,0,0:0:0:0:
163,130,32117,1,0,0:0:0:0:
183,108,32220,1,0,0:0:0:0:
210,94,32323,1,0,0:0:0:0:
239,89,32426,1,0,0:0:0:0:
269,95,32528,1,4,0:0:0:0:
59,341,32945,5,8,0:0:0:0:
60,44,33356,1,8,0:0:0:0:
448,44,33776,1,8,0:0:0:0:
448,340,34176,1,8,0:0:0:0:
136,192,34587,6,0,L|387:192,1,240
254,268,35611,1,0,0:0:0:0:
255,109,35817,1,0,0:0:0:0:
157,192,36227,5,8,0:0:0:0:
321,116,36431,1,0,0:0:0:0:
341,137,36533,1,0,0:0:0:0:
353,164,36636,1,0,0:0:0:0:
355,194,36739,1,0,0:0:0:0:
347,223,36841,1,0,0:0:0:0:
329,247,36944,1,0,0:0:0:0:
256,192,37064,5,8,0:0:0:0:
191,268,37268,1,0,0:0:0:0:
170,246,37370,1,0,0:0:0:0:
158,219,37473,1,0,0:0:0:0:
156,189,37576,1,0,0:0:0:0:
164,160,37678,1,0,0:0:0:0:
182,136,37781,1,0,0:0:0:0:
206,112,37881,6,0,P|224:94|252:100,2,30
286,96,38278,1,0,0:3:0:0:
314,108,38380,1,0,0:3:0:0:
335,127,38483,1,0,0:3:0:0:
350,159,38582,6,0,P|359:178|354:206,2,30
356,188,38894,1,0,0:3:0:0:
347,224,38996,1,8,2:3:0:0:
329,248,39099,1,0,2:3:0:0:
