osu file format v14

[General]
AudioFilename: audio.mp3
AudioLeadIn: 0
PreviewTime: 71259
Countdown: 0
SampleSet: Soft
StackLeniency: 0.3
Mode: 0
LetterboxInBreaks: 0
WidescreenStoryboard: 1

[Editor]
Bookmarks: 26769,38023,60532,71786,79519,80340,86902,94284,105533,128031,134124,150529,161778,184277,206775,229273
DistanceSpacing: 1
BeatDivisor: 6
GridSize: 8
TimelineZoom: 1.2

[Metadata]
Title:Ippiki Ookami
TitleUnicode:一匹狼
Artist:Yuki Akira
ArtistUnicode:湯木慧
Creator:Irohas
Version:Shocko's Hard
Source:
Tags:mugiwarasekai shocko ゆき あきら lone wolf sasanomaly japanese rock jrock
BeatmapID:3169608
BeatmapSetID:1551073

[Difficulty]
HPDrainRate:5
CircleSize:4
OverallDifficulty:6
ApproachRate:7
SliderMultiplier:2.1
SliderTickRate:1

[Events]
//Background and Video events
0,0,"98263084_p0.jpg",0,0
//Break Periods
2,94484,104529
2,125419,126161
2,161275,182833
//Storyboard Layer 0 (Background)
//Storyboard Layer 1 (Fail)
//Storyboard Layer 2 (Pass)
//Storyboard Layer 3 (Foreground)
//Storyboard Layer 4 (Overlay)
//Storyboard Sound Samples

[TimingPoints]
1477,702.576112412178,2,2,1,30,1,0
26769,703.399765533411,2,2,1,35,1,0
26769,-125,4,2,1,35,0,0
27003,-125,4,2,2,35,0,0
33158,-125,4,2,2,20,0,0
33334,-125,4,2,2,35,0,0
33392,-125,4,2,2,20,0,0
33568,-125,4,2,2,35,0,0
33627,-125,4,2,2,20,0,0
33802,-125,4,2,2,35,0,0
34565,-125,4,2,2,20,0,0
34740,-125,4,2,2,35,0,0
34799,-125,4,2,2,20,0,0
34975,-125,4,2,2,35,0,0
35033,-125,4,2,2,20,0,0
35209,-125,4,2,2,35,0,0
38023,-125,4,2,3,27,0,0
38726,-125,4,2,2,27,0,0
49277,-125,4,2,2,36,0,0
59916,-125,4,2,2,5,0,0
60532,-125,4,2,10,23,0,0
60766,-125,4,2,3,36,0,0
69676,-125,4,2,3,36,0,0
70379,-125,4,2,3,40,0,0
70731,-111.111111111111,4,2,3,40,0,0
71083,-100,4,2,1,40,0,0
71786,703.070072650574,2,2,7,50,1,0
71786,-90.9090909090909,4,2,7,50,0,0
71961,-90.9090909090909,4,2,1,40,0,0
82332,-83.3333333333333,4,2,1,40,0,0
82449,-83.3333333333333,4,2,1,5,0,0
82566,-83.3333333333333,4,2,1,50,0,0
82683,-83.3333333333333,4,2,1,5,0,0
82800,-83.3333333333333,4,2,1,40,0,0
82917,-83.3333333333333,4,2,1,5,0,0
83035,-90.9090909090909,4,2,1,50,0,0
83269,-90.9090909090909,4,2,1,40,0,0
92643,-90.9090909090909,4,2,1,50,0,0
92760,-90.9090909090909,4,2,1,40,0,0
92965,-90.9090909090909,4,2,1,5,0,0
94284,-90.9090909090909,4,2,10,40,0,0
94518,-90.9090909090909,4,2,2,30,0,0
104595,-90.9090909090909,4,2,3,25,0,0
104830,-90.9090909090909,4,2,3,30,0,0
105533,-125,4,2,10,30,0,0
105767,-125,4,2,2,27,0,0
115376,-125,4,2,3,27,0,0
116782,-125,4,2,3,33,0,0
117016,-125,4,2,2,33,0,0
122407,-125,4,2,2,37,0,0
123168,-125,4,2,2,20,0,0
123227,-125,4,2,2,33,0,0
123285,-125,4,2,2,20,0,0
123344,-125,4,2,2,33,0,0
123403,-125,4,2,2,20,0,0
123578,-125,4,2,2,37,0,0
126625,-125,4,2,3,55,0,0
127211,-111.111111111111,4,2,3,55,0,0
127797,-111.111111111111,4,2,1,55,0,0
127914,-111.111111111111,4,2,2,35,0,0
128031,-76.9230769230769,4,2,1,50,0,0
128207,-76.9230769230769,4,2,1,45,0,0
128500,-83.3333333333333,4,2,1,45,0,0
137874,-83.3333333333333,4,2,3,55,0,0
138929,-83.3333333333333,4,2,1,55,0,0
139046,-83.3333333333333,4,2,3,55,0,0
139163,-83.3333333333333,4,2,1,55,0,0
139397,-83.3333333333333,4,2,1,45,0,0
149123,-83.3333333333333,4,2,3,55,0,0
150529,-111.111111111111,4,2,3,55,0,0
150530,-111.111111111111,4,2,10,35,0,0
150647,-111.111111111111,4,2,2,45,0,0
150881,-111.111111111111,4,2,3,45,0,0
150998,-111.111111111111,4,2,2,45,0,0
156505,-111.111111111111,4,2,3,45,0,0
156623,-111.111111111111,4,2,2,45,0,0
156740,-111.111111111111,4,2,3,45,0,0
156857,-111.111111111111,4,2,2,45,0,0
158497,-111.111111111111,4,2,3,45,0,0
158732,-111.111111111111,4,2,2,45,0,0
159201,-111.111111111111,4,2,3,50,0,0
159318,-111.111111111111,4,2,2,45,0,0
159435,-111.111111111111,4,2,3,50,0,0
159669,-111.111111111111,4,2,2,45,0,0
160372,-111.111111111111,4,2,3,55,0,0
160724,-111.111111111111,4,2,3,35,0,0
160841,-111.111111111111,4,2,3,55,0,0
161778,-111.111111111111,4,2,1,17,0,0
178652,-111.111111111111,4,2,3,20,0,0
180293,-111.111111111111,4,2,3,24,0,0
181699,-111.111111111111,4,2,3,30,0,0
182636,-111.111111111111,4,2,3,36,0,0
182871,-111.111111111111,4,2,3,50,0,0
183574,-111.111111111111,4,2,3,30,0,0
184277,-90.9090909090909,4,2,10,50,0,0
184452,-90.9090909090909,4,2,1,50,0,0
194120,-90.9090909090909,4,2,3,60,0,0
194354,-90.9090909090909,4,2,1,50,0,0
194706,-90.9090909090909,4,2,3,60,0,0
195174,-90.9090909090909,4,2,1,50,0,0
195291,-90.9090909090909,4,2,3,60,0,0
195409,-90.9090909090909,4,2,1,50,0,0
195526,-90.9090909090909,4,2,1,50,0,0
195643,-90.9090909090909,4,2,1,50,0,0
205369,-90.9090909090909,4,2,3,50,0,0
205603,-90.9090909090909,4,2,3,30,0,0
205955,-90.9090909090909,4,2,3,50,0,0
206775,-90.9090909090909,4,2,10,30,0,0
206863,-90.9090909090909,4,2,10,5,0,0
218024,-90.9090909090909,4,2,1,35,0,0
218141,-90.9090909090909,4,2,2,35,0,0
229273,-90.9090909090909,4,2,1,35,0,0
229390,-90.9090909090909,4,2,2,35,0,0

[Colours]
Combo1 : 255,244,190
Combo2 : 205,241,226
Combo3 : 255,215,196
Combo4 : 236,217,255

[HitObjects]
127,100,26769,6,0,P|83:110|14:19,2,168,4|0|0,0:1|3:0|3:0,0:0:0:0:
127,100,28879,2,0,L|109:224,1,112,0|8,3:0|0:1,0:0:0:0:
24,258,29582,2,0,P|19:230|12:203,2,56,0|8|8,3:0|0:1|0:1,0:0:0:0:
92,326,30285,2,0,B|178:323|174:374|258:367,1,168,0|0,3:0|3:0,0:0:0:0:
328,315,31223,1,8,0:1:0:0:
331,305,31458,2,0,L|317:236,1,56,8|0,0:1|3:0,0:0:0:0:
459,94,32161,5,8,0:1:0:0:
512,175,32396,2,0,P|436:131|347:155,1,168,0|0,3:0|3:0,0:0:0:0:
152,57,33802,2,0,P|220:64|300:8,1,168,0|0,3:0|3:0,0:0:0:0:
195,208,35209,6,0,L|207:326,1,112,0|8,3:1|0:1,0:0:0:0:
117,381,35913,2,0,P|85:337|106:277,1,112,0|8,3:1|0:1,0:0:0:0:
31,221,36616,2,0,P|43:170|62:38,1,168,0|0,3:0|3:0,0:0:0:0:
60,55,38023,6,0,P|83:36|186:97,1,168,4|0,3:0|3:0,0:0:0:0:
297,163,39195,1,2,0:3:0:0:
309,169,39430,2,0,P|367:155|427:147,1,112,0|2,3:0|0:3,0:0:0:0:
500,82,40133,2,0,L|445:71,1,56,0|2,3:0|0:3,0:0:0:0:
512,178,40602,5,2,0:3:0:0:
502,187,40836,2,0,L|481:299,1,112,0|2,3:0|0:3,0:0:0:0:
409,378,41540,2,0,P|458:353|512:363,1,112,0|2,3:0|0:3,0:0:0:0:
370,290,42243,2,0,P|295:303|195:322,1,168,0|0,3:0|3:0,0:0:0:0:
1,380,43650,6,0,P|10:334|19:263,1,112,0|2,3:0|0:3,0:0:0:0:
86,205,44353,2,0,P|90:177|98:138,1,56,0|2,3:0|0:3,0:0:0:0:
21,81,44822,1,2,0:3:0:0:
31,91,45057,2,0,P|51:100|155:12,1,168,0|0,3:0|3:0,0:0:0:0:
155,27,46229,1,2,0:3:0:0:
239,79,46464,6,0,L|354:62,1,112,0|2,3:0|0:3,0:0:0:0:
424,3,47167,2,0,P|452:-5|510:66,1,112,0|2,3:0|0:3,0:0:0:0:
437,110,47870,2,0,P|409:104|382:96,2,56,0|2|4,3:0|0:3|0:1,0:0:0:0:
507,180,48574,2,0,L|481:349,1,168,0|0,3:0|3:0,0:0:0:0:
369,319,49746,5,2,0:3:0:0:
295,380,49981,2,0,B|222:386|215:331|123:344,1,168,8|0,0:0|3:0,0:0:0:0:
0,265,51153,1,8,0:3:0:0:
10,272,51387,2,0,P|63:276|116:229,1,112,8|12,0:0|0:3,0:0:0:0:
182,182,52091,2,0,L|168:71,1,112,0|2,3:0|0:3,0:0:0:0:
112,0,52794,2,0,P|171:10|234:18,1,112,8|2,0:0|0:3,0:0:0:0:
309,61,53498,2,0,P|342:27|465:27,1,168,0|8,3:0|0:0,0:0:0:0:
456,21,54904,6,0,L|438:152,1,112,0|2,3:0|0:3,0:0:0:0:
375,208,55608,2,0,P|421:235|478:222,1,112,8|2,0:0|0:3,0:0:0:0:
348,119,56311,2,0,P|302:128|182:147,1,168,0|8,3:0|0:0,0:0:0:0:
182,147,57484,5,8,0:3:0:0:
179,135,57718,2,0,L|197:65,1,56,0|2,3:0|0:3,0:0:0:0:
269,177,58187,1,8,0:3:0:0:
207,252,58421,2,0,P|139:294|51:270,1,168,8|0,0:0|3:0,0:0:0:0:
260,384,59594,1,8,0:3:0:0:
261,374,59828,6,0,L|256:343,1,21,0|0,3:0|0:0,0:0:0:0:
338,288,60532,6,0,B|424:282|426:334|507:328,1,168,4|0,0:0|3:0,0:0:0:0:
316,165,61938,2,0,L|342:0,1,168,0|0,3:0|3:0,0:0:0:0:
210,130,63111,1,0,0:0:0:0:
203,142,63345,2,0,L|218:260,1,112,0|8,3:0|0:0,0:0:0:0:
131,321,64049,2,0,P|106:272|122:220,1,112,0|8,3:0|0:0,0:0:0:0:
231,333,64752,2,0,P|255:322|376:376,1,168,0|0,3:0|3:0,0:0:0:0:
504,271,65924,1,8,0:0:0:0:
493,278,66159,6,0,P|461:287|359:217,1,168,0|0,3:0|3:0,0:0:0:0:
208,146,67331,1,8,0:0:0:0:
219,154,67566,2,0,L|240:329,1,168,0|0,3:0|3:0,0:0:0:0:
239,320,68738,1,8,0:0:0:0:
307,379,68972,6,0,P|262:356|199:358,1,112,0|8,3:0|0:0,0:0:0:0:
104,379,69676,2,0,L|122:268,1,112,0|8,3:0|0:0,0:0:0:0:
33,192,70379,2,0,P|39:190|88:177,1,56,0|8,3:0|0:1,0:0:0:0:
108,160,70731,1,0,0:0:0:0:
104,151,70848,6,0,L|114:110,1,31.4999990386963,8|0,0:1|3:0,0:0:0:0:
55,35,71083,1,8,0:0:0:0:
55,35,71786,6,0,P|116:44|196:-3,1,154.000004699707,14|2,3:2|0:1,0:0:0:0:
289,74,72489,2,0,P|298:69|373:56,1,77.0000023498536,8|2,0:0|0:0,0:0:0:0:
394,34,72840,1,2,0:1:0:0:
399,25,72957,2,0,L|445:16,1,38.5000011749268,2|2,0:1|0:1,0:0:0:0:
473,32,73192,6,0,L|446:193,1,154.000004699707,0|2,3:0|0:1,0:0:0:0:
372,249,73895,2,0,P|376:257|388:322,1,77.0000023498536,8|2,0:0|0:0,0:0:0:0:
478,375,74363,1,2,0:1:0:0:
287,342,74598,6,0,L|200:360,1,77.0000023498536,0|2,3:0|0:0,0:0:0:0:
71,203,75066,1,2,0:1:0:0:
10,286,75301,2,0,P|49:298|153:253,1,154.000004699707,8|2,0:0|0:1,0:0:0:0:
240,160,76004,2,0,L|211:-4,1,154.000004699707,0|2,3:0|0:1,0:0:0:0:
356,112,76707,2,0,L|439:92,1,77.0000023498536,8|2,0:0|0:0,0:0:0:0:
467,110,77059,1,2,0:1:0:0:
474,106,77176,6,0,L|486:61,2,38.5000011749268,2|0|0,0:1|0:0|3:0,0:0:0:0:
323,305,77879,1,2,0:1:0:0:
386,384,78113,2,0,P|353:353|237:346,1,154.000004699707,8|2,0:0|0:1,0:0:0:0:
187,276,78816,2,0,L|215:110,1,154.000004699707,0|2,3:0|0:1,0:0:0:0:
105,145,79519,2,0,P|110:137|131:71,1,77.0000023498536,8|2,0:0|0:0,0:0:0:0:
179,60,79871,1,2,0:1:0:0:
170,56,79988,2,0,L|160:15,1,38.5000011749268,2|2,0:1|0:1,0:0:0:0:
138,0,80222,6,0,B|210:-3|213:35|293:39,1,154.000004699707,0|2,3:0|0:1,0:0:0:0:
372,0,80925,2,0,P|374:13|392:77,1,77.0000023498536,8|2,0:0|0:0,0:0:0:0:
339,154,81394,1,2,0:1:0:0:
487,208,81628,2,0,P|452:196|366:261,1,154.000004699707,0|2,3:0|0:1,0:0:0:0:
486,350,82332,6,0,L|494:309,1,41.9999987182618,8|0,0:0|0:0,0:0:0:0:
491,355,82566,6,0,L|499:314,1,41.9999987182618,8|0,0:1|0:0,0:0:0:0:
495,362,82800,6,0,L|505:318,1,41.9999987182618,8|0,0:1|0:0,0:0:0:0:
512,353,83035,6,0,L|357:377,1,154.000004699707,4|2,0:0|0:1,0:0:0:0:
271,327,83738,2,0,P|272:314|288:242,1,77.0000023498536,8|2,0:0|0:0,0:0:0:0:
97,197,84206,1,2,0:1:0:0:
169,111,84441,2,0,L|197:274,1,154.000004699707,0|2,3:0|0:1,0:0:0:0:
118,326,85144,2,0,P|107:284|116:248,1,77.0000023498536,8|2,0:0|0:0,0:0:0:0:
221,169,85613,1,2,0:1:0:0:
312,218,85847,5,0,3:0:0:0:
404,194,86081,1,2,0:0:0:0:
497,170,86316,1,2,0:1:0:0:
512,264,86550,6,0,L|436:247,1,77.0000023498536,8|2,0:0|0:0,0:0:0:0:
296,140,87019,1,2,0:1:0:0:
368,74,87253,2,0,P|363:47|345:-10,2,77.0000023498536,0|2|2,3:0|0:0|0:1,0:0:0:0:
441,129,87956,2,0,P|478:134|512:117,1,77.0000023498536,8|2,0:0|0:0,0:0:0:0:
251,46,88425,5,2,0:1:0:0:
251,46,88542,1,2,0:1:0:0:
251,46,88659,2,0,P|220:51|85:71,1,154.000004699707,0|2,3:0|0:1,0:0:0:0:
21,149,89362,2,0,P|12:111|0:71,1,77.0000023498536,8|2,0:0|0:0,0:0:0:0:
121,198,89831,1,2,0:1:0:0:
40,276,90065,6,0,P|29:313|37:350,1,77.0000023498536,0|2,3:0|0:0,0:0:0:0:
71,364,90417,1,2,0:1:0:0:
78,369,90534,2,0,L|121:360,1,38.5000011749268,2|2,0:1|0:1,0:0:0:0:
156,376,90768,2,0,P|171:365|234:353,1,77.0000023498536,8|2,0:0|0:0,0:0:0:0:
353,282,91237,6,0,L|365:236,2,38.5000011749268,2|2|0,0:1|0:1|3:0,0:0:0:0:
218,12,91940,1,2,0:1:0:0:
314,113,92175,2,0,P|292:118|236:132,1,77.0000023498536,8|8,0:0|0:1,0:0:0:0:
213,116,92526,1,0,0:0:0:0:
205,113,92643,2,0,L|159:123,1,38.5000011749268,8|0,0:1|0:0,0:0:0:0:
106,64,92878,6,0,L|111:36,1,28.8750008811951,2|0,0:0|0:0,0:0:0:0:
106,64,94284,5,4,0:0:0:0:
40,363,105533,6,0,L|65:197,1,168,4|8,0:0|0:0,0:0:0:0:
65,197,106705,1,8,0:3:0:0:
0,140,106939,2,0,P|79:152|137:95,1,168,0|8,3:0|0:0,0:0:0:0:
303,8,108111,5,8,0:3:0:0:
295,11,108345,2,0,L|279:87,1,56,0|2,3:0|0:3,0:0:0:0:
213,126,108814,5,8,0:3:0:0:
220,131,109048,2,0,L|236:207,1,56,8|2,0:0|0:3,0:0:0:0:
303,238,109517,1,8,0:3:0:0:
373,183,109751,6,0,P|462:177|492:244,1,168,0|8,3:0|0:0,0:0:0:0:
492,238,111157,6,0,P|502:181|513:126,1,112,0|8,3:0|0:3,0:0:0:0:
446,61,111860,2,0,P|402:76|336:82,1,112,8|8,0:0|0:3,0:0:0:0:
254,116,112564,2,0,P|164:99|71:90,1,168,0|8,3:0|0:0,0:0:0:0:
87,91,113735,1,8,0:3:0:0:
17,156,113970,6,0,P|47:187|47:260,1,112,0|8,3:0|0:3,0:0:0:0:
115,317,114673,2,0,L|102:378,1,56,8|2,0:0|0:3,0:0:0:0:
13,384,115141,1,8,0:3:0:0:
199,344,115376,2,0,L|316:359,1,112,8|12,0:1|0:1,0:0:0:0:
390,304,116079,2,0,L|381:245,2,56,0|8|8,3:0|0:1|0:1,0:0:0:0:
469,358,116782,5,4,0:0:0:0:
298,210,117251,1,2,0:3:0:0:
292,202,117485,2,0,L|312:84,1,112,8|2,0:0|0:3,0:0:0:0:
381,20,118188,2,0,P|331:48|271:43,1,112,0|2,3:0|0:3,0:0:0:0:
200,93,118891,2,0,P|155:82|72:74,1,112,8|2,0:0|0:3,0:0:0:0:
13,133,119594,6,0,P|9:117|0:78,2,56,0|2|2,3:0|0:3|0:3,0:0:0:0:
86,190,120297,2,0,L|71:265,1,56,8|2,0:0|0:3,0:0:0:0:
0,309,120766,1,2,0:3:0:0:
69,377,121000,2,0,P|115:335|226:330,1,168,0|8,3:0|0:0,0:0:0:0:
406,382,122407,6,0,L|428:260,1,112,0|2,3:0|0:3,0:0:0:0:
512,200,123110,2,0,P|458:191|428:146,1,112,8|2,0:0|0:1,0:0:0:0:
375,65,123813,2,0,L|392:-5,2,56,0|2|2,3:0|0:3|0:3,0:0:0:0:
296,127,124516,2,0,B|222:118|222:178|123:168,1,168,8|0,0:0|3:0,0:0:0:0:
136,168,127211,6,0,L|155:164,2,15.7499995193482,8|0|8,0:3|0:0|0:3,0:0:0:0:
168,174,127562,2,0,L|180:105,1,62.9999980773926,8|2,0:1|0:1,0:0:0:0:
254,32,128031,6,0,B|199:-27|130:-3|130:-3|157:-3|173:17,1,181.999991668702,4|2,0:0|0:3,0:0:0:0:
152,38,128617,1,2,0:0:0:0:
144,44,128734,2,0,P|93:45|56:25,1,83.9999974365235,4|2,0:3|0:3,0:0:0:0:
253,150,129203,2,0,L|335:133,1,83.9999974365235,2|4,0:3|0:3,0:0:0:0:
462,178,129672,2,0,L|447:225,1,41.9999987182618,2|2,0:3|0:0,0:0:0:0:
413,229,129906,2,0,L|399:268,1,41.9999987182618,2|2,0:3|0:0,0:0:0:0:
425,299,130140,6,0,P|401:289|286:358,1,167.999994873047,4|2,0:3|0:3,0:0:0:0:
99,252,130843,1,4,0:3:0:0:
128,379,131078,1,2,0:3:0:0:
127,370,131195,1,2,0:0:0:0:
132,365,131312,1,2,0:3:0:0:
139,360,131429,1,0,0:0:0:0:
158,354,131546,6,0,P|101:345|61:335,1,83.9999974365235,4|2,0:3|0:3,0:0:0:0:
244,178,132015,2,0,P|202:187|161:193,1,83.9999974365235,2|4,0:3|0:3,0:0:0:0:
311,298,132484,2,0,P|335:283|397:276,1,83.9999974365235,2|2,0:3|0:3,0:0:0:0:
468,196,132953,1,4,0:3:0:0:
466,190,133187,1,2,0:3:0:0:
462,195,133421,1,2,0:3:0:0:
462,201,133656,6,0,L|484:71,1,125.999996154785,4|2,0:3|0:0,0:0:0:0:
467,50,134124,2,0,L|426:59,1,41.9999987182618,2|2,0:3|0:0,0:0:0:0:
406,45,134359,1,4,0:3:0:0:
308,122,134593,6,0,B|290:121|265:141|265:141|299:26,1,167.999994873047,2|4,0:3|0:3,0:0:0:0:
169,102,135296,1,2,0:3:0:0:
159,103,135413,1,2,0:0:0:0:
151,107,135531,1,2,0:3:0:0:
1,33,135765,5,4,0:3:0:0:
30,119,135999,1,2,0:3:0:0:
56,205,136234,1,2,0:3:0:0:
0,286,136468,6,0,P|62:273|107:371,1,167.999994873047,4|2,0:3|0:3,0:0:0:0:
204,384,137171,2,0,L|292:368,1,83.9999974365235,4|2,0:3|0:3,0:0:0:0:
375,306,137640,1,2,0:3:0:0:
450,384,137874,2,0,P|452:373|470:297,1,83.9999974365235,8|8,0:3|0:1,0:0:0:0:
454,176,138343,2,0,P|456:168|467:137,1,41.9999987182618,8|8,0:1|0:3,0:0:0:0:
498,126,138577,6,0,P|467:126|420:96,1,83.9999974365235,8|12,0:3|0:1,0:0:0:0:
355,24,139046,1,12,0:1:0:0:
270,109,139280,6,0,P|221:98|127:161,1,167.999994873047,4|2,0:0|0:3,0:0:0:0:
32,110,139983,2,0,P|43:89|38:24,1,83.9999974365235,4|2,0:3|0:3,0:0:0:0:
128,160,140452,2,0,P|118:198|107:251,1,83.9999974365235,2|4,0:3|0:3,0:0:0:0:
13,355,140921,2,0,P|45:329|86:323,1,83.9999974365235,2|2,0:3|0:3,0:0:0:0:
274,316,141389,1,4,0:3:0:0:
197,384,141624,2,0,P|192:359|178:294,1,83.9999974365235,2|2,0:3|0:3,0:0:0:0:
247,197,142093,6,0,B|329:190|330:242|411:236,1,167.999994873047,4|2,0:3|0:3,0:0:0:0:
496,274,142796,2,0,P|505:258|509:191,1,83.9999974365235,4|2,0:3|0:3,0:0:0:0:
480,169,143147,1,2,0:0:0:0:
475,159,143264,2,0,L|486:106,1,41.9999987182618,2|2,0:3|0:0,0:0:0:0:
509,75,143499,2,0,P|478:86|339:111,1,167.999994873047,4|2,0:3|0:3,0:0:0:0:
208,25,144202,1,4,0:3:0:0:
215,23,144436,1,2,0:3:0:0:
209,17,144670,1,2,0:3:0:0:
217,17,144905,6,0,L|244:197,1,167.999994873047,4|2,0:3|0:3,0:0:0:0:
159,219,145608,2,0,P|175:243|189:300,1,83.9999974365235,4|2,0:3|0:3,0:0:0:0:
240,313,145959,1,2,0:0:0:0:
232,321,146077,2,0,L|219:372,1,41.9999987182618,2|2,0:3|0:0,0:0:0:0:
199,384,146311,6,0,P|302:325|357:333,1,167.999994873047,4|2,0:3|0:3,0:0:0:0:
397,154,147014,1,4,0:3:0:0:
469,226,147248,2,0,P|454:230|383:246,1,83.9999974365235,2|2,0:3|0:3,0:0:0:0:
279,207,147717,6,0,P|281:193|302:119,1,83.9999974365235,4|2,0:3|0:3,0:0:0:0:
158,23,148186,2,0,L|166:64,2,41.9999987182618,2|2|4,0:3|0:0|0:3,0:0:0:0:
103,131,148654,2,0,P|63:139|17:115,1,83.9999974365235,2|2,0:3|0:3,0:0:0:0:
270,33,149123,6,0,P|274:32|309:20,1,41.9999987182618,8|0,0:3|0:0,0:0:0:0:
339,40,149358,2,0,P|364:37|424:51,1,83.9999974365235,8|8,0:1|0:1,0:0:0:0:
456,77,149709,1,8,0:3:0:0:
448,80,149826,2,0,P|438:121|428:162,1,83.9999974365235,8|8,0:3|0:1,0:0:0:0:
341,227,150295,1,8,0:1:0:0:
511,263,150529,6,0,P|467:248|394:349,1,188.999994232178,4|0,0:0|3:0,0:0:0:0:
393,345,151701,1,2,0:3:0:0:
298,315,151935,2,0,P|236:331|173:336,1,125.999996154785,0|8,3:0|0:3,0:0:0:0:
79,384,152639,2,0,P|84:351|98:311,1,62.9999980773926,0|2,3:0|0:3,0:0:0:0:
146,236,153107,5,8,0:3:0:0:
142,229,153224,1,0,0:0:0:0:
134,226,153342,2,0,P|124:178|106:94,1,125.999996154785,0|2,3:0|0:3,0:0:0:0:
197,62,154045,2,0,L|209:-10,2,62.9999980773926,0|2|2,3:0|0:3|0:3,0:0:0:0:
282,106,154748,2,0,P|314:114|401:1,1,188.999994232178,0|0,3:0|3:0,0:0:0:0:
172,209,155920,5,8,0:3:0:0:
167,221,156154,2,0,L|186:350,1,125.999996154785,4|0,0:0|0:0,0:0:0:0:
268,378,156857,2,0,L|335:364,1,62.9999980773926,0|2,3:0|0:3,0:0:0:0:
462,233,157326,1,8,0:3:0:0:
512,313,157560,2,0,P|485:271|352:262,1,188.999994232178,0|0,3:0|3:0,0:0:0:0:
256,74,158732,1,8,0:3:0:0:
249,61,158966,6,0,L|269:-17,2,62.9999980773926,0|8|8,3:0|0:3|0:3,0:0:0:0:
149,101,159669,2,0,B|20:72|20:72|54:93|53:122,1,188.999994232178,0|8,3:3|0:3,0:0:0:0:
1,225,160607,5,8,0:1:0:0:
75,305,160841,1,8,0:1:0:0:
1,366,161075,1,8,0:3:0:0:
0,370,184277,6,0,P|97:307|142:326,1,154.000004699707,14|2,3:2|0:3,0:0:0:0:
236,368,184980,2,0,L|274:356,1,38.5000011749268,8|0,0:3|0:0,0:0:0:0:
306,384,185214,1,2,0:1:0:0:
310,378,185331,1,2,0:3:0:0:
315,374,185448,2,0,L|364:365,1,38.5000011749268,2|2,0:3|0:3,0:0:0:0:
388,384,185683,6,0,P|397:338|420:232,1,154.000004699707,0|2,3:0|0:3,0:0:0:0:
352,160,186386,2,0,P|353:153|368:84,1,77.0000023498536,8|2,0:3|0:1,0:0:0:0:
346,62,186737,1,2,0:3:0:0:
338,58,186855,2,0,L|287:68,1,38.5000011749268,2|2,0:3|0:3,0:0:0:0:
260,97,187089,5,0,3:0:0:0:
176,77,187323,1,2,0:1:0:0:
91,109,187558,1,2,0:3:0:0:
41,183,187792,1,8,0:3:0:0:
130,271,188026,6,0,L|149:185,2,77.0000023498536,2|2|0,0:1|0:3|3:0,0:0:0:0:
24,297,188729,2,0,P|11:265|25:220,1,77.0000023498536,2|2,0:1|0:3,0:0:0:0:
138,368,189198,2,0,P|102:375|47:388,1,77.0000023498536,8|2,0:3|0:3,0:0:0:0:
243,304,189667,5,2,0:3:0:0:
243,304,189784,1,2,0:3:0:0:
243,304,189901,2,0,L|403:325,1,154.000004699707,0|2,3:0|0:3,0:0:0:0:
478,250,190604,2,0,L|492:183,1,38.5000011749268,8|0,0:3|0:0,0:0:0:0:
458,184,190839,1,2,0:1:0:0:
461,178,190956,1,2,0:3:0:0:
464,173,191073,2,0,L|455:114,2,38.5000011749268,2|2|0,0:3|0:3|3:0,0:0:0:0:
512,76,191542,5,2,0:1:0:0:
368,149,191776,1,2,0:3:0:0:
279,129,192010,1,8,0:3:0:0:
191,112,192245,1,2,0:1:0:0:
109,230,192479,1,2,0:3:0:0:
27,194,192714,6,0,L|200:168,1,154.000004699707,0|2,3:0|0:3,0:0:0:0:
277,239,193417,2,0,L|268:279,1,38.5000011749268,8|0,0:3|0:0,0:0:0:0:
222,303,193651,1,2,0:1:0:0:
227,309,193768,1,2,0:3:0:0:
233,317,193885,2,0,L|226:354,1,38.5000011749268,2|2,0:3|0:3,0:0:0:0:
256,384,194120,6,0,P|264:379|336:361,1,77.0000023498536,8|2,0:3|0:1,0:0:0:0:
489,281,194588,5,2,0:3:0:0:
486,273,194706,2,0,L|497:229,2,38.5000011749268,10|8|0,0:3|0:3|0:0,0:0:0:0:
442,171,195057,1,8,0:1:0:0:
439,176,195291,1,8,0:1:0:0:
444,179,195526,6,0,L|467:24,1,154.000004699707,4|2,0:0|0:3,0:0:0:0:
338,103,196229,2,0,P|289:103|254:76,1,77.0000023498536,8|2,0:3|0:1,0:0:0:0:
224,119,196580,1,2,0:3:0:0:
219,111,196698,2,0,L|181:100,1,38.5000011749268,2|2,0:3|0:3,0:0:0:0:
142,79,196932,6,0,B|52:109|52:109|36:89|4:75,1,154.000004699707,0|2,3:0|0:3,0:0:0:0:
135,215,197635,2,0,L|117:306,1,77.0000023498536,8|2,0:3|0:1,0:0:0:0:
58,381,198104,1,2,0:3:0:0:
58,381,198221,1,2,0:3:0:0:
58,381,198338,6,0,P|164:345|201:355,1,154.000004699707,0|2,3:0|0:3,0:0:0:0:
351,260,199041,2,0,P|317:262|268:232,1,77.0000023498536,8|2,0:3|0:1,0:0:0:0:
241,218,199393,1,2,0:3:0:0:
234,211,199510,2,0,L|228:154,1,38.5000011749268,2|2,0:3|0:3,0:0:0:0:
263,135,199744,6,0,P|269:97|281:60,1,77.0000023498536,0|6,3:0|0:1,0:0:0:0:
173,86,200213,1,6,0:3:0:0:
160,80,200330,1,2,0:3:0:0:
147,80,200447,1,12,0:3:0:0:
370,178,200682,1,6,0:3:0:0:
363,173,200916,1,6,0:3:0:0:
362,183,201150,6,0,B|454:163|454:163|476:188|524:183,1,154.000004699707,0|2,3:0|0:3,0:0:0:0:
372,310,201853,2,0,P|362:302|294:295,1,77.0000023498536,8|2,0:3|0:1,0:0:0:0:
277,322,202205,1,2,0:3:0:0:
269,321,202322,2,0,L|231:330,1,38.5000011749268,2|2,0:3|0:3,0:0:0:0:
190,293,202557,6,0,P|189:279|212:209,1,77.0000023498536,0|2,3:0|0:1,0:0:0:0:
19,140,203025,2,0,L|34:223,1,77.0000023498536,2|8,0:3|0:3,0:0:0:0:
130,80,203494,2,0,P|136:48|119:-4,1,77.0000023498536,2|2,0:1|0:3,0:0:0:0:
246,131,203963,6,0,B|323:135|326:88|413:102,1,154.000004699707,0|2,3:0|0:3,0:0:0:0:
511,17,204666,2,0,P|460:8|426:-4,1,77.0000023498536,8|2,0:3|0:1,0:0:0:0:
394,99,205134,1,2,0:3:0:0:
448,200,205369,6,0,L|439:234,1,28.8750008811951,8|0,0:3|0:0,0:0:0:0:
511,283,205603,6,0,P|496:273|434:258,1,77.0000023498536,8|8,3:1|3:1,0:0:0:0:
386,329,205984,1,8,0:3:0:0:
392,338,206072,2,0,P|417:355|468:361,1,77.0000023498536,8|8,0:3|0:1,0:0:0:0:
297,256,206541,1,8,0:1:0:0:
229,316,206775,6,0,L|190:309,1,38.5000011749268,4|0,0:0|0:0,0:0:0:0:
